  0
SECTION
  2
HEADER
  9
$ACADVER
  1
AC1024
  9
$ACADMAINTVER
 70
     6
  9
$DWGCODEPAGE
  3
ANSI_1252
  9
$INSBASE
 10
0.0
 20
0.0
 30
0.0
  9
$EXTMIN
 10
-314.326250525373
 20
17.00088970765
 30
0.0
  9
$EXTMAX
 10
435.648043987683
 20
332.463162614749
 30
0.0
  9
$LIMMIN
 10
0.0
 20
0.0
  9
$LIMMAX
 10
420.0
 20
297.0
  9
$ORTHOMODE
 70
     0
  9
$REGENMODE
 70
     1
  9
$FILLMODE
 70
     1
  9
$QTEXTMODE
 70
     0
  9
$MIRRTEXT
 70
     1
  9
$LTSCALE
 40
5.0
  9
$ATTMODE
 70
     1
  9
$TEXTSIZE
 40
2.5
  9
$TRACEWID
 40
1.0
  9
$TEXTSTYLE
  7
Standard
  9
$CLAYER
  8
0
  9
$CELTYPE
  6
ByLayer
  9
$CECOLOR
 62
   256
  9
$CELTSCALE
 40
1.0
  9
$DISPSILH
 70
     0
  9
$DIMSCALE
 40
1.0
  9
$DIMASZ
 40
2.5
  9
$DIMEXO
 40
0.625
  9
$DIMDLI
 40
3.75
  9
$DIMRND
 40
0.0
  9
$DIMDLE
 40
0.0
  9
$DIMEXE
 40
1.25
  9
$DIMTP
 40
0.0
  9
$DIMTM
 40
0.0
  9
$DIMTXT
 40
2.5
  9
$DIMCEN
 40
2.5
  9
$DIMTSZ
 40
0.0
  9
$DIMTOL
 70
     0
  9
$DIMLIM
 70
     0
  9
$DIMTIH
 70
     0
  9
$DIMTOH
 70
     0
  9
$DIMSE1
 70
     0
  9
$DIMSE2
 70
     0
  9
$DIMTAD
 70
     1
  9
$DIMZIN
 70
     8
  9
$DIMBLK
  1

  9
$DIMASO
 70
     1
  9
$DIMSHO
 70
     1
  9
$DIMPOST
  1

  9
$DIMAPOST
  1

  9
$DIMALT
 70
     0
  9
$DIMALTD
 70
     3
  9
$DIMALTF
 40
0.03937007874
  9
$DIMLFAC
 40
1.0
  9
$DIMTOFL
 70
     1
  9
$DIMTVP
 40
0.0
  9
$DIMTIX
 70
     0
  9
$DIMSOXD
 70
     0
  9
$DIMSAH
 70
     0
  9
$DIMBLK1
  1

  9
$DIMBLK2
  1

  9
$DIMSTYLE
  2
ISO-25
  9
$DIMCLRD
 70
     0
  9
$DIMCLRE
 70
     0
  9
$DIMCLRT
 70
     0
  9
$DIMTFAC
 40
1.0
  9
$DIMGAP
 40
0.625
  9
$DIMJUST
 70
     0
  9
$DIMSD1
 70
     0
  9
$DIMSD2
 70
     0
  9
$DIMTOLJ
 70
     0
  9
$DIMTZIN
 70
     8
  9
$DIMALTZ
 70
     0
  9
$DIMALTTZ
 70
     0
  9
$DIMUPT
 70
     0
  9
$DIMDEC
 70
     2
  9
$DIMTDEC
 70
     2
  9
$DIMALTU
 70
     2
  9
$DIMALTTD
 70
     3
  9
$DIMTXSTY
  7
Standard
  9
$DIMAUNIT
 70
     0
  9
$DIMADEC
 70
     0
  9
$DIMALTRND
 40
0.0
  9
$DIMAZIN
 70
     0
  9
$DIMDSEP
 70
    44
  9
$DIMATFIT
 70
     3
  9
$DIMFRAC
 70
     0
  9
$DIMLDRBLK
  1

  9
$DIMLUNIT
 70
     2
  9
$DIMLWD
 70
    -2
  9
$DIMLWE
 70
    -2
  9
$DIMTMOVE
 70
     0
  9
$DIMFXL
 40
1.0
  9
$DIMFXLON
 70
     0
  9
$DIMJOGANG
 40
0.785398163397
  9
$DIMTFILL
 70
     0
  9
$DIMTFILLCLR
 70
     0
  9
$DIMARCSYM
 70
     0
  9
$DIMLTYPE
  6

  9
$DIMLTEX1
  6

  9
$DIMLTEX2
  6

  9
$DIMTXTDIRECTION
 70
     0
  9
$LUNITS
 70
     2
  9
$LUPREC
 70
     4
  9
$SKETCHINC
 40
1.0
  9
$FILLETRAD
 40
10.0
  9
$AUNITS
 70
     0
  9
$AUPREC
 70
     0
  9
$MENU
  1
.
  9
$ELEVATION
 40
0.0
  9
$PELEVATION
 40
0.0
  9
$THICKNESS
 40
0.0
  9
$LIMCHECK
 70
     0
  9
$CHAMFERA
 40
0.0
  9
$CHAMFERB
 40
0.0
  9
$CHAMFERC
 40
0.0
  9
$CHAMFERD
 40
0.0
  9
$SKPOLY
 70
     0
  9
$TDCREATE
 40
2457955.565646401
  9
$TDUCREATE
 40
2457955.482313067
  9
$TDUPDATE
 40
2457955.565655799
  9
$TDUUPDATE
 40
2457955.482322465
  9
$TDINDWG
 40
0.0000000116
  9
$TDUSRTIMER
 40
0.0000000116
  9
$USRTIMER
 70
     1
  9
$ANGBASE
 50
0.0
  9
$ANGDIR
 70
     0
  9
$PDMODE
 70
     2
  9
$PDSIZE
 40
1.0
  9
$PLINEWID
 40
0.0
  9
$SPLFRAME
 70
     0
  9
$SPLINETYPE
 70
     6
  9
$SPLINESEGS
 70
     8
  9
$HANDSEED
  5
272
  9
$SURFTAB1
 70
     6
  9
$SURFTAB2
 70
     6
  9
$SURFTYPE
 70
     6
  9
$SURFU
 70
     6
  9
$SURFV
 70
     6
  9
$UCSBASE
  2

  9
$UCSNAME
  2

  9
$UCSORG
 10
0.0
 20
0.0
 30
0.0
  9
$UCSXDIR
 10
1.0
 20
0.0
 30
0.0
  9
$UCSYDIR
 10
0.0
 20
1.0
 30
0.0
  9
$UCSORTHOREF
  2

  9
$UCSORTHOVIEW
 70
     0
  9
$UCSORGTOP
 10
0.0
 20
0.0
 30
0.0
  9
$UCSORGBOTTOM
 10
0.0
 20
0.0
 30
0.0
  9
$UCSORGLEFT
 10
0.0
 20
0.0
 30
0.0
  9
$UCSORGRIGHT
 10
0.0
 20
0.0
 30
0.0
  9
$UCSORGFRONT
 10
0.0
 20
0.0
 30
0.0
  9
$UCSORGBACK
 10
0.0
 20
0.0
 30
0.0
  9
$PUCSBASE
  2

  9
$PUCSNAME
  2

  9
$PUCSORG
 10
0.0
 20
0.0
 30
0.0
  9
$PUCSXDIR
 10
1.0
 20
0.0
 30
0.0
  9
$PUCSYDIR
 10
0.0
 20
1.0
 30
0.0
  9
$PUCSORTHOREF
  2

  9
$PUCSORTHOVIEW
 70
     0
  9
$PUCSORGTOP
 10
0.0
 20
0.0
 30
0.0
  9
$PUCSORGBOTTOM
 10
0.0
 20
0.0
 30
0.0
  9
$PUCSORGLEFT
 10
0.0
 20
0.0
 30
0.0
  9
$PUCSORGRIGHT
 10
0.0
 20
0.0
 30
0.0
  9
$PUCSORGFRONT
 10
0.0
 20
0.0
 30
0.0
  9
$PUCSORGBACK
 10
0.0
 20
0.0
 30
0.0
  9
$USERI1
 70
     0
  9
$USERI2
 70
     0
  9
$USERI3
 70
     0
  9
$USERI4
 70
     0
  9
$USERI5
 70
     0
  9
$USERR1
 40
0.0
  9
$USERR2
 40
0.0
  9
$USERR3
 40
0.0
  9
$USERR4
 40
0.0
  9
$USERR5
 40
0.0
  9
$WORLDVIEW
 70
     1
  9
$SHADEDGE
 70
     3
  9
$SHADEDIF
 70
    70
  9
$TILEMODE
 70
     1
  9
$MAXACTVP
 70
    64
  9
$PINSBASE
 10
0.0
 20
0.0
 30
0.0
  9
$PLIMCHECK
 70
     0
  9
$PEXTMIN
 10
1.000000000000E+20
 20
1.000000000000E+20
 30
1.000000000000E+20
  9
$PEXTMAX
 10
-1.000000000000E+20
 20
-1.000000000000E+20
 30
-1.000000000000E+20
  9
$PLIMMIN
 10
0.0
 20
0.0
  9
$PLIMMAX
 10
420.0
 20
297.0
  9
$UNITMODE
 70
     0
  9
$VISRETAIN
 70
     1
  9
$PLINEGEN
 70
     0
  9
$PSLTSCALE
 70
     1
  9
$TREEDEPTH
 70
  3020
  9
$CMLSTYLE
  2
Standard
  9
$CMLJUST
 70
     0
  9
$CMLSCALE
 40
20.0
  9
$PROXYGRAPHICS
 70
     1
  9
$MEASUREMENT
 70
     1
  9
$CELWEIGHT
370
    -1
  9
$ENDCAPS
280
     0
  9
$JOINSTYLE
280
     0
  9
$LWDISPLAY
290
     0
  9
$INSUNITS
 70
     4
  9
$HYPERLINKBASE
  1

  9
$STYLESHEET
  1

  9
$XEDIT
290
     1
  9
$CEPSNTYPE
380
     0
  9
$PSTYLEMODE
290
     1
  9
$FINGERPRINTGUID
  2
{27C121A5-BF2A-41AD-8344-4B3744DFBE24}
  9
$VERSIONGUID
  2
{FAEB1C32-E019-11D5-929B-00C0DF256EC4}
  9
$EXTNAMES
290
     1
  9
$PSVPSCALE
 40
0.0
  9
$OLESTARTUP
290
     0
  9
$SORTENTS
280
   127
  9
$INDEXCTL
280
     0
  9
$HIDETEXT
280
     1
  9
$XCLIPFRAME
280
     2
  9
$HALOGAP
280
     0
  9
$OBSCOLOR
 70
   257
  9
$OBSLTYPE
280
     0
  9
$INTERSECTIONDISPLAY
280
     0
  9
$INTERSECTIONCOLOR
 70
   257
  9
$DIMASSOC
280
     2
  9
$PROJECTNAME
  1

  9
$CAMERADISPLAY
290
     0
  9
$LENSLENGTH
 40
50.0
  9
$CAMERAHEIGHT
 40
0.0
  9
$STEPSPERSEC
 40
2.0
  9
$STEPSIZE
 40
6.0
  9
$3DDWFPREC
 40
2.0
  9
$PSOLWIDTH
 40
5.0
  9
$PSOLHEIGHT
 40
80.0
  9
$LOFTANG1
 40
1.570796326795
  9
$LOFTANG2
 40
1.570796326795
  9
$LOFTMAG1
 40
0.0
  9
$LOFTMAG2
 40
0.0
  9
$LOFTPARAM
 70
     7
  9
$LOFTNORMALS
280
     1
  9
$LATITUDE
 40
37.795
  9
$LONGITUDE
 40
-122.394
  9
$NORTHDIRECTION
 40
0.0
  9
$TIMEZONE
 70
 -8000
  9
$LIGHTGLYPHDISPLAY
280
     1
  9
$TILEMODELIGHTSYNCH
280
     1
  9
$CMATERIAL
347
44
  9
$SOLIDHIST
280
     0
  9
$SHOWHIST
280
     1
  9
$DWFFRAME
280
     2
  9
$DGNFRAME
280
     2
  9
$REALWORLDSCALE
290
     1
  9
$INTERFERECOLOR
 62
   256
  9
$CSHADOW
280
     0
  9
$SHADOWPLANELOCATION
 40
0.0
  0
ENDSEC
  0
SECTION
  2
CLASSES
  0
CLASS
  1
ACDBDICTIONARYWDFLT
  2
AcDbDictionaryWithDefault
  3
ObjectDBX Classes
 90
        0
 91
        4
280
     0
281
     0
  0
CLASS
  1
VISUALSTYLE
  2
AcDbVisualStyle
  3
ObjectDBX Classes
 90
     4095
 91
        4
280
     0
281
     0
  0
CLASS
  1
MATERIAL
  2
AcDbMaterial
  3
ObjectDBX Classes
 90
     1153
 91
        4
280
     0
281
     0
  0
CLASS
  1
SCALE
  2
AcDbScale
  3
ObjectDBX Classes
 90
     1153
 91
        4
280
     0
281
     0
  0
CLASS
  1
TABLESTYLE
  2
AcDbTableStyle
  3
ObjectDBX Classes
 90
     4095
 91
        4
280
     0
281
     0
  0
CLASS
  1
MLEADERSTYLE
  2
AcDbMLeaderStyle
  3
ACDB_MLEADERSTYLE_CLASS
 90
     4095
 91
        4
280
     0
281
     0
  0
CLASS
  1
SUN
  2
AcDbSun
  3
SCENEOE
 90
     1153
 91
        4
280
     0
281
     0
  0
CLASS
  1
WIPEOUT
  2
AcDbWipeout
  3
WipeOut|AutoCAD Express Tool|expresstools@autodesk.com
 90
      127
 91
        4
280
     0
281
     1
  0
CLASS
  1
DICTIONARYVAR
  2
AcDbDictionaryVar
  3
ObjectDBX Classes
 90
        0
 91
        4
280
     0
281
     0
  0
CLASS
  1
CELLSTYLEMAP
  2
AcDbCellStyleMap
  3
ObjectDBX Classes
 90
     1152
 91
        4
280
     0
281
     0
  0
CLASS
  1
WIPEOUTVARIABLES
  2
AcDbWipeoutVariables
  3
WipeOut|AutoCAD Express Tool|expresstools@autodesk.com
 90
        0
 91
        4
280
     0
281
     0
  0
ENDSEC
  0
SECTION
  2
TABLES
  0
TABLE
  2
VPORT
  5
8
330
0
100
AcDbSymbolTable
 70
     1
  0
VPORT
  5
29
330
8
100
AcDbSymbolTableRecord
100
AcDbViewportTableRecord
  2
*Active
 70
     0
 10
0.0
 20
0.0
 11
1.0
 21
1.0
 12
60.660896731155
 22
174.732026161199
 13
0.0
 23
0.0
 14
10.0
 24
10.0
 15
10.0
 25
10.0
 16
0.0
 26
0.0
 36
1.0
 17
0.0
 27
0.0
 37
0.0
 40
315.462272907099
 41
2.377381889764
 42
50.0
 43
0.0
 44
0.0
 50
0.0
 51
0.0
 71
     0
 72
   100
 73
     1
 74
     3
 75
     0
 76
     0
 77
     0
 78
     0
281
     0
 65
     1
110
0.0
120
0.0
130
0.0
111
1.0
121
0.0
131
0.0
112
0.0
122
1.0
132
0.0
 79
     0
146
0.0
348
2F
 60
     3
 61
     5
292
     1
282
     1
141
0.0
142
0.0
 63
   250
361
6D
  0
ENDTAB
  0
TABLE
  2
LTYPE
  5
5
330
0
100
AcDbSymbolTable
 70
     4
  0
LTYPE
  5
14
330
5
100
AcDbSymbolTableRecord
100
AcDbLinetypeTableRecord
  2
ByBlock
 70
     0
  3

 72
    65
 73
     0
 40
0.0
  0
LTYPE
  5
15
330
5
100
AcDbSymbolTableRecord
100
AcDbLinetypeTableRecord
  2
ByLayer
 70
     0
  3

 72
    65
 73
     0
 40
0.0
  0
LTYPE
  5
16
330
5
100
AcDbSymbolTableRecord
100
AcDbLinetypeTableRecord
  2
Continuous
 70
     0
  3
Solid line
 72
    65
 73
     0
 40
0.0
  0
LTYPE
  5
6E
330
5
100
AcDbSymbolTableRecord
100
AcDbLinetypeTableRecord
  2
AUSGEZOGEN
 70
     0
  3

 72
    65
 73
     0
 40
0.0
  0
LTYPE
  5
70
330
5
100
AcDbSymbolTableRecord
100
AcDbLinetypeTableRecord
  2
DASHDOT
 70
     0
  3

 72
    65
 73
     4
 40
1.0
 49
0.5
 74
     0
 49
-0.25
 74
     0
 49
0.0
 74
     0
 49
-0.25
 74
     0
  0
LTYPE
  5
72
330
5
100
AcDbSymbolTableRecord
100
AcDbLinetypeTableRecord
  2
DASHDOT2
 70
     0
  3

 72
    65
 73
     4
 40
0.5
 49
0.25
 74
     0
 49
-0.125
 74
     0
 49
0.0
 74
     0
 49
-0.125
 74
     0
  0
ENDTAB
  0
TABLE
  2
LAYER
  5
2
330
0
100
AcDbSymbolTable
 70
     7
  0
LAYER
  5
10
330
2
100
AcDbSymbolTableRecord
100
AcDbLayerTableRecord
  2
0
 70
     0
 62
     7
  6
Continuous
370
    -3
390
F
347
46
  0
LAYER
  5
74
330
2
100
AcDbSymbolTableRecord
100
AcDbLayerTableRecord
  2
Layer0
 70
     0
 62
     9
420
 12632256
  6
Continuous
370
    -3
390
F
347
46
  0
LAYER
  5
75
330
2
100
AcDbSymbolTableRecord
100
AcDbLayerTableRecord
  2
Layer1
 70
     0
 62
    18
420
        0
  6
Continuous
370
    -3
390
F
347
46
  0
LAYER
  5
76
330
2
100
AcDbSymbolTableRecord
100
AcDbLayerTableRecord
  2
Layer5
 70
     0
 62
     8
420
  8421504
  6
Continuous
370
    -3
390
F
347
46
  0
LAYER
  5
77
330
2
100
AcDbSymbolTableRecord
100
AcDbLayerTableRecord
  2
Layer6
 70
     0
 62
    18
420
        0
  6
Continuous
370
    -3
390
F
347
46
  0
LAYER
  5
78
330
2
100
AcDbSymbolTableRecord
100
AcDbLayerTableRecord
  2
Layer7
 70
     0
 62
   140
420
    49407
  6
Continuous
370
    -3
390
F
347
46
  0
LAYER
  5
79
330
2
100
AcDbSymbolTableRecord
100
AcDbLayerTableRecord
  2
Layer100
 70
     0
 62
    18
420
        0
  6
Continuous
370
    -3
390
F
347
46
  0
ENDTAB
  0
TABLE
  2
STYLE
  5
3
330
0
100
AcDbSymbolTable
 70
     4
  0
STYLE
  5
11
330
3
100
AcDbSymbolTableRecord
100
AcDbTextStyleTableRecord
  2
Standard
 70
     0
 40
0.0
 41
1.0
 50
0.0
 71
     0
 42
2.5
  3
txt
  4

  0
STYLE
  5
6F
330
3
100
AcDbSymbolTableRecord
100
AcDbTextStyleTableRecord
  2
Arial
 70
     0
 40
0.0
 41
1.0
 50
0.0
 71
     0
 42
2.5
  3
arial.ttf
  4

1001
ACAD
1000
Arial
1071
       34
  0
STYLE
  5
71
330
3
100
AcDbSymbolTableRecord
100
AcDbTextStyleTableRecord
  2
Verdana
 70
     0
 40
0.0
 41
1.0
 50
0.0
 71
     0
 42
2.5
  3
verdana.ttf
  4

1001
ACAD
1000
Verdana
1071
       34
  0
STYLE
  5
73
330
3
100
AcDbSymbolTableRecord
100
AcDbTextStyleTableRecord
  2
Toleranzfont
 70
     0
 40
0.0
 41
1.0
 50
0.0
 71
     0
 42
2.5
  3
IGES1003.SHX
  4

  0
ENDTAB
  0
TABLE
  2
VIEW
  5
6
330
0
100
AcDbSymbolTable
 70
     0
  0
ENDTAB
  0
TABLE
  2
UCS
  5
7
330
0
100
AcDbSymbolTable
 70
     0
  0
ENDTAB
  0
TABLE
  2
APPID
  5
9
330
0
100
AcDbSymbolTable
 70
     1
  0
APPID
  5
12
330
9
100
AcDbSymbolTableRecord
100
AcDbRegAppTableRecord
  2
ACAD
 70
     0
  0
ENDTAB
  0
TABLE
  2
DIMSTYLE
  5
A
330
0
100
AcDbSymbolTable
 70
     1
100
AcDbDimStyleTable
  0
DIMSTYLE
105
27
102
{ACAD_REACTORS
330
167
330
171
330
17B
330
1FB
330
208
330
213
330
220
330
22E
102
}
330
A
100
AcDbSymbolTableRecord
100
AcDbDimStyleTableRecord
  2
ISO-25
 70
     0
 41
2.5
 42
0.625
 43
3.75
 44
1.25
 73
     0
 74
     0
 77
     1
 78
     8
140
2.5
141
2.5
143
0.03937007874
147
0.625
171
     3
172
     1
178
     0
271
     2
272
     2
274
     3
278
    44
283
     0
284
     8
340
11
  0
ENDTAB
  0
TABLE
  2
BLOCK_RECORD
  5
1
330
0
100
AcDbSymbolTable
 70
    19
  0
BLOCK_RECORD
  5
1F
330
1
100
AcDbSymbolTableRecord
100
AcDbBlockTableRecord
  2
*Model_Space
340
22
 70
     0
280
     1
281
     0
  0
BLOCK_RECORD
  5
1B
330
1
100
AcDbSymbolTableRecord
100
AcDbBlockTableRecord
  2
*Paper_Space
340
1E
 70
     0
280
     1
281
     0
  0
BLOCK_RECORD
  5
23
330
1
100
AcDbSymbolTableRecord
100
AcDbBlockTableRecord
  2
*Paper_Space0
340
26
 70
     0
280
     1
281
     0
  0
BLOCK_RECORD
  5
7A
330
1
100
AcDbSymbolTableRecord
100
AcDbBlockTableRecord
  2
Zeichnungskoordinaten_nNn00
340
0
102
{BLKREFS
331
91
102
}
 70
     0
280
     1
281
     0
  0
BLOCK_RECORD
  5
92
330
1
100
AcDbSymbolTableRecord
100
AcDbBlockTableRecord
  2
Zeichnungsrahmen_nNn01
340
0
102
{BLKREFS
331
A2
102
}
 70
     0
280
     1
281
     0
  0
BLOCK_RECORD
  5
A3
330
1
100
AcDbSymbolTableRecord
100
AcDbBlockTableRecord
  2
Schriftfeld_nNn02
340
0
102
{BLKREFS
331
F2
102
}
 70
     0
280
     1
281
     0
  0
BLOCK_RECORD
  5
F3
330
1
100
AcDbSymbolTableRecord
100
AcDbBlockTableRecord
  2
Beschriftung_nNn03
340
0
102
{BLKREFS
331
104
102
}
 70
     0
280
     1
281
     0
  0
BLOCK_RECORD
  5
123
330
1
100
AcDbSymbolTableRecord
100
AcDbBlockTableRecord
  2
SW_NOTE_0_nNn04
340
0
102
{BLKREFS
331
12A
102
}
 70
     0
280
     1
281
     0
  0
BLOCK_RECORD
  5
15E
330
1
100
AcDbSymbolTableRecord
100
AcDbBlockTableRecord
  2
*D6
340
0
 70
     0
280
     1
281
     0
  0
BLOCK_RECORD
  5
168
330
1
100
AcDbSymbolTableRecord
100
AcDbBlockTableRecord
  2
*D7
340
0
 70
     0
280
     1
281
     0
  0
BLOCK_RECORD
  5
172
330
1
100
AcDbSymbolTableRecord
100
AcDbBlockTableRecord
  2
*D8
340
0
 70
     0
280
     1
281
     0
  0
BLOCK_RECORD
  5
18E
330
1
100
AcDbSymbolTableRecord
100
AcDbBlockTableRecord
  2
_Dot_nNn08
340
0
102
{BLKREFS
331
193
102
}
 70
     0
280
     1
281
     0
  0
BLOCK_RECORD
  5
194
330
1
100
AcDbSymbolTableRecord
100
AcDbBlockTableRecord
  2
SW_CENTERMARKSYMBOL_0_nNn09
340
0
102
{BLKREFS
331
19F
102
}
 70
     0
280
     1
281
     0
  0
BLOCK_RECORD
  5
1B2
330
1
100
AcDbSymbolTableRecord
100
AcDbBlockTableRecord
  2
AnonymMegaMac_nNn010
340
0
102
{BLKREFS
331
1BB
102
}
 70
     0
280
     1
281
     0
  0
BLOCK_RECORD
  5
1BC
330
1
100
AcDbSymbolTableRecord
100
AcDbBlockTableRecord
  2
SW_CENTERMARKSYMBOL_1_nNn011
340
0
102
{BLKREFS
331
1C7
102
}
 70
     0
280
     1
281
     0
  0
BLOCK_RECORD
  5
1C8
330
1
100
AcDbSymbolTableRecord
100
AcDbBlockTableRecord
  2
SW_CENTERMARKSYMBOL_2_nNn012
340
0
102
{BLKREFS
331
1D3
102
}
 70
     0
280
     1
281
     0
  0
BLOCK_RECORD
  5
1EA
330
1
100
AcDbSymbolTableRecord
100
AcDbBlockTableRecord
  2
*D14
340
0
 70
     0
280
     1
281
     0
  0
BLOCK_RECORD
  5
1FC
330
1
100
AcDbSymbolTableRecord
100
AcDbBlockTableRecord
  2
*D15
340
0
 70
     0
280
     1
281
     0
  0
BLOCK_RECORD
  5
209
330
1
100
AcDbSymbolTableRecord
100
AcDbBlockTableRecord
  2
*D16
340
0
 70
     0
280
     1
281
     0
  0
BLOCK_RECORD
  5
214
330
1
100
AcDbSymbolTableRecord
100
AcDbBlockTableRecord
  2
*D17
340
0
 70
     0
280
     1
281
     0
  0
BLOCK_RECORD
  5
221
330
1
100
AcDbSymbolTableRecord
100
AcDbBlockTableRecord
  2
*D18
340
0
 70
     0
280
     1
281
     0
  0
ENDTAB
  0
ENDSEC
  0
SECTION
  2
BLOCKS
  0
BLOCK
  5
20
330
1F
100
AcDbEntity
  8
0
100
AcDbBlockBegin
  2
*Model_Space
 70
     0
 10
0.0
 20
0.0
 30
0.0
  3
*Model_Space
  1

  0
ENDBLK
  5
21
330
1F
100
AcDbEntity
  8
0
100
AcDbBlockEnd
  0
BLOCK
  5
1C
330
1B
100
AcDbEntity
 67
     1
  8
0
100
AcDbBlockBegin
  2
*Paper_Space
 70
     0
 10
0.0
 20
0.0
 30
0.0
  3
*Paper_Space
  1

  0
ENDBLK
  5
1D
330
1B
100
AcDbEntity
 67
     1
  8
0
100
AcDbBlockEnd
  0
BLOCK
  5
24
330
23
100
AcDbEntity
  8
0
100
AcDbBlockBegin
  2
*Paper_Space0
 70
     0
 10
0.0
 20
0.0
 30
0.0
  3
*Paper_Space0
  1

  0
ENDBLK
  5
25
330
23
100
AcDbEntity
  8
0
100
AcDbBlockEnd
  0
BLOCK
  5
7B
330
7A
100
AcDbEntity
  8
0
100
AcDbBlockBegin
  2
Zeichnungskoordinaten_nNn00
 70
     0
 10
0.0
 20
0.0
 30
0.0
  3
Zeichnungskoordinaten_nNn00
  1

  0
LINE
  5
7D
330
7A
100
AcDbEntity
  8
Layer100
  6
AUSGEZOGEN
 62
    18
420
        0
370
    18
100
AcDbLine
 10
-21.839103270081
 20
312.711083917825
 30
0.0
 11
163.160896729919
 21
312.711083917825
 31
0.0
  0
LINE
  5
7E
330
7A
100
AcDbEntity
  8
Layer100
  6
AUSGEZOGEN
 62
    18
420
        0
370
    18
100
AcDbLine
 10
-26.839103270081
 20
87.061642065255
 30
0.0
 11
-26.839103270081
 21
317.711083917825
 31
0.0
  0
LINE
  5
7F
330
7A
100
AcDbEntity
  8
Layer100
  6
AUSGEZOGEN
 62
    18
420
        0
370
    18
100
AcDbLine
 10
-26.839103270081
 20
317.711083917825
 30
0.0
 11
-21.839103270081
 21
317.711083917825
 31
0.0
  0
LINE
  5
80
330
7A
100
AcDbEntity
  8
Layer100
  6
AUSGEZOGEN
 62
    18
420
        0
370
    18
100
AcDbLine
 10
-21.839103270081
 20
87.061627377165
 30
0.0
 11
-26.839103270081
 21
87.061642065255
 31
0.0
  0
LINE
  5
81
330
7A
100
AcDbEntity
  8
Layer100
  6
AUSGEZOGEN
 62
    18
420
        0
370
    18
100
AcDbLine
 10
-26.839103270081
 20
133.191530435769
 30
0.0
 11
-21.839103270081
 21
133.191530435769
 31
0.0
  0
LINE
  5
82
330
7A
100
AcDbEntity
  8
Layer100
  6
AUSGEZOGEN
 62
    18
420
        0
370
    18
100
AcDbLine
 10
-26.839103270081
 20
179.321418806283
 30
0.0
 11
-21.839103270081
 21
179.321418806283
 31
0.0
  0
LINE
  5
83
330
7A
100
AcDbEntity
  8
Layer100
  6
AUSGEZOGEN
 62
    18
420
        0
370
    18
100
AcDbLine
 10
-26.839103270081
 20
225.451307176797
 30
0.0
 11
-21.839103270081
 21
225.451307176797
 31
0.0
  0
LINE
  5
84
330
7A
100
AcDbEntity
  8
Layer100
  6
AUSGEZOGEN
 62
    18
420
        0
370
    18
100
AcDbLine
 10
-26.839103270081
 20
271.581195547311
 30
0.0
 11
-21.839103270081
 21
271.581195547311
 31
0.0
  0
LINE
  5
85
330
7A
100
AcDbEntity
  8
Layer100
  6
AUSGEZOGEN
 62
    18
420
        0
370
    18
100
AcDbLine
 10
24.410896729919
 20
312.711083917825
 30
0.0
 11
24.410896729919
 21
317.711083917825
 31
0.0
  0
LINE
  5
86
330
7A
100
AcDbEntity
  8
Layer100
  6
AUSGEZOGEN
 62
    18
420
        0
370
    18
100
AcDbLine
 10
116.910896729919
 20
312.711083917825
 30
0.0
 11
116.910896729919
 21
317.711083917825
 31
0.0
  0
LINE
  5
87
330
7A
100
AcDbEntity
  8
Layer100
  6
AUSGEZOGEN
 62
    18
420
        0
370
    18
100
AcDbLine
 10
70.660896729919
 20
312.711083917825
 30
0.0
 11
70.660896729919
 21
317.711083917825
 31
0.0
  0
TEXT
  5
88
330
7A
100
AcDbEntity
  8
Layer100
  6
AUSGEZOGEN
 62
    18
420
        0
370
    18
100
AcDbText
 10
-25.527200968648
 20
293.757231820298
 30
0.0
 40
2.5
  1
A
 41
1.112781954887
  7
Arial
 72
     5
 11
-22.937200968648
 21
293.757231820298
 31
0.0
100
AcDbText
  0
TEXT
  5
89
330
7A
100
AcDbEntity
  8
Layer100
  6
AUSGEZOGEN
 62
    18
420
        0
370
    18
100
AcDbText
 10
0.281430825783
 20
314.058907767538
 30
0.0
 40
2.5
  1
1
 41
1.028350515464
  7
Arial
 72
     5
 11
2.276430825783
 21
314.058907767538
 31
0.0
100
AcDbText
  0
TEXT
  5
8A
330
7A
100
AcDbEntity
  8
Layer100
  6
AUSGEZOGEN
 62
    18
420
        0
370
    18
100
AcDbText
 10
46.531430825783
 20
314.058907767538
 30
0.0
 40
2.5
  1
2
 41
1.028350515464
  7
Arial
 72
     5
 11
48.526430825783
 21
314.058907767538
 31
0.0
100
AcDbText
  0
TEXT
  5
8B
330
7A
100
AcDbEntity
  8
Layer100
  6
AUSGEZOGEN
 62
    18
420
        0
370
    18
100
AcDbText
 10
92.781430825783
 20
314.058907767538
 30
0.0
 40
2.5
  1
3
 41
1.028350515464
  7
Arial
 72
     5
 11
94.776430825783
 21
314.058907767538
 31
0.0
100
AcDbText
  0
TEXT
  5
8C
330
7A
100
AcDbEntity
  8
Layer100
  6
AUSGEZOGEN
 62
    18
420
        0
370
    18
100
AcDbText
 10
139.031430825783
 20
314.058907767538
 30
0.0
 40
2.5
  1
4
 41
1.028350515464
  7
Arial
 72
     5
 11
141.026430825783
 21
314.058907767538
 31
0.0
100
AcDbText
  0
TEXT
  5
8D
330
7A
100
AcDbEntity
  8
Layer100
  6
AUSGEZOGEN
 62
    18
420
        0
370
    18
100
AcDbText
 10
-25.527200968648
 20
247.627343449784
 30
0.0
 40
2.5
  1
B
 41
1.112781954887
  7
Arial
 72
     5
 11
-22.937200968648
 21
247.627343449784
 31
0.0
100
AcDbText
  0
TEXT
  5
8E
330
7A
100
AcDbEntity
  8
Layer100
  6
AUSGEZOGEN
 62
    18
420
        0
370
    18
100
AcDbText
 10
-25.527200968648
 20
201.49745507927
 30
0.0
 40
2.5
  1
C
 41
1.027777777778
  7
Arial
 72
     5
 11
-22.937200968648
 21
201.49745507927
 31
0.0
100
AcDbText
  0
TEXT
  5
8F
330
7A
100
AcDbEntity
  8
Layer100
  6
AUSGEZOGEN
 62
    18
420
        0
370
    18
100
AcDbText
 10
-25.527200968648
 20
155.367566708756
 30
0.0
 40
2.5
  1
D
 41
1.027777777778
  7
Arial
 72
     5
 11
-22.937200968648
 21
155.367566708756
 31
0.0
100
AcDbText
  0
TEXT
  5
90
330
7A
100
AcDbEntity
  8
Layer100
  6
AUSGEZOGEN
 62
    18
420
        0
370
    18
100
AcDbText
 10
-25.527200968648
 20
109.237678338242
 30
0.0
 40
2.5
  1
E
 41
1.022556390977
  7
Arial
 72
     5
 11
-23.147200968648
 21
109.237678338242
 31
0.0
100
AcDbText
  0
ENDBLK
  5
7C
330
7A
100
AcDbEntity
  8
0
100
AcDbBlockEnd
  0
BLOCK
  5
93
330
92
100
AcDbEntity
  8
0
100
AcDbBlockBegin
  2
Zeichnungsrahmen_nNn01
 70
     0
 10
0.0
 20
0.0
 30
0.0
  3
Zeichnungsrahmen_nNn01
  1

  0
LINE
  5
95
330
92
100
AcDbEntity
  8
Layer100
  6
AUSGEZOGEN
 62
    18
420
        0
370
    18
100
AcDbLine
 10
-19.719103270081
 20
31.811083917825
 30
0.0
 11
-19.719103270081
 21
87.061621163545
 31
0.0
  0
LINE
  5
96
330
92
100
AcDbEntity
  8
Layer100
  6
AUSGEZOGEN
 62
    18
420
        0
370
    18
100
AcDbLine
 10
-41.839103267609
 20
174.810194175393
 30
0.0
 11
-26.839103270081
 21
174.810205179736
 31
0.0
  0
TEXT
  5
97
330
92
100
AcDbEntity
  8
Layer100
  6
AUSGEZOGEN
 62
    18
420
        0
370
    18
100
AcDbText
 10
-34.592116513934
 20
264.662318139266
 30
0.0
 40
1.65
  1
Copying of this document and giving it to others,
 50
90.000002504478
 41
1.086902524168
  7
Arial
 72
     5
 11
-34.592118849374
 21
318.090968139266
 31
0.0
100
AcDbText
  0
TEXT
  5
98
330
92
100
AcDbEntity
  8
Layer100
  6
AUSGEZOGEN
 62
    18
420
        0
370
    18
100
AcDbText
 10
-31.952116236257
 20
258.309818254664
 30
0.0
 40
1.65
  1
and the use or communication of the contents thereof,
 50
90.000002504478
 41
1.085996043403
  7
Arial
 72
     5
 11
-31.952118849374
 21
318.090968254664
 31
0.0
100
AcDbText
  0
TEXT
  5
99
330
92
100
AcDbEntity
  8
Layer100
  6
AUSGEZOGEN
 62
    18
420
        0
370
    18
100
AcDbText
 10
-29.312115996878
 20
252.833468370062
 30
0.0
 40
1.65
  1
are forbidden without express authority. All rights reserved.
 50
90.000002504478
 41
1.087016270888
  7
Arial
 72
     5
 11
-29.312118849374
 21
318.090968370062
 31
0.0
100
AcDbText
  0
TEXT
  5
9A
330
92
100
AcDbEntity
  8
Layer100
  6
AUSGEZOGEN
 62
    18
420
        0
370
    18
100
AcDbText
 10
-34.495500471568
 20
31.809399782296
 30
0.0
 40
1.65
  1
Weitergabe und Vervielfältigung dieser Unterlage, sowie
 50
90.000002504478
 41
1.085512875845
  7
Arial
 72
     5
 11
-34.495503192583
 21
94.058949782296
 31
0.0
100
AcDbText
  0
TEXT
  5
9B
330
92
100
AcDbEntity
  8
Layer100
  6
AUSGEZOGEN
 62
    18
420
        0
370
    18
100
AcDbText
 10
-31.855500471568
 20
31.809399897694
 30
0.0
 40
1.65
  1
Verwertung und Mitteilung ihres Inhalts nicht gestattet,
 50
90.000002504478
 41
1.087280088114
  7
Arial
 72
     5
 11
-31.85550310589
 21
92.075649897694
 31
0.0
100
AcDbText
  0
TEXT
  5
9C
330
92
100
AcDbEntity
  8
Layer100
  6
AUSGEZOGEN
 62
    18
420
        0
370
    18
100
AcDbText
 10
-29.215500471568
 20
31.809400013092
 30
0.0
 40
1.65
  1
soweit nicht ausdrücklich zugestanden. Alle Rechte vorbehalten
 50
90.000002504478
 41
1.085344193246
  7
Arial
 72
     5
 11
-29.215503556627
 21
102.387325013092
 31
0.0
100
AcDbText
  0
LINE
  5
9D
330
92
100
AcDbEntity
  8
Layer100
  6
AUSGEZOGEN
 62
    18
420
        0
370
    18
100
AcDbLine
 10
163.160896729919
 20
31.811083917825
 30
0.0
 11
163.160896729919
 21
317.711083917825
 31
0.0
  0
LINE
  5
9E
330
92
100
AcDbEntity
  8
Layer100
  6
AUSGEZOGEN
 62
    18
420
        0
370
    18
100
AcDbLine
 10
-21.839103270081
 20
31.811083917825
 30
0.0
 11
163.160896729919
 21
31.811083917825
 31
0.0
  0
LINE
  5
9F
330
92
100
AcDbEntity
  8
Layer100
  6
AUSGEZOGEN
 62
    18
420
        0
370
    18
100
AcDbLine
 10
163.160896729919
 20
87.061083917825
 30
0.0
 11
-19.721509553085
 21
87.061621156483
 31
0.0
  0
LINE
  5
A0
330
92
100
AcDbEntity
  8
Layer100
  6
AUSGEZOGEN
 62
    18
420
        0
370
    18
100
AcDbLine
 10
-21.839103270081
 20
31.811083917825
 30
0.0
 11
-21.839103270081
 21
317.711083917825
 31
0.0
  0
LINE
  5
A1
330
92
100
AcDbEntity
  8
Layer100
  6
AUSGEZOGEN
 62
    18
420
        0
370
    18
100
AcDbLine
 10
-21.839103270081
 20
317.711083917825
 30
0.0
 11
163.160896729919
 21
317.711083917825
 31
0.0
  0
ENDBLK
  5
94
330
92
100
AcDbEntity
  8
0
100
AcDbBlockEnd
  0
BLOCK
  5
A4
330
A3
100
AcDbEntity
  8
0
100
AcDbBlockBegin
  2
Schriftfeld_nNn02
 70
     0
 10
0.0
 20
0.0
 30
0.0
  3
Schriftfeld_nNn02
  1

  0
LINE
  5
A6
330
A3
100
AcDbEntity
  8
Layer100
  6
AUSGEZOGEN
 62
    18
420
        0
370
    18
100
AcDbLine
 10
34.880896729919
 20
87.061071228463
 30
0.0
 11
34.880896729919
 21
31.811071228463
 31
0.0
  0
LINE
  5
A7
330
A3
100
AcDbEntity
  8
Layer100
  6
AUSGEZOGEN
 62
    18
420
        0
370
    18
100
AcDbLine
 10
79.080896729919
 20
87.061077101404
 30
0.0
 11
79.080896729919
 21
31.811077101404
 31
0.0
  0
LINE
  5
A8
330
A3
100
AcDbEntity
  8
Layer100
  6
AUSGEZOGEN
 62
    18
420
        0
370
    18
100
AcDbLine
 10
152.760896729918
 20
48.811083917825
 30
0.0
 11
152.760896729918
 21
36.061083917825
 31
0.0
  0
LINE
  5
A9
330
A3
100
AcDbEntity
  8
Layer100
  6
AUSGEZOGEN
 62
    18
420
        0
370
    18
100
AcDbLine
 10
-11.919103270081
 20
70.061069779334
 30
0.0
 11
-11.919103270081
 21
31.811069779334
 31
0.0
  0
LINE
  5
AA
330
A3
100
AcDbEntity
  8
Layer100
  6
AUSGEZOGEN
 62
    18
420
        0
370
    18
100
AcDbLine
 10
27.080896729919
 20
70.06104040502
 30
0.0
 11
27.080896729919
 21
31.81104040502
 31
0.0
  0
LINE
  5
AB
330
A3
100
AcDbEntity
  8
Layer100
  6
AUSGEZOGEN
 62
    18
420
        0
370
    18
100
AcDbLine
 10
14.080896729919
 20
31.81104040502
 30
0.0
 11
14.080896729919
 21
87.06104040502
 31
0.0
  0
TEXT
  5
AC
330
A3
100
AcDbEntity
  8
Layer100
  6
AUSGEZOGEN
 62
    18
420
        0
370
    18
100
AcDbText
 10
79.960896729918
 20
78.073083913534
 30
0.0
 40
1.65
  1
Rohstoff/Raw material
 41
1.084377276038
  7
Arial
 72
     5
 11
104.526921729918
 21
78.073083913534
 31
0.0
100
AcDbText
  0
TEXT
  5
AD
330
A3
100
AcDbEntity
  8
Layer100
  6
AUSGEZOGEN
 62
    18
420
        0
370
    18
100
AcDbText
 10
79.960896729918
 20
74.248083913534
 30
0.0
 40
1.65
  1
Rohteil-Nr./Raw piece No.
 41
1.08488285608
  7
Arial
 72
     5
 11
108.841671729918
 21
74.248083913534
 31
0.0
100
AcDbText
  0
TEXT
  5
AE
330
A3
100
AcDbEntity
  8
Layer100
  6
AUSGEZOGEN
 62
    18
420
        0
370
    18
100
AcDbText
 10
80.090896729918
 20
70.635583913534
 30
0.0
 40
1.65
  1
Werkzeug-Nr./Tool No.
 41
1.082364069507
  7
Arial
 72
     5
 11
105.579271729918
 21
70.635583913534
 31
0.0
100
AcDbText
  0
TEXT
  5
AF
330
A3
100
AcDbEntity
  8
Layer100
  6
AUSGEZOGEN
 62
    18
420
        0
370
    18
100
AcDbText
 10
79.960896729918
 20
67.448083913534
 30
0.0
 40
1.65
  1
Benennung/Designation
 41
1.081895683695
  7
Arial
 72
     5
 11
106.553946729918
 21
67.448083913534
 31
0.0
100
AcDbText
  0
TEXT
  5
B0
330
A3
100
AcDbEntity
  8
Layer100
  6
AUSGEZOGEN
 62
    18
420
        0
370
    18
100
AcDbText
 10
79.830896729918
 20
46.410583913534
 30
0.0
 40
1.65
  1
Sachnummer/Part-No.
 41
1.080626575441
  7
Arial
 72
     5
 11
104.588321729918
 21
46.410583913534
 31
0.0
100
AcDbText
  0
TEXT
  5
B1
330
A3
100
AcDbEntity
  8
Layer100
  6
AUSGEZOGEN
 62
    18
420
        0
370
    18
100
AcDbText
 10
153.150896729919
 20
45.6675839307
 30
0.0
 40
1.65
  1
Blatt
 41
1.082885785893
  7
Arial
 72
     5
 11
158.141321729919
 21
45.6675839307
 31
0.0
100
AcDbText
  0
TEXT
  5
B2
330
A3
100
AcDbEntity
  8
Layer100
  6
AUSGEZOGEN
 62
    18
420
        0
370
    18
100
AcDbText
 10
153.150896729919
 20
43.5225839307
 30
0.0
 40
1.65
  1
Sheet
 41
1.077049629833
  7
Arial
 72
     5
 11
159.632096729919
 21
43.5225839307
 31
0.0
100
AcDbText
  0
TEXT
  5
B3
330
A3
100
AcDbEntity
  8
Layer100
  6
AUSGEZOGEN
 62
    18
420
        0
370
    18
100
AcDbText
 10
36.540896729919
 20
84.706083917825
 30
0.0
 40
1.65
  1
Zul. Abw. f. Maße
 41
1.08406472847
  7
Arial
 72
     5
 11
56.105771729918
 21
84.706083917825
 31
0.0
100
AcDbText
  0
TEXT
  5
B4
330
A3
100
AcDbEntity
  8
Layer100
  6
AUSGEZOGEN
 62
    18
420
        0
370
    18
100
AcDbText
 10
36.540896729919
 20
82.561083917825
 30
0.0
 40
1.65
  1
ohne Toleranzang.
 41
1.081972847568
  7
Arial
 72
     5
 11
57.317696729918
 21
82.561083917825
 31
0.0
100
AcDbText
  0
TEXT
  5
B5
330
A3
100
AcDbEntity
  8
Layer100
  6
AUSGEZOGEN
 62
    18
420
        0
370
    18
100
AcDbText
 10
36.540896729919
 20
80.416083917825
 30
0.0
 40
1.65
  1
General tolerances
 41
1.08276797829
  7
Arial
 72
     5
 11
57.608096729918
 21
80.416083917825
 31
0.0
100
AcDbText
  0
LINE
  5
B6
330
A3
100
AcDbEntity
  8
Layer100
  6
AUSGEZOGEN
 62
    18
420
        0
370
    18
100
AcDbLine
 10
163.160896729919
 20
42.436083917825
 30
0.0
 11
152.760896729918
 21
42.436083917825
 31
0.0
  0
TEXT
  5
B7
330
A3
100
AcDbEntity
  8
Layer100
  6
AUSGEZOGEN
 62
    18
420
        0
370
    18
100
AcDbText
 10
153.150896729919
 20
39.5050839307
 30
0.0
 40
1.65
  1
von
 41
1.072222222222
  7
Arial
 72
     5
 11
157.131521729919
 21
39.5050839307
 31
0.0
100
AcDbText
  0
TEXT
  5
B8
330
A3
100
AcDbEntity
  8
Layer100
  6
AUSGEZOGEN
 62
    18
420
        0
370
    18
100
AcDbText
 10
153.150896729919
 20
37.3600839307
 30
0.0
 40
1.65
  1
of
 41
1.072594501718
  7
Arial
 72
     5
 11
155.210921729919
 21
37.3600839307
 31
0.0
100
AcDbText
  0
LINE
  5
B9
330
A3
100
AcDbEntity
  8
Layer100
  6
AUSGEZOGEN
 62
    18
420
        0
370
    18
100
AcDbLine
 10
45.280896729919
 20
70.061083917825
 30
0.0
 11
45.280896729919
 21
53.061083917825
 31
0.0
  0
TEXT
  5
BA
330
A3
100
AcDbEntity
  8
Layer100
  6
AUSGEZOGEN
 62
    18
420
        0
370
    18
100
AcDbText
 10
35.630864988001
 20
55.229219694286
 30
0.0
 40
1.65
  1
Norm
 41
1.072977725674
  7
Arial
 72
     5
 11
41.671514988001
 21
55.229219694286
 31
0.0
100
AcDbText
  0
TEXT
  5
BB
330
A3
100
AcDbEntity
  8
Layer100
  6
AUSGEZOGEN
 62
    18
420
        0
370
    18
100
AcDbText
 10
35.630864988001
 20
53.084219694286
 30
0.0
 40
1.65
  1
Appr.
 41
1.078087529976
  7
Arial
 72
     5
 11
41.565089988001
 21
53.084219694286
 31
0.0
100
AcDbText
  0
TEXT
  5
BC
330
A3
100
AcDbEntity
  8
Layer100
  6
AUSGEZOGEN
 62
    18
420
        0
370
    18
100
AcDbText
 10
35.630553216768
 20
59.479793862885
 30
0.0
 40
1.65
  1
Gepr.
 41
1.076768834145
  7
Arial
 72
     5
 11
41.832903216768
 21
59.479793862885
 31
0.0
100
AcDbText
  0
TEXT
  5
BD
330
A3
100
AcDbEntity
  8
Layer100
  6
AUSGEZOGEN
 62
    18
420
        0
370
    18
100
AcDbText
 10
35.630553216768
 20
57.334793862885
 30
0.0
 40
1.65
  1
Check.
 41
1.077923572744
  7
Arial
 72
     5
 11
43.356678216768
 21
57.334793862885
 31
0.0
100
AcDbText
  0
TEXT
  5
BE
330
A3
100
AcDbEntity
  8
Layer100
  6
AUSGEZOGEN
 62
    18
420
        0
370
    18
100
AcDbText
 10
46.030543199762
 20
67.980645995131
 30
0.0
 40
1.65
  1
Datum
 41
1.075650693262
  7
Arial
 72
     5
 11
53.326843199762
 21
67.980645995131
 31
0.0
100
AcDbText
  0
TEXT
  5
BF
330
A3
100
AcDbEntity
  8
Layer100
  6
AUSGEZOGEN
 62
    18
420
        0
370
    18
100
AcDbText
 10
46.030543199762
 20
65.835645995131
 30
0.0
 40
1.65
  1
Date
 41
1.076492537313
  7
Arial
 72
     5
 11
51.266818199762
 21
65.835645995131
 31
0.0
100
AcDbText
  0
TEXT
  5
C0
330
A3
100
AcDbEntity
  8
Layer100
  6
AUSGEZOGEN
 62
    18
420
        0
370
    18
100
AcDbText
 10
61.630896729918
 20
67.9800839307
 30
0.0
 40
1.65
  1
Name
 41
1.072387859253
  7
Arial
 72
     5
 11
68.218521729918
 21
67.9800839307
 31
0.0
100
AcDbText
  0
TEXT
  5
C1
330
A3
100
AcDbEntity
  8
Layer100
  6
AUSGEZOGEN
 62
    18
420
        0
370
    18
100
AcDbText
 10
61.630896729918
 20
65.8350839307
 30
0.0
 40
1.65
  1
Name
 41
1.072387859253
  7
Arial
 72
     5
 11
68.218521729918
 21
65.8350839307
 31
0.0
100
AcDbText
  0
TEXT
  5
C2
330
A3
100
AcDbEntity
  8
Layer100
  6
AUSGEZOGEN
 62
    18
420
        0
370
    18
100
AcDbText
 10
35.628373551427
 20
63.731254476187
 30
0.0
 40
1.65
  1
Bearb.
 41
1.078672178988
  7
Arial
 72
     5
 11
42.946948551427
 21
63.731254476187
 31
0.0
100
AcDbText
  0
TEXT
  5
C3
330
A3
100
AcDbEntity
  8
Layer100
  6
AUSGEZOGEN
 62
    18
420
        0
370
    18
100
AcDbText
 10
35.628373551427
 20
61.586254476187
 30
0.0
 40
1.65
  1
Drawn
 41
1.075502107612
  7
Arial
 72
     5
 11
42.785248551427
 21
61.586254476187
 31
0.0
100
AcDbText
  0
TEXT
  5
C4
330
A3
100
AcDbEntity
  8
Layer100
  6
AUSGEZOGEN
 62
    18
420
        0
370
    18
100
AcDbText
 10
-18.839103270082
 20
33.9800839307
 30
0.0
 40
1.65
  1
Ausg.
 41
1.076912300364
  7
Arial
 72
     5
 11
-12.497328270082
 21
33.9800839307
 31
0.0
100
AcDbText
  0
TEXT
  5
C5
330
A3
100
AcDbEntity
  8
Layer100
  6
AUSGEZOGEN
 62
    18
420
        0
370
    18
100
AcDbText
 10
-18.839103270082
 20
31.8350839307
 30
0.0
 40
1.65
  1
Issue
 41
1.078087529976
  7
Arial
 72
     5
 11
-12.904878270082
 21
31.8350839307
 31
0.0
100
AcDbText
  0
TEXT
  5
C6
330
A3
100
AcDbEntity
  8
Layer100
  6
AUSGEZOGEN
 62
    18
420
        0
370
    18
100
AcDbText
 10
-11.039103270082
 20
33.9800839307
 30
0.0
 40
1.65
  1
Änderung
 41
1.077825512227
  7
Arial
 72
     5
 11
-0.276153270082
 21
33.9800839307
 31
0.0
100
AcDbText
  0
TEXT
  5
C7
330
A3
100
AcDbEntity
  8
Layer100
  6
AUSGEZOGEN
 62
    18
420
        0
370
    18
100
AcDbText
 10
-11.039103270082
 20
31.8350839307
 30
0.0
 40
1.65
  1
Modification
 41
1.083926413321
  7
Arial
 72
     5
 11
2.279696729918
 21
31.8350839307
 31
0.0
100
AcDbText
  0
TEXT
  5
C8
330
A3
100
AcDbEntity
  8
Layer100
  6
AUSGEZOGEN
 62
    18
420
        0
370
    18
100
AcDbText
 10
14.830896729918
 20
33.9800839307
 30
0.0
 40
1.65
  1
Datum
 41
1.075650693262
  7
Arial
 72
     5
 11
22.127196729918
 21
33.9800839307
 31
0.0
100
AcDbText
  0
TEXT
  5
C9
330
A3
100
AcDbEntity
  8
Layer100
  6
AUSGEZOGEN
 62
    18
420
        0
370
    18
100
AcDbText
 10
14.830896729918
 20
31.8350839307
 30
0.0
 40
1.65
  1
Date
 41
1.076492537313
  7
Arial
 72
     5
 11
20.067171729918
 21
31.8350839307
 31
0.0
100
AcDbText
  0
TEXT
  5
CA
330
A3
100
AcDbEntity
  8
Layer100
  6
AUSGEZOGEN
 62
    18
420
        0
370
    18
100
AcDbText
 10
27.830896729918
 20
33.9800839307
 30
0.0
 40
1.65
  1
Name
 41
1.072387859253
  7
Arial
 72
     5
 11
34.418521729918
 21
33.9800839307
 31
0.0
100
AcDbText
  0
TEXT
  5
CB
330
A3
100
AcDbEntity
  8
Layer100
  6
AUSGEZOGEN
 62
    18
420
        0
370
    18
100
AcDbText
 10
27.830896729918
 20
31.8350839307
 30
0.0
 40
1.65
  1
Name
 41
1.072387859253
  7
Arial
 72
     5
 11
34.418521729918
 21
31.8350839307
 31
0.0
100
AcDbText
  0
LINE
  5
CC
330
A3
100
AcDbEntity
  8
Layer100
  6
AUSGEZOGEN
 62
    18
420
        0
370
    18
100
AcDbLine
 10
60.880896729919
 20
70.061083917825
 30
0.0
 11
60.880896729919
 21
48.811083917825
 31
0.0
  0
LINE
  5
CD
330
A3
100
AcDbEntity
  8
Layer100
  6
AUSGEZOGEN
 62
    18
420
        0
370
    18
100
AcDbLine
 10
60.880896729919
 20
87.061084542956
 30
0.0
 11
60.880896729919
 21
70.061083917825
 31
0.0
  0
TEXT
  5
CE
330
A3
100
AcDbEntity
  8
Layer100
  6
AUSGEZOGEN
 62
    18
420
        0
370
    18
100
AcDbText
 10
131.830896729918
 20
84.531083917825
 30
0.0
 40
1.65
  1
Menge
 41
1.074408249356
  7
Arial
 72
     5
 11
139.395321729918
 21
84.531083917825
 31
0.0
100
AcDbText
  0
TEXT
  5
CF
330
A3
100
AcDbEntity
  8
Layer100
  6
AUSGEZOGEN
 62
    18
420
        0
370
    18
100
AcDbText
 10
131.830896729918
 20
82.386083917825
 30
0.0
 40
1.65
  1
Quantity
 41
1.081088880339
  7
Arial
 72
     5
 11
141.103071729918
 21
82.386083917825
 31
0.0
100
AcDbText
  0
TEXT
  5
D0
330
A3
100
AcDbEntity
  8
Layer100
  6
AUSGEZOGEN
 62
    18
420
        0
370
    18
100
AcDbText
 10
80.090896729918
 20
84.5550839307
 30
0.0
 40
1.65
  1
Maßstab
 41
1.076703499079
  7
Arial
 72
     5
 11
89.737621729918
 21
84.5550839307
 31
0.0
100
AcDbText
  0
TEXT
  5
D1
330
A3
100
AcDbEntity
  8
Layer100
  6
AUSGEZOGEN
 62
    18
420
        0
370
    18
100
AcDbText
 10
80.090896729918
 20
82.4100839307
 30
0.0
 40
1.65
  1
Scale
 41
1.076768834145
  7
Arial
 72
     5
 11
86.293246729918
 21
82.4100839307
 31
0.0
100
AcDbText
  0
TEXT
  5
D2
330
A3
100
AcDbEntity
  8
Layer100
  6
AUSGEZOGEN
 62
    18
420
        0
370
    18
100
AcDbText
 10
35.630896729918
 20
33.9800839307
 30
0.0
 40
1.65
  1
Dateiname
 41
1.079271003112
  7
Arial
 72
     5
 11
47.649496729918
 21
33.9800839307
 31
0.0
100
AcDbText
  0
TEXT
  5
D3
330
A3
100
AcDbEntity
  8
Layer100
  6
AUSGEZOGEN
 62
    18
420
        0
370
    18
100
AcDbText
 10
35.630896729918
 20
31.8350839307
 30
0.0
 40
1.65
  1
Filename
 41
1.078658536585
  7
Arial
 72
     5
 11
45.846871729918
 21
31.8350839307
 31
0.0
100
AcDbText
  0
TEXT
  5
D4
330
A3
100
AcDbEntity
  8
Layer100
  6
AUSGEZOGEN
 62
    18
420
        0
370
    18
100
AcDbText
 10
15.480896729918
 20
84.706083917825
 30
0.0
 40
1.65
  1
 Maße in mm
 41
1.079690569745
  7
Arial
 72
     5
 11
29.989346729918
 21
84.706083917825
 31
0.0
100
AcDbText
  0
TEXT
  5
D5
330
A3
100
AcDbEntity
  8
Layer100
  6
AUSGEZOGEN
 62
    18
420
        0
370
    18
100
AcDbText
 10
15.480896729918
 20
82.561083917825
 30
0.0
 40
1.65
  1
Dimensions in
 41
1.081916714204
  7
Arial
 72
     5
 11
31.127846729918
 21
82.561083917825
 31
0.0
100
AcDbText
  0
TEXT
  5
D6
330
A3
100
AcDbEntity
  8
Layer100
  6
AUSGEZOGEN
 62
    18
420
        0
370
    18
100
AcDbText
 10
15.480896729918
 20
80.416083917825
 30
0.0
 40
1.65
  1
 millimeters
 41
1.084880260734
  7
Arial
 72
     5
 11
28.113296729918
 21
80.416083917825
 31
0.0
100
AcDbText
  0
CIRCLE
  5
D7
330
A3
100
AcDbEntity
  8
Layer100
  6
AUSGEZOGEN
 62
    18
420
        0
370
    18
100
AcDbCircle
 10
27.716701675591
 20
74.330329747753
 30
0.0
 40
2.805868040801767
  0
CIRCLE
  5
D8
330
A3
100
AcDbEntity
  8
Layer100
  6
AUSGEZOGEN
 62
    18
420
        0
370
    18
100
AcDbCircle
 10
27.716701675591
 20
74.330329747753
 30
0.0
 40
1.882233502538071
  0
LINE
  5
D9
330
A3
100
AcDbEntity
  8
Layer100
  6
AUSGEZOGEN
 62
    18
420
        0
370
    18
100
AcDbLine
 10
17.050711827875
 20
72.448096245215
 30
0.0
 11
17.050711827875
 21
76.212563250291
 31
0.0
  0
LINE
  5
DA
330
A3
100
AcDbEntity
  8
Layer100
  6
AUSGEZOGEN
 62
    18
420
        0
370
    18
100
AcDbLine
 10
23.011117919246
 20
71.524461706951
 30
0.0
 11
23.011117919246
 21
77.136197788554
 31
0.0
  0
LINE
  5
DB
330
A3
100
AcDbEntity
  8
Layer100
  6
AUSGEZOGEN
 62
    18
420
        0
370
    18
100
AcDbLine
 10
17.050711827875
 20
76.212563250291
 30
0.0
 11
23.011117919246
 21
77.136197788554
 31
0.0
  0
LINE
  5
DC
330
A3
100
AcDbEntity
  8
Layer100
  6
AUSGEZOGEN
 62
    18
420
        0
370
    18
100
AcDbLine
 10
23.011117919246
 20
71.524461706951
 30
0.0
 11
17.050711827875
 21
72.448096245215
 31
0.0
  0
LINE
  5
DD
330
A3
100
AcDbEntity
  8
Layer100
  6
DASHDOT
 62
    18
420
        0
370
    18
100
AcDbLine
 10
27.716701675591
 20
70.879568330863
 30
0.0
 11
27.716701675591
 21
77.426105175631
 31
0.0
  0
LINE
  5
DE
330
A3
100
AcDbEntity
  8
Layer100
  6
DASHDOT
 62
    18
420
        0
370
    18
100
AcDbLine
 10
24.592737388741
 20
74.330329747753
 30
0.0
 11
30.855267241983
 21
74.330329747753
 31
0.0
  0
LINE
  5
DF
330
A3
100
AcDbEntity
  8
Layer100
  6
DASHDOT
 62
    18
420
        0
370
    18
100
AcDbLine
 10
16.763905016708
 20
74.330329747753
 30
0.0
 11
23.27934774738
 21
74.330329747753
 31
0.0
  0
TEXT
  5
E0
330
A3
100
AcDbEntity
  8
Layer100
  6
AUSGEZOGEN
 62
    18
420
        0
370
    18
100
AcDbText
 10
62.290321729919
 20
84.743583917825
 30
0.0
 40
1.65
  1
Fertigzustand
 41
1.082249290445
  7
Arial
 72
     5
 11
77.390296729919
 21
84.743583917825
 31
0.0
100
AcDbText
  0
TEXT
  5
E1
330
A3
100
AcDbEntity
  8
Layer100
  6
AUSGEZOGEN
 62
    18
420
        0
370
    18
100
AcDbText
 10
62.134396729919
 20
82.598583917825
 30
0.0
 40
1.65
  1
finished cond.
 41
1.084591267998
  7
Arial
 72
     5
 11
77.546221729919
 21
82.598583917825
 31
0.0
100
AcDbText
  0
TEXT
  5
E2
330
A3
100
AcDbEntity
  8
Layer100
  6
AUSGEZOGEN
 62
    18
420
        0
370
    18
100
AcDbText
 10
79.830896729918
 20
33.9800839307
 30
0.0
 40
1.65
  1
Ursprung
 41
1.078658536585
  7
Arial
 72
     5
 11
90.046871729918
 21
33.9800839307
 31
0.0
100
AcDbText
  0
TEXT
  5
E3
330
A3
100
AcDbEntity
  8
Layer100
  6
AUSGEZOGEN
 62
    18
420
        0
370
    18
100
AcDbText
 10
79.830896729918
 20
31.8350839307
 30
0.0
 40
1.65
  1
Source
 41
1.076549072818
  7
Arial
 72
     5
 11
87.685721729918
 21
31.8350839307
 31
0.0
100
AcDbText
  0
TEXT
  5
E4
330
A3
100
AcDbEntity
  8
Layer100
  6
AUSGEZOGEN
 62
    18
420
        0
370
    18
100
AcDbText
 10
140.800896729918
 20
32.793383917825
 30
0.0
 40
2.116666666667
  1
MegaCAD
 41
1.074712643678
  7
Arial
 72
     5
 11
155.446113396585
 21
32.793383917825
 31
0.0
100
AcDbText
  0
LINE
  5
E5
330
A3
100
AcDbEntity
  8
Layer100
  6
AUSGEZOGEN
 62
    18
420
        0
370
    18
100
AcDbLine
 10
131.080896729919
 20
36.061083917825
 30
0.0
 11
131.080896729919
 21
31.811083917825
 31
0.0
  0
LINE
  5
E6
330
A3
100
AcDbEntity
  8
Layer100
  6
AUSGEZOGEN
 62
    18
420
        0
370
    18
100
AcDbLine
 10
-19.719103270081
 20
36.061083917825
 30
0.0
 11
163.160896729919
 21
36.061083917825
 31
0.0
  0
LINE
  5
E7
330
A3
100
AcDbEntity
  8
Layer100
  6
AUSGEZOGEN
 62
    18
420
        0
370
    18
100
AcDbLine
 10
-19.719103270081
 20
40.311083917825
 30
0.0
 11
34.880896729919
 21
40.311083917825
 31
0.0
  0
LINE
  5
E8
330
A3
100
AcDbEntity
  8
Layer100
  6
AUSGEZOGEN
 62
    18
420
        0
370
    18
100
AcDbLine
 10
-19.719103270081
 20
44.561083917825
 30
0.0
 11
34.880896729919
 21
44.561083917825
 31
0.0
  0
LINE
  5
E9
330
A3
100
AcDbEntity
  8
Layer100
  6
AUSGEZOGEN
 62
    18
420
        0
370
    18
100
AcDbLine
 10
34.880896729919
 20
48.811083917825
 30
0.0
 11
163.160896729919
 21
48.811083917825
 31
0.0
  0
LINE
  5
EA
330
A3
100
AcDbEntity
  8
Layer100
  6
AUSGEZOGEN
 62
    18
420
        0
370
    18
100
AcDbLine
 10
-19.719103270081
 20
48.811083917825
 30
0.0
 11
34.880896729919
 21
48.811083917825
 31
0.0
  0
LINE
  5
EB
330
A3
100
AcDbEntity
  8
Layer100
  6
AUSGEZOGEN
 62
    18
420
        0
370
    18
100
AcDbLine
 10
-19.719103270081
 20
53.061083917825
 30
0.0
 11
79.080896729919
 21
53.061083917825
 31
0.0
  0
LINE
  5
EC
330
A3
100
AcDbEntity
  8
Layer100
  6
AUSGEZOGEN
 62
    18
420
        0
370
    18
100
AcDbLine
 10
-19.719103270081
 20
57.311083917825
 30
0.0
 11
79.080896729919
 21
57.311083917825
 31
0.0
  0
LINE
  5
ED
330
A3
100
AcDbEntity
  8
Layer100
  6
AUSGEZOGEN
 62
    18
420
        0
370
    18
100
AcDbLine
 10
-19.719103270081
 20
61.561083917825
 30
0.0
 11
79.080896729919
 21
61.561083917825
 31
0.0
  0
LINE
  5
EE
330
A3
100
AcDbEntity
  8
Layer100
  6
AUSGEZOGEN
 62
    18
420
        0
370
    18
100
AcDbLine
 10
-19.719103270081
 20
65.811083917825
 30
0.0
 11
79.080896729919
 21
65.811083917825
 31
0.0
  0
LINE
  5
EF
330
A3
100
AcDbEntity
  8
Layer100
  6
AUSGEZOGEN
 62
    18
420
        0
370
    18
100
AcDbLine
 10
-19.719103270081
 20
70.061083917825
 30
0.0
 11
163.160896729919
 21
70.061083917825
 31
0.0
  0
LINE
  5
F0
330
A3
100
AcDbEntity
  8
Layer100
  6
AUSGEZOGEN
 62
    18
420
        0
370
    18
100
AcDbLine
 10
131.080896729919
 20
87.061077101404
 30
0.0
 11
131.080896729919
 21
80.686178156585
 31
0.0
  0
LINE
  5
F1
330
A3
100
AcDbEntity
  8
Layer100
  6
AUSGEZOGEN
 62
    18
420
        0
370
    18
100
AcDbLine
 10
163.160878002603
 20
80.686083917853
 30
0.0
 11
79.080896729919
 21
80.686330912724
 31
0.0
  0
ENDBLK
  5
A5
330
A3
100
AcDbEntity
  8
0
100
AcDbBlockEnd
  0
BLOCK
  5
F4
330
F3
100
AcDbEntity
  8
0
100
AcDbBlockBegin
  2
Beschriftung_nNn03
 70
     0
 10
0.0
 20
0.0
 30
0.0
  3
Beschriftung_nNn03
  1

  0
TEXT
  5
F6
330
F3
100
AcDbEntity
  8
Layer100
  6
AUSGEZOGEN
 62
    18
420
        0
370
    18
100
AcDbText
 10
40.180896729918
 20
74.523583917825
 30
0.0
 40
2.116666555405
  1
ISO 2768-Km
 41
1.029179337346
  7
Arial
 72
     5
 11
58.601696437093
 21
74.523583917825
 31
0.0
100
AcDbText
  0
TEXT
  5
F7
330
F3
100
AcDbEntity
  8
Layer100
  6
AUSGEZOGEN
 62
    18
420
        0
370
    18
100
AcDbText
 10
110.510896729918
 20
77.711083917825
 30
0.0
 40
2.116666555405
  1
-
 41
0.967741971819
  7
Arial
 72
     5
 11
111.463396715613
 21
77.711083917825
 31
0.0
100
AcDbText
  0
TEXT
  5
F8
330
F3
100
AcDbEntity
  8
Layer100
  6
AUSGEZOGEN
 62
    18
420
        0
370
    18
100
AcDbText
 10
110.510896729918
 20
74.311083917825
 30
0.0
 40
2.116666555405
  1
-
 41
0.967741971819
  7
Arial
 72
     5
 11
111.463396715613
 21
74.311083917825
 31
0.0
100
AcDbText
  0
TEXT
  5
F9
330
F3
100
AcDbEntity
  8
Layer100
  6
AUSGEZOGEN
 62
    18
420
        0
370
    18
100
AcDbText
 10
110.510896729918
 20
70.698583917825
 30
0.0
 40
2.116666555405
  1
-
 41
0.967741971819
  7
Arial
 72
     5
 11
111.463396715613
 21
70.698583917825
 31
0.0
100
AcDbText
  0
TEXT
  5
FA
330
F3
100
AcDbEntity
  8
Layer100
  6
AUSGEZOGEN
 62
    18
420
        0
370
    18
100
AcDbText
 10
159.780896729919
 20
38.186083917825
 30
0.0
 40
2.116666555405
  1
1
 41
0.974226840702
  7
Arial
 72
     5
 11
161.381096705886
 21
38.186083917825
 31
0.0
100
AcDbText
  0
TEXT
  5
FB
330
F3
100
AcDbEntity
  8
Layer100
  6
AUSGEZOGEN
 62
    18
420
        0
370
    18
100
AcDbText
 10
159.910896729919
 20
44.348583917825
 30
0.0
 40
2.116666555405
  1
1
 41
0.974226840702
  7
Arial
 72
     5
 11
161.511096705886
 21
44.348583917825
 31
0.0
100
AcDbText
  0
TEXT
  5
FC
330
F3
100
AcDbEntity
  8
Layer100
  6
AUSGEZOGEN
 62
    18
420
        0
370
    18
100
AcDbText
 10
92.310896729918
 20
82.811083917825
 30
0.0
 40
2.116666555405
  1
1:1
 41
1.022756754879
  7
Arial
 72
     5
 11
96.51067666361
 21
82.811083917825
 31
0.0
100
AcDbText
  0
TEXT
  5
FD
330
F3
100
AcDbEntity
  8
Layer100
  6
AUSGEZOGEN
 62
    18
420
        0
370
    18
100
AcDbText
 10
145.870896729919
 20
83.023583917825
 30
0.0
 40
2.116666555405
  1
1
 41
0.974226840702
  7
Arial
 72
     5
 11
147.471096705886
 21
83.023583917825
 31
0.0
100
AcDbText
  0
TEXT
  5
FE
330
F3
100
AcDbEntity
  8
Layer100
  6
AUSGEZOGEN
 62
    18
420
        0
370
    18
100
AcDbText
 10
80.160896729919
 20
59.811083917825
 30
0.0
 40
4.25
  1
PE- Magnet
 41
0.907739485449
  7
Arial
 72
     5
 11
108.593566762897
 21
59.811083917825
 31
0.0
100
AcDbText
  0
TEXT
  5
FF
330
F3
100
AcDbEntity
  8
Layer100
  6
AUSGEZOGEN
 62
    18
420
        0
370
    18
100
AcDbText
 10
80.160896729919
 20
52.811083917825
 30
0.0
 40
4.25
  1
%%c32x29
 41
0.89818330682
  7
Arial
 72
     5
 11
98.819756745788
 21
52.811083917825
 31
0.0
100
AcDbText
  0
TEXT
  5
100
330
F3
100
AcDbEntity
  8
Layer100
  6
AUSGEZOGEN
 62
    18
420
        0
370
    18
100
AcDbText
 10
45.900896729919
 20
62.411083917825
 30
0.0
 40
2.116666555405
  1
21.04.08
 41
1.034889233423
  7
Arial
 72
     5
 11
57.799776539894
 21
62.411083917825
 31
0.0
100
AcDbText
  0
TEXT
  5
101
330
F3
100
AcDbEntity
  8
Layer100
  6
AUSGEZOGEN
 62
    18
420
        0
370
    18
100
AcDbText
 10
61.760896729918
 20
62.411083917825
 30
0.0
 40
2.116666555405
  1
C. Franke
 41
1.034691964415
  7
Arial
 72
     5
 11
75.181816515418
 21
62.411083917825
 31
0.0
100
AcDbText
  0
TEXT
  5
102
330
F3
100
AcDbEntity
  8
Layer100
  6
AUSGEZOGEN
 62
    18
420
        0
370
    18
100
AcDbText
 10
45.900896729919
 20
58.161083917825
 30
0.0
 40
2.116666555405
  1
21.04.08
 41
1.034889233423
  7
Arial
 72
     5
 11
57.799776539894
 21
58.161083917825
 31
0.0
100
AcDbText
  0
TEXT
  5
103
330
F3
100
AcDbEntity
  8
Layer100
  6
AUSGEZOGEN
 62
    18
420
        0
370
    18
100
AcDbText
 10
61.760896729918
 20
58.161083917825
 30
0.0
 40
2.116666555405
  1
R. Mannel
 41
1.033578425833
  7
Arial
 72
     5
 11
75.677116507979
 21
58.161083917825
 31
0.0
100
AcDbText
  0
ENDBLK
  5
F5
330
F3
100
AcDbEntity
  8
0
100
AcDbBlockEnd
  0
BLOCK
  5
124
330
123
100
AcDbEntity
  8
0
100
AcDbBlockBegin
  2
SW_NOTE_0_nNn04
 70
     0
 10
0.0
 20
0.0
 30
0.0
  3
SW_NOTE_0_nNn04
  1

  0
TEXT
  5
126
330
123
100
AcDbEntity
  8
Layer1
  6
AUSGEZOGEN
 62
    18
420
        0
370
    18
100
AcDbText
 10
-18.385781083847
 20
108.972222945364
 30
0.0
 40
4.0
  1
NOTE:
 41
0.905863843964
  7
Verdana
 72
     5
 11
-2.257781205918
 21
108.972222945364
 31
0.0
100
AcDbText
  0
TEXT
  5
127
330
123
100
AcDbEntity
  8
Layer1
  6
AUSGEZOGEN
 62
    18
420
        0
370
    18
100
AcDbText
 10
-18.385781083847
 20
99.972223332795
 30
0.0
 40
4.0
  1
1. 14,4W
 41
0.90241362308
  7
Verdana
 72
     5
 11
4.495818742965
 21
99.972223332795
 31
0.0
100
AcDbText
  0
TEXT
  5
128
330
123
100
AcDbEntity
  8
Layer1
  6
AUSGEZOGEN
 62
    18
420
        0
370
    18
100
AcDbText
 10
-18.385781083847
 20
95.47222352651
 30
0.0
 40
4.0
  1
2. 0mm stroke, Permanent Force 180N
 41
0.903993042295
  7
Verdana
 72
     5
 11
79.415418175911
 21
95.47222352651
 31
0.0
100
AcDbText
  0
TEXT
  5
129
330
123
100
AcDbEntity
  8
Layer1
  6
AUSGEZOGEN
 62
    18
420
        0
370
    18
100
AcDbText
 10
-18.385781083847
 20
90.972223720225
 30
0.0
 40
4.0
  1
3. Duty: 10%
 41
0.903418796581
  7
Verdana
 72
     5
 11
15.861018656944
 21
90.972223720225
 31
0.0
100
AcDbText
  0
ENDBLK
  5
125
330
123
100
AcDbEntity
  8
0
100
AcDbBlockEnd
  0
BLOCK
  5
15F
330
15E
100
AcDbEntity
  8
0
100
AcDbBlockBegin
  2
*D6
 70
     1
 10
0.0
 20
0.0
 30
0.0
  3
*D6
  1

  0
HATCH
  5
161
330
15E
100
AcDbEntity
  8
Layer0
  6
AUSGEZOGEN
 62
    18
420
        0
370
    18
100
AcDbHatch
 10
0.0
 20
0.0
 30
0.0
210
0.0
220
0.0
230
1.0
  2
SOLID
 70
     1
 71
     0
 91
        1
 92
        2
 72
     0
 73
     1
 93
        3
 10
106.3589173695624
 20
220.0273827245044
 10
106.1989173695624
 20
219.2273827245044
 10
106.5189173695624
 20
219.2273827245044
 97
        0
 75
     0
 76
     1
 98
        0
  0
HATCH
  5
162
330
15E
100
AcDbEntity
  8
Layer0
  6
AUSGEZOGEN
 62
    18
420
        0
370
    18
100
AcDbHatch
 10
0.0
 20
0.0
 30
0.0
210
0.0
220
0.0
230
1.0
  2
SOLID
 70
     1
 71
     0
 91
        1
 92
        2
 72
     0
 73
     1
 93
        3
 10
106.3589173695624
 20
191.0273827245044
 10
106.5189173695624
 20
191.8273827245044
 10
106.1989173695624
 20
191.8273827245044
 97
        0
 75
     0
 76
     1
 98
        0
  0
LINE
  5
163
330
15E
100
AcDbEntity
  8
Layer0
  6
AUSGEZOGEN
 62
    18
420
        0
370
    18
100
AcDbLine
 10
106.358917369562
 20
191.827382724504
 30
0.0
 11
106.358917369562
 21
219.227382724504
 31
0.0
  0
LINE
  5
164
330
15E
100
AcDbEntity
  8
Layer0
  6
AUSGEZOGEN
 62
    18
420
        0
370
    18
100
AcDbLine
 10
87.162408369547
 20
191.027382724504
 30
0.0
 11
108.073203083848
 21
191.027382724504
 31
0.0
  0
LINE
  5
165
330
15E
100
AcDbEntity
  8
Layer0
  6
AUSGEZOGEN
 62
    18
420
        0
370
    18
100
AcDbLine
 10
86.252607827296
 20
220.027382724504
 30
0.0
 11
108.073203083848
 21
220.027382724504
 31
0.0
  0
TEXT
  5
166
330
15E
100
AcDbEntity
  8
Layer0
  6
AUSGEZOGEN
 62
    18
420
        0
370
    18
100
AcDbText
 10
105.758917369562
 20
203.164882742386
 30
0.0
 40
3.0
  1
29
 50
90.0
 41
0.901029741464
  7
Verdana
 72
     5
 11
105.758917369562
 21
207.889882706623
 31
0.0
100
AcDbText
  0
ENDBLK
  5
160
330
15E
100
AcDbEntity
  8
0
100
AcDbBlockEnd
  0
BLOCK
  5
169
330
168
100
AcDbEntity
  8
0
100
AcDbBlockBegin
  2
*D7
 70
     1
 10
0.0
 20
0.0
 30
0.0
  3
*D7
  1

  0
HATCH
  5
16B
330
168
100
AcDbEntity
  8
Layer0
  6
AUSGEZOGEN
 62
    18
420
        0
370
    18
100
AcDbHatch
 10
0.0
 20
0.0
 30
0.0
210
0.0
220
0.0
230
1.0
  2
SOLID
 70
     1
 71
     0
 91
        1
 92
        2
 72
     0
 73
     1
 93
        3
 10
38.75248018942013
 20
220.0273827245043
 10
38.59248018942013
 20
219.2273827245043
 10
38.91248018942012
 20
219.2273827245043
 97
        0
 75
     0
 76
     1
 98
        0
  0
HATCH
  5
16C
330
168
100
AcDbEntity
  8
Layer0
  6
AUSGEZOGEN
 62
    18
420
        0
370
    18
100
AcDbHatch
 10
0.0
 20
0.0
 30
0.0
210
0.0
220
0.0
230
1.0
  2
SOLID
 70
     1
 71
     0
 91
        1
 92
        2
 72
     0
 73
     1
 93
        3
 10
38.75248018942013
 20
200.5273827245043
 10
38.91248018942012
 20
201.3273827245044
 10
38.59248018942013
 20
201.3273827245044
 97
        0
 75
     0
 76
     1
 98
        0
  0
LINE
  5
16D
330
168
100
AcDbEntity
  8
Layer0
  6
AUSGEZOGEN
 62
    18
420
        0
370
    18
100
AcDbLine
 10
38.75248018942
 20
201.327382724504
 30
0.0
 11
38.75248018942
 21
219.227382724504
 31
0.0
  0
LINE
  5
16E
330
168
100
AcDbEntity
  8
Layer0
  6
AUSGEZOGEN
 62
    18
420
        0
370
    18
100
AcDbLine
 10
68.962408369547
 20
200.527382724504
 30
0.0
 11
37.038194475134
 21
200.527382724504
 31
0.0
  0
LINE
  5
16F
330
168
100
AcDbEntity
  8
Layer0
  6
AUSGEZOGEN
 62
    18
420
        0
370
    18
100
AcDbLine
 10
56.462408369547
 20
220.027382724504
 30
0.0
 11
37.038194475134
 21
220.027382724504
 31
0.0
  0
TEXT
  5
170
330
168
100
AcDbEntity
  8
Layer0
  6
AUSGEZOGEN
 62
    18
420
        0
370
    18
100
AcDbText
 10
38.15248018942
 20
206.053232756476
 30
0.0
 40
3.0
  1
19.5
 50
90.0
 41
0.902017930392
  7
Verdana
 72
     5
 11
38.15248018942
 21
214.501532692532
 31
0.0
100
AcDbText
  0
ENDBLK
  5
16A
330
168
100
AcDbEntity
  8
0
100
AcDbBlockEnd
  0
BLOCK
  5
173
330
172
100
AcDbEntity
  8
0
100
AcDbBlockBegin
  2
*D8
 70
     1
 10
0.0
 20
0.0
 30
0.0
  3
*D8
  1

  0
HATCH
  5
175
330
172
100
AcDbEntity
  8
Layer0
  6
AUSGEZOGEN
 62
    18
420
        0
370
    18
100
AcDbHatch
 10
0.0
 20
0.0
 30
0.0
210
0.0
220
0.0
230
1.0
  2
SOLID
 70
     1
 71
     0
 91
        1
 92
        2
 72
     0
 73
     1
 93
        3
 10
46.72994953041102
 20
220.0273827245043
 10
46.56994953041102
 20
219.2273827245043
 10
46.88994953041102
 20
219.2273827245043
 97
        0
 75
     0
 76
     1
 98
        0
  0
HATCH
  5
176
330
172
100
AcDbEntity
  8
Layer0
  6
AUSGEZOGEN
 62
    18
420
        0
370
    18
100
AcDbHatch
 10
0.0
 20
0.0
 30
0.0
210
0.0
220
0.0
230
1.0
  2
SOLID
 70
     1
 71
     0
 91
        1
 92
        2
 72
     0
 73
     1
 93
        3
 10
46.72994953041102
 20
210.5273827244585
 10
46.88994953041102
 20
211.3273827244585
 10
46.56994953041102
 20
211.3273827244585
 97
        0
 75
     0
 76
     1
 98
        0
  0
LINE
  5
177
330
172
100
AcDbEntity
  8
Layer0
  6
AUSGEZOGEN
 62
    18
420
        0
370
    18
100
AcDbLine
 10
46.729949530411
 20
211.327382724458
 30
0.0
 11
46.729949530411
 21
219.227382724504
 31
0.0
  0
LINE
  5
178
330
172
100
AcDbEntity
  8
Layer0
  6
AUSGEZOGEN
 62
    18
420
        0
370
    18
100
AcDbLine
 10
67.098925206791
 20
210.527382724458
 30
0.0
 11
45.015663816125
 21
210.527382724458
 31
0.0
  0
LINE
  5
179
330
172
100
AcDbEntity
  8
Layer0
  6
AUSGEZOGEN
 62
    18
420
        0
370
    18
100
AcDbLine
 10
65.600186238977
 20
220.027382724504
 30
0.0
 11
45.015663816125
 21
220.027382724504
 31
0.0
  0
TEXT
  5
17A
330
172
100
AcDbEntity
  8
Layer0
  6
AUSGEZOGEN
 62
    18
420
        0
370
    18
100
AcDbText
 10
46.129949530411
 20
212.234482747513
 30
0.0
 40
3.0
  1
9.5
 50
90.0
 41
0.902402128401
  7
Verdana
 72
     5
 11
46.129949530411
 21
218.32028270145
 31
0.0
100
AcDbText
  0
ENDBLK
  5
174
330
172
100
AcDbEntity
  8
0
100
AcDbBlockEnd
  0
BLOCK
  5
18F
330
18E
100
AcDbEntity
  8
0
100
AcDbBlockBegin
  2
_Dot_nNn08
 70
     0
 10
0.0
 20
0.0
 30
0.0
  3
_Dot_nNn08
  1

  0
LWPOLYLINE
  5
191
330
18E
100
AcDbEntity
  8
Layer0
  6
AUSGEZOGEN
 62
    18
420
        0
370
    18
100
AcDbPolyline
 90
        2
 70
     1
 43
0.0
 10
63.912830303755
 20
280.423088394173
 42
1.0
 10
63.987022106729
 20
280.385140787977
 42
1.0
  0
LINE
  5
192
330
18E
100
AcDbEntity
  8
Layer0
  6
AUSGEZOGEN
 62
    18
420
        0
370
    18
100
AcDbLine
 10
63.875734402269
 20
280.442062197271
 30
0.0
 11
63.801542599296
 21
280.480009803468
 31
0.0
  0
ENDBLK
  5
190
330
18E
100
AcDbEntity
  8
0
100
AcDbBlockEnd
  0
BLOCK
  5
195
330
194
100
AcDbEntity
  8
0
100
AcDbBlockBegin
  2
SW_CENTERMARKSYMBOL_0_nNn09
 70
     0
 10
0.0
 20
0.0
 30
0.0
  3
SW_CENTERMARKSYMBOL_0_nNn09
  1

  0
LINE
  5
197
330
194
100
AcDbEntity
  8
Layer0
  6
DASHDOT2
 62
    18
420
        0
370
    18
100
AcDbLine
 10
71.462408369547
 20
273.883102359513
 30
0.0
 11
68.962408369547
 21
273.883102359513
 31
0.0
  0
LINE
  5
198
330
194
100
AcDbEntity
  8
Layer0
  6
DASHDOT2
 62
    18
420
        0
370
    18
100
AcDbLine
 10
71.462408369547
 20
273.883102359513
 30
0.0
 11
71.462408369547
 21
271.383102359513
 31
0.0
  0
LINE
  5
199
330
194
100
AcDbEntity
  8
Layer0
  6
DASHDOT2
 62
    18
420
        0
370
    18
100
AcDbLine
 10
71.462408369547
 20
273.883102359513
 30
0.0
 11
73.962408369547
 21
273.883102359513
 31
0.0
  0
LINE
  5
19A
330
194
100
AcDbEntity
  8
Layer0
  6
DASHDOT2
 62
    18
420
        0
370
    18
100
AcDbLine
 10
71.462408369547
 20
273.883102359513
 30
0.0
 11
71.462408369547
 21
276.383102359513
 31
0.0
  0
LINE
  5
19B
330
194
100
AcDbEntity
  8
Layer0
  6
DASHDOT2
 62
    18
420
        0
370
    18
100
AcDbLine
 10
66.462408369547
 20
273.883102359513
 30
0.0
 11
53.262408369547
 21
273.883102359513
 31
0.0
  0
LINE
  5
19C
330
194
100
AcDbEntity
  8
Layer0
  6
DASHDOT2
 62
    18
420
        0
370
    18
100
AcDbLine
 10
71.462408369547
 20
268.883102359513
 30
0.0
 11
71.462408369547
 21
255.683102359513
 31
0.0
  0
LINE
  5
19D
330
194
100
AcDbEntity
  8
Layer0
  6
DASHDOT2
 62
    18
420
        0
370
    18
100
AcDbLine
 10
76.462408369547
 20
273.883102359513
 30
0.0
 11
89.662408369547
 21
273.883102359513
 31
0.0
  0
LINE
  5
19E
330
194
100
AcDbEntity
  8
Layer0
  6
DASHDOT2
 62
    18
420
        0
370
    18
100
AcDbLine
 10
71.462408369547
 20
278.883102359513
 30
0.0
 11
71.462408369547
 21
292.172382204301
 31
0.0
  0
ENDBLK
  5
196
330
194
100
AcDbEntity
  8
0
100
AcDbBlockEnd
  0
BLOCK
  5
1B3
330
1B2
100
AcDbEntity
  8
0
100
AcDbBlockBegin
  2
AnonymMegaMac_nNn010
 70
     0
 10
0.0
 20
0.0
 30
0.0
  3
AnonymMegaMac_nNn010
  1

  0
HATCH
  5
1B5
330
1B2
100
AcDbEntity
  8
Layer0
  6
AUSGEZOGEN
 62
    18
420
        0
370
    18
100
AcDbHatch
 10
0.0
 20
0.0
 30
0.0
210
0.0
220
0.0
230
1.0
  2
SOLID
 70
     1
 71
     0
 91
        1
 92
        2
 72
     0
 73
     1
 93
        3
 10
83.9776764404773
 20
141.9701623625227
 10
84.53101858102377
 20
142.5996959005454
 10
84.0741058653264
 20
142.8027495147315
 97
        0
 75
     0
 76
     1
 98
        0
  0
LINE
  5
1B6
330
1B2
100
AcDbEntity
  8
Layer0
  6
AUSGEZOGEN
 62
    18
420
        0
370
    18
100
AcDbLine
 10
83.977676440477
 20
141.970162362523
 30
0.0
 11
94.447607361507
 21
165.52967687531
 31
0.0
  0
LINE
  5
1B7
330
1B2
100
AcDbEntity
  8
Layer0
  6
AUSGEZOGEN
 62
    18
420
        0
370
    18
100
AcDbLine
 10
81.947140298616
 20
137.401035205549
 30
0.0
 11
83.977676440477
 21
141.970162362523
 31
0.0
  0
LINE
  5
1B8
330
1B2
100
AcDbEntity
  8
Layer0
  6
AUSGEZOGEN
 62
    18
420
        0
370
    18
100
AcDbLine
 10
94.447607361507
 20
165.52967687531
 30
0.0
 11
94.447607361507
 21
171.839663743374
 31
0.0
  0
TEXT
  5
1B9
330
1B2
100
AcDbEntity
  8
Layer0
  6
AUSGEZOGEN
 62
    18
420
        0
370
    18
100
AcDbText
 10
93.587255799007
 20
167.11717687531
 30
0.0
 40
3.0
  1
%%c
 50
90.0
 41
0.902495372097
  7
Verdana
 72
     5
 11
93.587255799007
 21
170.046676853137
 31
0.0
100
AcDbText
  0
TEXT
  5
1BA
330
1B2
100
AcDbEntity
  8
Layer0
  6
AUSGEZOGEN
 62
    18
420
        0
370
    18
100
AcDbText
 10
93.587255886319
 20
169.75483620995
 30
0.0
 40
3.0
  1
5
 50
90.0
 41
0.901029741464
  7
Verdana
 72
     5
 11
93.587255886319
 21
172.117336192069
 31
0.0
100
AcDbText
  0
ENDBLK
  5
1B4
330
1B2
100
AcDbEntity
  8
0
100
AcDbBlockEnd
  0
BLOCK
  5
1BD
330
1BC
100
AcDbEntity
  8
0
100
AcDbBlockBegin
  2
SW_CENTERMARKSYMBOL_1_nNn011
 70
     0
 10
0.0
 20
0.0
 30
0.0
  3
SW_CENTERMARKSYMBOL_1_nNn011
  1

  0
LINE
  5
1BF
330
1BC
100
AcDbEntity
  8
Layer0
  6
DASHDOT2
 62
    18
420
        0
370
    18
100
AcDbLine
 10
71.462408369547
 20
139.685598784036
 30
0.0
 11
68.962408369547
 21
139.685598784036
 31
0.0
  0
LINE
  5
1C0
330
1BC
100
AcDbEntity
  8
Layer0
  6
DASHDOT2
 62
    18
420
        0
370
    18
100
AcDbLine
 10
71.462408369547
 20
139.685598784036
 30
0.0
 11
71.462408369547
 21
137.185598784036
 31
0.0
  0
LINE
  5
1C1
330
1BC
100
AcDbEntity
  8
Layer0
  6
DASHDOT2
 62
    18
420
        0
370
    18
100
AcDbLine
 10
71.462408369547
 20
139.685598784036
 30
0.0
 11
73.962408369547
 21
139.685598784036
 31
0.0
  0
LINE
  5
1C2
330
1BC
100
AcDbEntity
  8
Layer0
  6
DASHDOT2
 62
    18
420
        0
370
    18
100
AcDbLine
 10
71.462408369547
 20
139.685598784036
 30
0.0
 11
71.462408369547
 21
142.185598784036
 31
0.0
  0
LINE
  5
1C3
330
1BC
100
AcDbEntity
  8
Layer0
  6
DASHDOT2
 62
    18
420
        0
370
    18
100
AcDbLine
 10
66.462408369547
 20
139.685598784036
 30
0.0
 11
52.962408369547
 21
139.685598784036
 31
0.0
  0
LINE
  5
1C4
330
1BC
100
AcDbEntity
  8
Layer0
  6
DASHDOT2
 62
    18
420
        0
370
    18
100
AcDbLine
 10
71.462408369547
 20
134.685598784036
 30
0.0
 11
71.462408369547
 21
121.185598784036
 31
0.0
  0
LINE
  5
1C5
330
1BC
100
AcDbEntity
  8
Layer0
  6
DASHDOT2
 62
    18
420
        0
370
    18
100
AcDbLine
 10
76.462408369547
 20
139.685598784036
 30
0.0
 11
89.962408369547
 21
139.685598784036
 31
0.0
  0
LINE
  5
1C6
330
1BC
100
AcDbEntity
  8
Layer0
  6
DASHDOT2
 62
    18
420
        0
370
    18
100
AcDbLine
 10
71.462408369547
 20
144.685598784036
 30
0.0
 11
71.462408369547
 21
158.185598784036
 31
0.0
  0
ENDBLK
  5
1BE
330
1BC
100
AcDbEntity
  8
0
100
AcDbBlockEnd
  0
BLOCK
  5
1C9
330
1C8
100
AcDbEntity
  8
0
100
AcDbBlockBegin
  2
SW_CENTERMARKSYMBOL_2_nNn012
 70
     0
 10
0.0
 20
0.0
 30
0.0
  3
SW_CENTERMARKSYMBOL_2_nNn012
  1

  0
LINE
  5
1CB
330
1C8
100
AcDbEntity
  8
Layer0
  6
DASHDOT2
 62
    18
420
        0
370
    18
100
AcDbLine
 10
82.962408369547
 20
139.685598784036
 30
0.0
 11
80.462408369547
 21
139.685598784036
 31
0.0
  0
LINE
  5
1CC
330
1C8
100
AcDbEntity
  8
Layer0
  6
DASHDOT2
 62
    18
420
        0
370
    18
100
AcDbLine
 10
82.962408369547
 20
139.685598784036
 30
0.0
 11
82.962408369547
 21
137.185598784036
 31
0.0
  0
LINE
  5
1CD
330
1C8
100
AcDbEntity
  8
Layer0
  6
DASHDOT2
 62
    18
420
        0
370
    18
100
AcDbLine
 10
82.962408369547
 20
139.685598784036
 30
0.0
 11
85.462408369547
 21
139.685598784036
 31
0.0
  0
LINE
  5
1CE
330
1C8
100
AcDbEntity
  8
Layer0
  6
DASHDOT2
 62
    18
420
        0
370
    18
100
AcDbLine
 10
82.962408369547
 20
139.685598784036
 30
0.0
 11
82.962408369547
 21
142.185598784036
 31
0.0
  0
LINE
  5
1CF
330
1C8
100
AcDbEntity
  8
Layer0
  6
DASHDOT2
 62
    18
420
        0
370
    18
100
AcDbLine
 10
80.462408369547
 20
139.685598784036
 30
0.0
 11
77.962408369547
 21
139.685598784036
 31
0.0
  0
LINE
  5
1D0
330
1C8
100
AcDbEntity
  8
Layer0
  6
DASHDOT2
 62
    18
420
        0
370
    18
100
AcDbLine
 10
82.962408369547
 20
137.185598784036
 30
0.0
 11
82.962408369547
 21
134.685598784036
 31
0.0
  0
LINE
  5
1D1
330
1C8
100
AcDbEntity
  8
Layer0
  6
DASHDOT2
 62
    18
420
        0
370
    18
100
AcDbLine
 10
85.462408369547
 20
139.685598784036
 30
0.0
 11
87.962408369547
 21
139.685598784036
 31
0.0
  0
LINE
  5
1D2
330
1C8
100
AcDbEntity
  8
Layer0
  6
DASHDOT2
 62
    18
420
        0
370
    18
100
AcDbLine
 10
82.962408369547
 20
142.185598784036
 30
0.0
 11
82.962408369547
 21
144.685598784036
 31
0.0
  0
ENDBLK
  5
1CA
330
1C8
100
AcDbEntity
  8
0
100
AcDbBlockEnd
  0
BLOCK
  5
1EB
330
1EA
100
AcDbEntity
  8
0
100
AcDbBlockBegin
  2
*D14
 70
     1
 10
0.0
 20
0.0
 30
0.0
  3
*D14
  1

  0
HATCH
  5
1ED
330
1EA
100
AcDbEntity
  8
Layer6
  6
AUSGEZOGEN
 62
    18
420
        0
370
    18
100
AcDbHatch
 10
0.0
 20
0.0
 30
0.0
210
0.0
220
0.0
230
1.0
  2
SOLID
 70
     1
 71
     0
 91
        1
 92
        2
 72
     0
 73
     1
 93
        3
 10
73.962408912607
 20
228.2176845347472
 10
77.462408912607
 20
227.6926845347472
 10
77.462408912607
 20
228.7426845347472
 97
        0
 75
     0
 76
     1
 98
        0
  0
HATCH
  5
1EE
330
1EA
100
AcDbEntity
  8
Layer6
  6
AUSGEZOGEN
 62
    18
420
        0
370
    18
100
AcDbHatch
 10
0.0
 20
0.0
 30
0.0
210
0.0
220
0.0
230
1.0
  2
SOLID
 70
     1
 71
     0
 91
        1
 92
        2
 72
     0
 73
     1
 93
        3
 10
68.96240809304314
 20
228.2176845347472
 10
65.46240809304314
 20
228.7426845347472
 10
65.46240809304314
 20
227.6926845347472
 97
        0
 75
     0
 76
     1
 98
        0
  0
LINE
  5
1EF
330
1EA
100
AcDbEntity
  8
Layer6
  6
AUSGEZOGEN
 62
    18
420
        0
370
    18
100
AcDbLine
 10
68.962408093043
 20
228.217684534747
 30
0.0
 11
73.962408912607
 21
228.217684534747
 31
0.0
  0
LINE
  5
1F0
330
1EA
100
AcDbEntity
  8
Layer6
  6
AUSGEZOGEN
 62
    18
420
        0
370
    18
100
AcDbLine
 10
77.462408912607
 20
228.217684534747
 30
0.0
 11
80.962408912607
 21
228.217684534747
 31
0.0
  0
LINE
  5
1F1
330
1EA
100
AcDbEntity
  8
Layer6
  6
AUSGEZOGEN
 62
    18
420
        0
370
    18
100
AcDbLine
 10
65.462408093043
 20
228.217684534747
 30
0.0
 11
61.962408093043
 21
228.217684534747
 31
0.0
  0
LINE
  5
1F2
330
1EA
100
AcDbEntity
  8
Layer6
  6
AUSGEZOGEN
 62
    18
420
        0
370
    18
100
AcDbLine
 10
65.462408093043
 20
228.217684534747
 30
0.0
 11
57.63791781299
 21
228.217684534747
 31
0.0
  0
LINE
  5
1F3
330
1EA
100
AcDbEntity
  8
Layer6
  6
AUSGEZOGEN
 62
    18
420
        0
370
    18
100
AcDbLine
 10
68.962408093043
 20
210.527383029978
 30
0.0
 11
68.962408093043
 21
214.027382724504
 31
0.0
  0
LINE
  5
1F4
330
1EA
100
AcDbEntity
  8
Layer6
  6
AUSGEZOGEN
 62
    18
420
        0
370
    18
100
AcDbLine
 10
68.962408093043
 20
215.027382724504
 30
0.0
 11
68.962408093043
 21
219.527382724504
 31
0.0
  0
LINE
  5
1F5
330
1EA
100
AcDbEntity
  8
Layer6
  6
AUSGEZOGEN
 62
    18
420
        0
370
    18
100
AcDbLine
 10
68.962408093043
 20
220.527382724504
 30
0.0
 11
68.962408093043
 21
229.931970249033
 31
0.0
  0
LINE
  5
1F6
330
1EA
100
AcDbEntity
  8
Layer6
  6
AUSGEZOGEN
 62
    18
420
        0
370
    18
100
AcDbLine
 10
73.962408912607
 20
210.527383029978
 30
0.0
 11
73.962408912607
 21
214.027382724504
 31
0.0
  0
LINE
  5
1F7
330
1EA
100
AcDbEntity
  8
Layer6
  6
AUSGEZOGEN
 62
    18
420
        0
370
    18
100
AcDbLine
 10
73.962408912607
 20
215.027382724504
 30
0.0
 11
73.962408912607
 21
219.527382724504
 31
0.0
  0
LINE
  5
1F8
330
1EA
100
AcDbEntity
  8
Layer6
  6
AUSGEZOGEN
 62
    18
420
        0
370
    18
100
AcDbLine
 10
73.962408912607
 20
220.527382724504
 30
0.0
 11
73.962408912607
 21
229.931970249033
 31
0.0
  0
WIPEOUT
  5
1F9
330
1EA
100
AcDbEntity
  8
Layer6
  6
AUSGEZOGEN
 62
    18
420
        0
370
    18
160
               128
310
80000000020000000C00000014000000010000006C0000000700000004000000302A784AA7D14C401819F5AB5D7D6C400000000000000000CAC3D193B3CB4F401819F5AB5D7D6C400000000000000000CAC3D193B3CB4F40B2B28E45F7166D400000000000000000302A784AA7D14C40B2B28E45F7166D4000000000000000
310
00
100
AcDbWipeout
 90
        0
 10
57.63791781299
 20
227.917684534747
 30
0.0
 11
5.953499954938891
 21
0.0
 31
0.0
 12
0.0
 22
5.953499954938891
 32
0.0
 13
1.0
 23
1.0
340
0
 70
     7
280
     1
281
    50
282
    50
283
     0
360
0
 71
     2
 91
        5
 14
-0.5
 24
0.5
 14
0.5
 24
0.5
 14
0.5
 24
-0.306248431398
 14
-0.5
 24
-0.306248431398
 14
-0.5
 24
0.5
290
     0
  0
TEXT
  5
1FA
330
1EA
100
AcDbEntity
  8
Layer6
  6
AUSGEZOGEN
 62
    18
420
        0
370
    18
100
AcDbText
 10
57.63791781299
 20
228.817684534747
 30
0.0
 40
3.0
  1
M5
 41
1.023465696225
  7
Arial
 72
     5
 11
63.591417767929
 21
228.817684534747
 31
0.0
100
AcDbText
  0
ENDBLK
  5
1EC
330
1EA
100
AcDbEntity
  8
0
100
AcDbBlockEnd
  0
BLOCK
  5
1FD
330
1FC
100
AcDbEntity
  8
0
100
AcDbBlockBegin
  2
*D15
 70
     1
 10
0.0
 20
0.0
 30
0.0
  3
*D15
  1

  0
HATCH
  5
1FF
330
1FC
100
AcDbEntity
  8
Layer6
  6
AUSGEZOGEN
 62
    18
420
        0
370
    18
100
AcDbHatch
 10
0.0
 20
0.0
 30
0.0
210
0.0
220
0.0
230
1.0
  2
SOLID
 70
     1
 71
     0
 91
        1
 92
        2
 72
     0
 73
     1
 93
        3
 10
74.4624083695467
 20
236.0292805825638
 10
77.9624083695467
 20
235.5042805825638
 10
77.9624083695467
 20
236.5542805825638
 97
        0
 75
     0
 76
     1
 98
        0
  0
HATCH
  5
200
330
1FC
100
AcDbEntity
  8
Layer6
  6
AUSGEZOGEN
 62
    18
420
        0
370
    18
100
AcDbHatch
 10
0.0
 20
0.0
 30
0.0
210
0.0
220
0.0
230
1.0
  2
SOLID
 70
     1
 71
     0
 91
        1
 92
        2
 72
     0
 73
     1
 93
        3
 10
68.46240836954667
 20
236.0292805825638
 10
64.96240836954667
 20
236.5542805825638
 10
64.96240836954667
 20
235.5042805825638
 97
        0
 75
     0
 76
     1
 98
        0
  0
LINE
  5
201
330
1FC
100
AcDbEntity
  8
Layer6
  6
AUSGEZOGEN
 62
    18
420
        0
370
    18
100
AcDbLine
 10
68.462408369547
 20
236.029280582564
 30
0.0
 11
74.462408369547
 21
236.029280582564
 31
0.0
  0
LINE
  5
202
330
1FC
100
AcDbEntity
  8
Layer6
  6
AUSGEZOGEN
 62
    18
420
        0
370
    18
100
AcDbLine
 10
77.962408369547
 20
236.029280582564
 30
0.0
 11
81.462408369547
 21
236.029280582564
 31
0.0
  0
LINE
  5
203
330
1FC
100
AcDbEntity
  8
Layer6
  6
AUSGEZOGEN
 62
    18
420
        0
370
    18
100
AcDbLine
 10
64.962408369547
 20
236.029280582564
 30
0.0
 11
61.462408369547
 21
236.029280582564
 31
0.0
  0
LINE
  5
204
330
1FC
100
AcDbEntity
  8
Layer6
  6
AUSGEZOGEN
 62
    18
420
        0
370
    18
100
AcDbLine
 10
68.462408369547
 20
220.027382724504
 30
0.0
 11
68.462408369547
 21
237.74356629685
 31
0.0
  0
LINE
  5
205
330
1FC
100
AcDbEntity
  8
Layer6
  6
AUSGEZOGEN
 62
    18
420
        0
370
    18
100
AcDbLine
 10
74.462408369547
 20
220.027382724504
 30
0.0
 11
74.462408369547
 21
237.74356629685
 31
0.0
  0
WIPEOUT
  5
206
330
1FC
100
AcDbEntity
  8
Layer6
  6
AUSGEZOGEN
 62
    18
420
        0
370
    18
160
               128
310
80000000020000000C00000014000000010000006C00000007000000040000006BFD89AB6391514004773B4456776D400000000000000000574F0287CC29524004773B4456776D400000000000000000574F0287CC2952409E10D5DDEF106E4000000000000000006BFD89AB639151409E10D5DDEF106E4000000000000000
310
00
100
AcDbWipeout
 90
        0
 10
70.271708378559
 20
235.729280582564
 30
0.0
 11
4.800000000000011
 21
0.0
 31
0.0
 12
0.0
 22
4.800000000000011
 32
0.0
 13
1.0
 23
1.0
340
0
 70
     7
280
     1
281
    50
282
    50
283
     0
360
0
 71
     2
 91
        5
 14
-0.5
 24
0.5
 14
-0.003875003755
 24
0.5
 14
-0.003875003755
 24
-0.5
 14
-0.5
 24
-0.5
 14
-0.5
 24
0.5
290
     0
  0
TEXT
  5
207
330
1FC
100
AcDbEntity
  8
Layer6
  6
AUSGEZOGEN
 62
    18
420
        0
370
    18
100
AcDbText
 10
70.271708378559
 20
236.629280582564
 30
0.0
 40
3.0
  1
6
 41
1.022938136587
  7
Arial
 72
     5
 11
72.653108360534
 21
236.629280582564
 31
0.0
100
AcDbText
  0
ENDBLK
  5
1FE
330
1FC
100
AcDbEntity
  8
0
100
AcDbBlockEnd
  0
BLOCK
  5
20A
330
209
100
AcDbEntity
  8
0
100
AcDbBlockBegin
  2
*D16
 70
     1
 10
0.0
 20
0.0
 30
0.0
  3
*D16
  1

  0
HATCH
  5
20C
330
209
100
AcDbEntity
  8
Layer6
  6
AUSGEZOGEN
 62
    18
420
        0
370
    18
100
AcDbHatch
 10
0.0
 20
0.0
 30
0.0
210
0.0
220
0.0
230
1.0
  2
SOLID
 70
     1
 71
     0
 91
        1
 92
        2
 72
     0
 73
     1
 93
        3
 10
87.46240836954672
 20
182.2257073100099
 10
83.96240836954672
 20
182.7507073100099
 10
83.96240836954672
 20
181.7007073100099
 97
        0
 75
     0
 76
     1
 98
        0
  0
HATCH
  5
20D
330
209
100
AcDbEntity
  8
Layer6
  6
AUSGEZOGEN
 62
    18
420
        0
370
    18
100
AcDbHatch
 10
0.0
 20
0.0
 30
0.0
210
0.0
220
0.0
230
1.0
  2
SOLID
 70
     1
 71
     0
 91
        1
 92
        2
 72
     0
 73
     1
 93
        3
 10
55.46240836954678
 20
182.2257073100099
 10
58.96240836954678
 20
181.7007073100099
 10
58.96240836954678
 20
182.7507073100099
 97
        0
 75
     0
 76
     1
 98
        0
  0
LINE
  5
20E
330
209
100
AcDbEntity
  8
Layer6
  6
AUSGEZOGEN
 62
    18
420
        0
370
    18
100
AcDbLine
 10
58.962408369547
 20
182.22570731001
 30
0.0
 11
83.962408369547
 21
182.22570731001
 31
0.0
  0
LINE
  5
20F
330
209
100
AcDbEntity
  8
Layer6
  6
AUSGEZOGEN
 62
    18
420
        0
370
    18
100
AcDbLine
 10
55.462408369547
 20
191.327382724504
 30
0.0
 11
55.462408369547
 21
180.511421595724
 31
0.0
  0
LINE
  5
210
330
209
100
AcDbEntity
  8
Layer6
  6
AUSGEZOGEN
 62
    18
420
        0
370
    18
100
AcDbLine
 10
87.462408369547
 20
191.327382724504
 30
0.0
 11
87.462408369547
 21
180.511421595724
 31
0.0
  0
WIPEOUT
  5
211
330
209
100
AcDbEntity
  8
Layer6
  6
AUSGEZOGEN
 62
    18
420
        0
370
    18
160
               128
310
80000000020000000C00000014000000010000006C00000007000000040000007AD4CD3D2F45514025C5EF649FBD664000000000000000005178BEF40076524025C5EF649FBD664000000000000000005178BEF400765240BF5E89FE3857674000000000000000007AD4CD3D2F455140BF5E89FE3857674000000000000000
310
00
100
AcDbWipeout
 90
        0
 10
69.081008387571
 20
181.92570731001
 30
0.0
 11
4.800000000000011
 21
0.0
 31
0.0
 12
0.0
 22
4.800000000000011
 32
0.0
 13
1.0
 23
1.0
340
0
 70
     7
280
     1
281
    50
282
    50
283
     0
360
0
 71
     2
 91
        5
 14
-0.5
 24
0.5
 14
0.49224999249
 24
0.5
 14
0.49224999249
 24
-0.5
 14
-0.5
 24
-0.5
 14
-0.5
 24
0.5
290
     0
  0
TEXT
  5
212
330
209
100
AcDbEntity
  8
Layer6
  6
AUSGEZOGEN
 62
    18
420
        0
370
    18
100
AcDbText
 10
69.081008387571
 20
182.82570731001
 30
0.0
 40
3.0
  1
32
 41
1.022938136587
  7
Arial
 72
     5
 11
73.843808351522
 21
182.82570731001
 31
0.0
100
AcDbText
  0
ENDBLK
  5
20B
330
209
100
AcDbEntity
  8
0
100
AcDbBlockEnd
  0
BLOCK
  5
215
330
214
100
AcDbEntity
  8
0
100
AcDbBlockBegin
  2
*D17
 70
     1
 10
0.0
 20
0.0
 30
0.0
  3
*D17
  1

  0
HATCH
  5
217
330
214
100
AcDbEntity
  8
Layer6
  6
AUSGEZOGEN
 62
    18
420
        0
370
    18
100
AcDbHatch
 10
0.0
 20
0.0
 30
0.0
210
0.0
220
0.0
230
1.0
  2
SOLID
 70
     1
 71
     0
 91
        1
 92
        2
 72
     0
 73
     1
 93
        3
 10
82.96240836954667
 20
163.7204027426705
 10
79.46240836954667
 20
164.2454027426705
 10
79.46240836954667
 20
163.1954027426705
 97
        0
 75
     0
 76
     1
 98
        0
  0
HATCH
  5
218
330
214
100
AcDbEntity
  8
Layer6
  6
AUSGEZOGEN
 62
    18
420
        0
370
    18
100
AcDbHatch
 10
0.0
 20
0.0
 30
0.0
210
0.0
220
0.0
230
1.0
  2
SOLID
 70
     1
 71
     0
 91
        1
 92
        2
 72
     0
 73
     1
 93
        3
 10
71.4624083695467
 20
163.7204027426705
 10
74.9624083695467
 20
163.1954027426705
 10
74.9624083695467
 20
164.2454027426705
 97
        0
 75
     0
 76
     1
 98
        0
  0
LINE
  5
219
330
214
100
AcDbEntity
  8
Layer6
  6
AUSGEZOGEN
 62
    18
420
        0
370
    18
100
AcDbLine
 10
74.962408369547
 20
163.720402742671
 30
0.0
 11
79.462408369547
 21
163.720402742671
 31
0.0
  0
LINE
  5
21A
330
214
100
AcDbEntity
  8
Layer6
  6
AUSGEZOGEN
 62
    18
420
        0
370
    18
100
AcDbLine
 10
71.462408369547
 20
158.185598784036
 30
0.0
 11
71.462408369547
 21
165.434688456956
 31
0.0
  0
LINE
  5
21B
330
214
100
AcDbEntity
  8
Layer6
  6
AUSGEZOGEN
 62
    18
420
        0
370
    18
100
AcDbLine
 10
82.962408369547
 20
144.685598784036
 30
0.0
 11
82.962408369547
 21
148.816278926165
 31
0.0
  0
LINE
  5
21C
330
214
100
AcDbEntity
  8
Layer6
  6
AUSGEZOGEN
 62
    18
420
        0
370
    18
100
AcDbLine
 10
82.962408369547
 20
149.816278926165
 30
0.0
 11
82.962408369547
 21
150.309896514679
 31
0.0
  0
LINE
  5
21D
330
214
100
AcDbEntity
  8
Layer6
  6
AUSGEZOGEN
 62
    18
420
        0
370
    18
100
AcDbLine
 10
82.962408369547
 20
151.309896514679
 30
0.0
 11
82.962408369547
 21
165.434688456956
 31
0.0
  0
WIPEOUT
  5
21E
330
214
100
AcDbEntity
  8
Layer6
  6
AUSGEZOGEN
 62
    18
420
        0
370
    18
160
               128
310
80000000020000000C00000014000000010000006C000000070000000400000005973399E042524065DD73F0736D64400000000000000000BDB558994F58544065DD73F0736D64400000000000000000BDB558994F585440FF760D8A0D076540000000000000000005973399E0425240FF760D8A0D07654000000000000000
310
00
100
AcDbWipeout
 90
        0
 10
73.044958401089
 20
163.420402742671
 30
0.0
 11
8.334899936914439
 21
0.0
 31
0.0
 12
0.0
 22
8.334899936914439
 32
0.0
 13
1.0
 23
1.0
340
0
 70
     7
280
     1
281
    50
282
    50
283
     0
360
0
 71
     2
 91
        5
 14
-0.5
 24
0.5
 14
0.5
 24
0.5
 14
0.5
 24
-0.075891736713
 14
-0.5
 24
-0.075891736713
 14
-0.5
 24
0.5
290
     0
  0
TEXT
  5
21F
330
214
100
AcDbEntity
  8
Layer6
  6
AUSGEZOGEN
 62
    18
420
        0
370
    18
100
AcDbText
 10
73.044958401089
 20
164.320402742671
 30
0.0
 40
3.0
  1
11.5
 41
1.022938136587
  7
Arial
 72
     5
 11
81.379858338004
 21
164.320402742671
 31
0.0
100
AcDbText
  0
ENDBLK
  5
216
330
214
100
AcDbEntity
  8
0
100
AcDbBlockEnd
  0
BLOCK
  5
222
330
221
100
AcDbEntity
  8
0
100
AcDbBlockBegin
  2
*D18
 70
     1
 10
0.0
 20
0.0
 30
0.0
  3
*D18
  1

  0
HATCH
  5
224
330
221
100
AcDbEntity
  8
Layer6
  6
AUSGEZOGEN
 62
    18
420
        0
370
    18
100
AcDbHatch
 10
0.0
 20
0.0
 30
0.0
210
0.0
220
0.0
230
1.0
  2
SOLID
 70
     1
 71
     0
 91
        1
 92
        2
 72
     0
 73
     1
 93
        3
 10
97.20712909043988
 20
219.0273827245044
 10
96.68212909043987
 20
215.5273827245044
 10
97.73212909043988
 20
215.5273827245044
 97
        0
 75
     0
 76
     1
 98
        0
  0
HATCH
  5
225
330
221
100
AcDbEntity
  8
Layer6
  6
AUSGEZOGEN
 62
    18
420
        0
370
    18
100
AcDbHatch
 10
0.0
 20
0.0
 30
0.0
210
0.0
220
0.0
230
1.0
  2
SOLID
 70
     1
 71
     0
 91
        1
 92
        2
 72
     0
 73
     1
 93
        3
 10
97.20712909043988
 20
220.0273827245044
 10
97.73212909043988
 20
223.5273827245044
 10
96.68212909043987
 20
223.5273827245044
 97
        0
 75
     0
 76
     1
 98
        0
  0
LINE
  5
226
330
221
100
AcDbEntity
  8
Layer6
  6
AUSGEZOGEN
 62
    18
420
        0
370
    18
100
AcDbLine
 10
97.20712909044
 20
220.027382724504
 30
0.0
 11
97.20712909044
 21
219.027382724504
 31
0.0
  0
LINE
  5
227
330
221
100
AcDbEntity
  8
Layer6
  6
AUSGEZOGEN
 62
    18
420
        0
370
    18
100
AcDbLine
 10
97.20712909044
 20
215.527382724504
 30
0.0
 11
97.20712909044
 21
212.027382724504
 31
0.0
  0
LINE
  5
228
330
221
100
AcDbEntity
  8
Layer6
  6
AUSGEZOGEN
 62
    18
420
        0
370
    18
100
AcDbLine
 10
97.20712909044
 20
223.527382724504
 30
0.0
 11
97.20712909044
 21
227.027382724504
 31
0.0
  0
LINE
  5
229
330
221
100
AcDbEntity
  8
Layer6
  6
AUSGEZOGEN
 62
    18
420
        0
370
    18
100
AcDbLine
 10
97.20712909044
 20
215.527382724504
 30
0.0
 11
97.20712909044
 21
197.417432157103
 31
0.0
  0
LINE
  5
22A
330
221
100
AcDbEntity
  8
Layer6
  6
AUSGEZOGEN
 62
    18
420
        0
370
    18
100
AcDbLine
 10
86.252608199843
 20
220.027382724504
 30
0.0
 11
99.20712909044
 21
220.027382724504
 31
0.0
  0
LINE
  5
22B
330
221
100
AcDbEntity
  8
Layer6
  6
AUSGEZOGEN
 62
    18
420
        0
370
    18
100
AcDbLine
 10
87.265888998826
 20
219.027382724504
 30
0.0
 11
99.20712909044
 21
219.027382724504
 31
0.0
  0
WIPEOUT
  5
22C
330
221
100
AcDbEntity
  8
Layer6
  6
AUSGEZOGEN
 62
    18
420
        0
370
    18
160
               128
310
80000000020000000C00000014000000010000006C0000000700000004000000BAC5C500A8635840C2E1AE9A5BAD68400000000000000000BAC5C500A86358402848155B04486A400000000000000000545F5F9A41FD56402848155B04486A400000000000000000545F5F9A41FD5640C2E1AE9A5BAD684000000000000000
310
00
100
AcDbWipeout
 90
        0
 10
91.95712909044
 20
197.417432157103
 30
0.0
 11
12.83309955596923
 21
0.0
 31
0.0
 12
0.0
 22
12.83309955596923
 32
0.0
 13
1.0
 23
1.0
340
0
 70
     7
280
     1
281
    50
282
    50
283
     0
360
0
 71
     2
 91
        5
 14
-0.063628414509
 24
0.5
 14
-0.063628414509
 24
-0.5
 14
-0.5
 24
-0.5
 14
-0.5
 24
0.5
 14
-0.063628414509
 24
0.5
290
     0
  0
TEXT
  5
22D
330
221
100
AcDbEntity
  8
Layer6
  6
AUSGEZOGEN
 62
    18
420
        0
370
    18
100
AcDbText
 10
96.50712909044
 20
197.417432157103
 30
0.0
 40
3.5
  1
1x45%%d
 50
90.0
 41
1.023046839602
  7
Arial
 72
     5
 11
96.50712909044
 21
210.250531713072
 31
0.0
100
AcDbText
  0
ENDBLK
  5
223
330
221
100
AcDbEntity
  8
0
100
AcDbBlockEnd
  0
ENDSEC
  0
SECTION
  2
ENTITIES
  0
INSERT
  5
91
330
1F
100
AcDbEntity
  8
0
100
AcDbBlockReference
  2
Zeichnungskoordinaten_nNn00
 10
0.0
 20
0.0
 30
0.0
  0
INSERT
  5
A2
330
1F
100
AcDbEntity
  8
0
100
AcDbBlockReference
  2
Zeichnungsrahmen_nNn01
 10
0.0
 20
0.0
 30
0.0
  0
INSERT
  5
F2
330
1F
100
AcDbEntity
  8
0
100
AcDbBlockReference
  2
Schriftfeld_nNn02
 10
0.0
 20
0.0
 30
0.0
  0
INSERT
  5
104
330
1F
100
AcDbEntity
  8
0
100
AcDbBlockReference
  2
Beschriftung_nNn03
 10
0.0
 20
0.0
 30
0.0
  0
WIPEOUT
  5
105
330
1F
100
AcDbEntity
  8
Layer0
  6
AUSGEZOGEN
 62
    18
420
        0
370
    18
160
               128
310
80000000020000000C00000014000000010000006C00000007000000040000003E0A18A55CFB30C00C4E3D027C1D424000000000000000000BD725165BBC2DC00C4E3D027C1D424000000000000000000BD725165BBC2DC0A6E7D69B15B7434000000000000000003E0A18A55CFB30C0A6E7D69B15B7434000000000000000
310
00
100
AcDbWipeout
 90
        0
 10
-16.981882398957
 20
36.230346946653
 30
0.0
 11
3.200000000000003
 21
0.0
 31
0.0
 12
0.0
 22
3.200000000000003
 32
0.0
 13
1.0
 23
1.0
340
0
 70
     7
280
     1
281
    50
282
    50
283
     0
360
0
 71
     2
 91
        5
 14
-0.5
 24
0.5
 14
0.16062498875
 24
0.5
 14
0.16062498875
 24
-0.5
 14
-0.5
 24
-0.5
 14
-0.5
 24
0.5
290
     0
  0
TEXT
  5
106
330
1F
100
AcDbEntity
  8
Layer0
  6
AUSGEZOGEN
 62
    18
420
        0
370
    18
100
AcDbText
 10
-16.981882398957
 20
36.830346946653
 30
0.0
 40
2.0
  1
A
 41
1.13533832653
  7
Arial
 72
     5
 11
-14.867882434959
 21
36.830346946653
 31
0.0
100
AcDbText
  0
WIPEOUT
  5
107
330
1F
100
AcDbEntity
  8
Layer0
  6
AUSGEZOGEN
 62
    18
420
        0
370
    18
160
               128
310
80000000020000000C00000014000000010000006C00000007000000040000002FA54A30A6BC2D4040AC12626D7C424000000000000000001C3E7791BD3A3A4040AC12626D7C424000000000000000001C3E7791BD3A3A4073DF4595A0AF434000000000000000002FA54A30A6BC2D4073DF4595A0AF434000000000000000
310
00
100
AcDbWipeout
 90
        0
 10
14.868455418694
 20
36.972088107221
 30
0.0
 11
11.36099966287613
 21
0.0
 31
0.0
 12
0.0
 22
11.36099966287613
 32
0.0
 13
1.0
 23
1.0
340
0
 70
     7
280
     1
281
    50
282
    50
283
     0
360
0
 71
     2
 91
        5
 14
-0.5
 24
0.5
 14
0.5
 24
0.5
 14
0.5
 24
0.288750983961
 14
-0.5
 24
0.288750983961
 14
-0.5
 24
0.5
290
     0
  0
TEXT
  5
108
330
1F
100
AcDbEntity
  8
Layer0
  6
AUSGEZOGEN
 62
    18
420
        0
370
    18
100
AcDbText
 10
14.868455418694
 20
37.422088107221
 30
0.0
 40
1.5
  1
21.04.08
 41
1.394329855532
  7
Arial
 72
     5
 11
26.22945508157
 21
37.422088107221
 31
0.0
100
AcDbText
  0
WIPEOUT
  5
109
330
1F
100
AcDbEntity
  8
Layer0
  6
AUSGEZOGEN
 62
    18
420
        0
370
    18
160
               128
310
80000000020000000C00000014000000010000006C00000007000000040000002CA53E0B32763D400DBD5D3ED53F42400000000000000000F2E1E1BE627740400DBD5D3ED53F42400000000000000000F2E1E1BE6277404040F090710873434000000000000000002CA53E0B32763D4040F090710873434000000000000000
310
00
100
AcDbWipeout
 90
        0
 10
29.46170110969
 20
36.498695178767
 30
0.0
 11
3.470999867916106
 21
0.0
 31
0.0
 12
0.0
 22
3.470999867916106
 32
0.0
 13
1.0
 23
1.0
340
0
 70
     7
280
     1
281
    50
282
    50
283
     0
360
0
 71
     2
 91
        5
 14
-0.5
 24
0.5
 14
0.5
 24
0.5
 14
0.5
 24
-0.191443414384
 14
-0.5
 24
-0.191443414384
 14
-0.5
 24
0.5
290
     0
  0
TEXT
  5
10A
330
1F
100
AcDbEntity
  8
Layer0
  6
AUSGEZOGEN
 62
    18
420
        0
370
    18
100
AcDbText
 10
29.46170110969
 20
36.948695178767
 30
0.0
 40
1.5
  1
CF
 41
1.243417470147
  7
Arial
 72
     5
 11
32.932700977606
 21
36.948695178767
 31
0.0
100
AcDbText
  0
WIPEOUT
  5
10B
330
1F
100
AcDbEntity
  8
Layer0
  6
AUSGEZOGEN
 62
    18
420
        0
370
    18
160
               128
310
80000000020000000C00000014000000010000006C0000000700000004000000ACA8586577EA4140B0B3586A098B504000000000000000001CE622003C0B4640B0B3586A098B504000000000000000001CE622003C0B46407D802537D65751400000000000000000ACA8586577EA41407D802537D657514000000000000000
310
00
100
AcDbWipeout
 90
        0
 10
35.83176867322
 20
66.172449671386
 30
0.0
 11
8.255999897718425
 21
0.0
 31
0.0
 12
0.0
 22
8.255999897718425
 32
0.0
 13
1.0
 23
1.0
340
0
 70
     7
280
     1
281
    50
282
    50
283
     0
360
0
 71
     2
 91
        5
 14
-0.5
 24
0.5
 14
0.5
 24
0.5
 14
0.5
 24
0.112403095973
 14
-0.5
 24
0.112403095973
 14
-0.5
 24
0.5
290
     0
  0
TEXT
  5
10C
330
1F
100
AcDbEntity
  8
Layer0
  6
AUSGEZOGEN
 62
    18
420
        0
370
    18
100
AcDbText
 10
35.83176867322
 20
66.772449671386
 30
0.0
 40
2.0
  1
2008
 41
1.329896890741
  7
Arial
 72
     5
 11
44.087768570939
 21
66.772449671386
 31
0.0
100
AcDbText
  0
LINE
  5
10D
330
1F
100
AcDbEntity
  8
Layer1
  6
AUSGEZOGEN
 62
    18
420
        0
370
    18
100
AcDbLine
 10
-18.551580500934
 20
76.281648686693
 30
0.0
 11
-18.551580500934
 21
85.872857273723
 31
0.0
  0
LINE
  5
10E
330
1F
100
AcDbEntity
  8
Layer1
  6
AUSGEZOGEN
 62
    18
420
        0
370
    18
100
AcDbLine
 10
-6.401580500934
 20
73.722857273723
 30
0.0
 11
-6.401580500934
 21
85.872857273723
 31
0.0
  0
LINE
  5
10F
330
1F
100
AcDbEntity
  8
Layer1
  6
AUSGEZOGEN
 62
    18
420
        0
370
    18
100
AcDbLine
 10
-6.401580500934
 20
85.872857273723
 30
0.0
 11
-18.551580500934
 21
85.872857273723
 31
0.0
  0
LINE
  5
110
330
1F
100
AcDbEntity
  8
Layer1
  6
AUSGEZOGEN
 62
    18
420
        0
370
    18
100
AcDbLine
 10
-15.206331059175
 20
76.281648686693
 30
0.0
 11
-14.366484890837
 21
76.281648686693
 31
0.0
  0
LINE
  5
111
330
1F
100
AcDbEntity
  8
Layer1
  6
AUSGEZOGEN
 62
    18
420
        0
370
    18
100
AcDbLine
 10
-13.190147620772
 20
73.722857273723
 30
0.0
 11
-13.190147620772
 21
75.06696288865
 31
0.0
  0
LINE
  5
112
330
1F
100
AcDbEntity
  8
Layer1
  6
AUSGEZOGEN
 62
    18
420
        0
370
    18
100
AcDbLine
 10
-14.531654889126
 20
75.06696288865
 30
0.0
 11
-14.531654889126
 21
73.722857273723
 31
0.0
  0
LINE
  5
113
330
1F
100
AcDbEntity
  8
Layer1
  6
AUSGEZOGEN
 62
    18
420
        0
370
    18
100
AcDbLine
 10
-10.664034518959
 20
75.605183125477
 30
0.0
 11
-9.863837200994
 21
75.605183125477
 31
0.0
  0
LINE
  5
114
330
1F
100
AcDbEntity
  8
Layer1
  6
AUSGEZOGEN
 62
    18
420
        0
370
    18
100
AcDbLine
 10
-12.178133365698
 20
75.605183125477
 30
0.0
 11
-11.354400832498
 21
75.605183125477
 31
0.0
  0
WIPEOUT
  5
115
330
1F
100
AcDbEntity
  8
Layer5
  6
AUSGEZOGEN
 62
     8
420
  8421504
370
    18
160
               152
310
98000000040000000C0000000E000000120000000C00000016000000000000C20C00000014000000010000006C0000000700000004000000D03BE6BFE0BC32C0C472D46A7BB85140000000000000000044C60C13C35227C0C472D46A7BB85140000000000000000044C60C13C35227C0CE4978DBB842524000000000000000
310
00D03BE6BFE0BC32C0CE4978DBB84252400000000000000000
100
AcDbWipeout
 90
        0
 10
-18.737804406843
 20
70.882532794446
 30
0.0
 11
7.076159857177736
 21
0.0
 31
0.0
 12
0.0
 22
7.076159857177736
 32
0.0
 13
1.0
 23
1.0
340
0
 70
     7
280
     1
281
    50
282
    50
283
     0
360
0
 71
     2
 91
        5
 14
-0.5
 24
0.5
 14
0.5
 24
0.5
 14
0.5
 24
0.194749688589
 14
-0.5
 24
0.194749688589
 14
-0.5
 24
0.5
290
     0
  0
TEXT
  5
116
330
1F
100
AcDbEntity
  8
Layer5
  6
AUSGEZOGEN
 62
     8
420
  8421504
370
    18
100
AcDbText
 10
-18.737804406843
 20
71.287532794446
 30
0.0
 40
1.35
  1
MANNEL
 41
0.905128629633
  7
Verdana
 72
     5
 11
-11.661644549665
 21
71.287532794446
 31
0.0
100
AcDbText
  0
HATCH
  5
117
330
1F
100
AcDbEntity
  8
Layer7
  6
AUSGEZOGEN
 62
   140
420
    49407
370
    18
100
AcDbHatch
 10
0.0
 20
0.0
 30
0.0
210
0.0
220
0.0
230
1.0
  2
SOLID
 70
     1
 71
     0
 91
        1
 92
        2
 72
     0
 73
     1
 93
       24
 10
-18.5515805009338
 20
85.87285727372344
 10
-18.5515805009338
 20
76.28164868669322
 10
-17.68495023887062
 20
76.28164868669322
 10
-17.16759899536538
 20
74.80836851125798
 10
-16.6221749919929
 20
76.28164868669322
 10
-15.81040158352189
 20
76.28164868669322
 10
-15.81040158352189
 20
73.72285727372343
 10
-15.20633105917537
 20
73.72285727372343
 10
-15.20633105917537
 20
76.28164868669322
 10
-14.36648489083712
 20
76.28164868669322
 10
-13.84913364733188
 20
74.80836851125798
 10
-13.3037096439594
 20
76.28164868669322
 10
-12.49193623548839
 20
76.28164868669322
 10
-12.49193623548839
 20
73.72285727372343
 10
-11.35440083249819
 20
73.72285727372343
 10
-11.35440083249819
 20
75.605183125477
 10
-12.17813336569799
 20
75.605183125477
 10
-12.17813336569799
 20
76.28164868669322
 10
-9.863837200993764
 20
76.28164868669322
 10
-9.863837200993764
 20
75.605183125477
 10
-10.6640345189593
 20
75.605183125477
 10
-10.6640345189593
 20
73.72285727372343
 10
-6.401580500933797
 20
73.72285727372343
 10
-6.401580500933797
 20
85.87285727372344
 97
        0
 75
     0
 76
     1
 98
        0
  0
HATCH
  5
118
330
1F
100
AcDbEntity
  8
Layer7
  6
AUSGEZOGEN
 62
   140
420
    49407
370
    18
100
AcDbHatch
 10
0.0
 20
0.0
 30
0.0
210
0.0
220
0.0
230
1.0
  2
SOLID
 70
     1
 71
     0
 91
        2
 92
        2
 72
     0
 73
     1
 93
        6
 10
-13.19014762077203
 20
75.06696288865035
 10
-13.60558579162089
 20
73.89750759429353
 10
-14.12211293417997
 20
73.89750759429353
 10
-14.531654889126
 20
75.06696288865035
 10
-14.531654889126
 20
73.72285727372343
 10
-13.19014762077203
 20
73.72285727372343
 97
        0
 92
        2
 72
     0
 73
     1
 93
        6
 10
-16.50861296880553
 20
73.72285727372343
 10
-16.50861296880553
 20
75.06696288865035
 10
-16.9240511396544
 20
73.89750759429353
 10
-17.44057828221347
 20
73.89750759429353
 10
-17.85012023715951
 20
75.06696288865035
 10
-17.85012023715951
 20
73.72285727372343
 97
        0
 75
     0
 76
     1
 98
        0
  0
WIPEOUT
  5
119
330
1F
100
AcDbEntity
  8
Layer5
  6
AUSGEZOGEN
 62
   140
420
    49407
370
    18
160
               152
310
98000000040000000C0000000E000000120000000C00000016000000000000C20C00000014000000010000006C0000000700000004000000D41F4D21380626C0D0C71E4D18BB514000000000000000007C4D98D70AF90E40D0C71E4D18BB514000000000000000007C4D98D70AF90E40DA9EC2BD5545524000000000000000
310
00D41F4D21380626C0DA9EC2BD554552400000000000000000
100
AcDbWipeout
 90
        0
 10
-11.012146988549
 20
70.923358230647
 30
0.0
 11
14.88374969959259
 21
0.0
 31
0.0
 12
0.0
 22
14.88374969959259
 32
0.0
 13
1.0
 23
1.0
340
0
 70
     7
280
     1
281
    50
282
    50
283
     0
360
0
 71
     2
 91
        5
 14
-0.5
 24
0.5
 14
0.5
 24
0.5
 14
0.5
 24
0.354875280518
 14
-0.5
 24
0.354875280518
 14
-0.5
 24
0.5
290
     0
  0
TEXT
  5
11A
330
1F
100
AcDbEntity
  8
Layer5
  6
AUSGEZOGEN
 62
   140
420
    49407
370
    18
100
AcDbText
 10
-11.012146988549
 20
71.328358230647
 30
0.0
 40
1.35
  1
MAGNETTECHNIK
 41
0.905172395523
  7
Verdana
 72
     5
 11
3.871602711044
 21
71.328358230647
 31
0.0
100
AcDbText
  0
HATCH
  5
11B
330
1F
100
AcDbEntity
  8
Layer7
  6
AUSGEZOGEN
 62
     8
420
  8421504
370
    18
100
AcDbHatch
 10
0.0
 20
0.0
 30
0.0
210
0.0
220
0.0
230
1.0
  2
SOLID
 70
     1
 71
     0
 91
        5
 92
        2
 72
     0
 73
     1
 93
        4
 10
-17.85012023715951
 20
73.04785727372342
 10
-17.85012023715951
 20
73.49785727372343
 10
-18.5515805009338
 20
73.49785727372343
 10
-18.5515805009338
 20
73.04785727372342
 97
        0
 92
        2
 72
     0
 73
     1
 93
        4
 10
-15.81040158352189
 20
73.04785727372342
 10
-15.81040158352189
 20
73.49785727372343
 10
-16.50861296880553
 20
73.49785727372343
 10
-16.50861296880553
 20
73.04785727372342
 97
        0
 92
        2
 72
     0
 73
     1
 93
        4
 10
-15.20633105917537
 20
73.49785727372343
 10
-15.20633105917537
 20
73.04785727372342
 10
-14.531654889126
 20
73.04785727372342
 10
-14.531654889126
 20
73.49785727372343
 97
        0
 92
        2
 72
     0
 73
     1
 93
        4
 10
-13.19014762077203
 20
73.49785727372343
 10
-13.19014762077203
 20
73.04785727372342
 10
-12.49193623548839
 20
73.04785727372342
 10
-12.49193623548839
 20
73.49785727372343
 97
        0
 92
        2
 72
     0
 73
     1
 93
        4
 10
-11.35440083249819
 20
73.49785727372343
 10
-11.35440083249819
 20
73.04785727372342
 10
-10.6640345189593
 20
73.04785727372342
 10
-10.6640345189593
 20
73.49785727372343
 97
        0
 75
     0
 76
     1
 98
        0
  0
TEXT
  5
11C
330
1F
100
AcDbEntity
  8
Layer0
  6
AUSGEZOGEN
 62
    18
420
        0
370
    18
100
AcDbText
 10
88.150859574456
 20
296.978510792961
 30
0.0
 40
3.0
  1
Epoxy
 41
0.90537120346
  7
Verdana
 72
     5
 11
99.528659488339
 21
296.978510792961
 31
0.0
100
AcDbText
  0
LINE
  5
11D
330
1F
100
AcDbEntity
  8
Layer0
  6
AUSGEZOGEN
 62
    18
420
        0
370
    18
100
AcDbLine
 10
76.901132333496
 20
282.210779153997
 30
0.0
 11
84.72522528116
 21
297.507345837305
 31
0.0
  0
LINE
  5
11E
330
1F
100
AcDbEntity
  8
Layer0
  6
AUSGEZOGEN
 62
    18
420
        0
370
    18
100
AcDbLine
 10
84.72522528116
 20
297.507345837305
 30
0.0
 11
87.90022528116
 21
297.507345837305
 31
0.0
  0
WIPEOUT
  5
11F
330
1F
100
AcDbEntity
  8
Layer5
  6
AUSGEZOGEN
 62
    18
420
        0
370
    18
160
               128
310
80000000020000000C00000014000000010000006C00000007000000040000002EDDFAA40CD5574018965903988F6C4000000000000000009443A108485C5D4018965903988F6C4000000000000000009443A108485C5D40B22FF39C31296D4000000000000000002EDDFAA40CD55740B22FF39C31296D4000000000000000
310
00
100
AcDbWipeout
 90
        0
 10
95.328896756157
 20
228.487306284879
 30
0.0
 11
22.11299983263015
 21
0.0
 31
0.0
 12
0.0
 22
22.11299983263015
 32
0.0
 13
1.0
 23
1.0
340
0
 70
     7
280
     1
281
    50
282
    50
283
     0
360
0
 71
     2
 91
        5
 14
-0.5
 24
0.5
 14
0.5
 24
0.5
 14
0.5
 24
0.282933114624
 14
-0.5
 24
0.282933114624
 14
-0.5
 24
0.5
290
     0
  0
TEXT
  5
120
330
1F
100
AcDbEntity
  8
Layer5
  6
AUSGEZOGEN
 62
    18
420
        0
370
    18
100
AcDbText
 10
95.328896756157
 20
229.387306284879
 30
0.0
 40
3.0
  1
200+10mm
 41
0.902313617849
  7
Verdana
 72
     5
 11
117.441896588787
 21
229.387306284879
 31
0.0
100
AcDbText
  0
HATCH
  5
121
330
1F
100
AcDbEntity
  8
Layer0
  6
AUSGEZOGEN
 62
    18
420
        0
370
    18
100
AcDbHatch
 10
0.0
 20
0.0
 30
0.0
210
0.0
220
0.0
230
1.0
  2
SOLID
 70
     1
 71
     0
 91
        1
 92
        2
 72
     0
 73
     1
 93
        3
 10
83.1830494797317
 20
228.0729425121979
 10
82.37443221464119
 20
228.1355196356165
 10
83.15963572164637
 20
228.3385793075473
 97
        0
 75
     0
 76
     1
 98
        0
  0
LINE
  5
122
330
1F
100
AcDbEntity
  8
Layer0
  6
AUSGEZOGEN
 62
    18
420
        0
370
    18
100
AcDbLine
 10
83.171342600689
 20
228.205760909873
 30
0.0
 11
95.205460847383
 21
229.266472145408
 31
0.0
  0
INSERT
  5
12A
330
1F
100
AcDbEntity
  8
0
100
AcDbBlockReference
  2
SW_NOTE_0_nNn04
 10
0.0
 20
0.0
 30
0.0
  0
LINE
  5
12B
330
1F
100
AcDbEntity
  8
Layer0
  6
DASHDOT2
 62
    18
420
        0
370
    18
100
AcDbLine
 10
71.462408369547
 20
204.526547808592
 30
0.0
 11
71.462408369547
 21
184.349131330273
 31
0.0
  0
LINE
  5
12C
330
1F
100
AcDbEntity
  8
Layer0
  6
AUSGEZOGEN
 62
    18
420
        0
370
    18
100
AcDbLine
 10
80.062408369547
 20
218.027382724504
 30
0.0
 11
82.062408369547
 21
218.027382724504
 31
0.0
  0
LINE
  5
12D
330
1F
100
AcDbEntity
  8
Layer0
  6
AUSGEZOGEN
 62
    18
420
        0
370
    18
100
AcDbLine
 10
80.062408369547
 20
218.027382724504
 30
0.0
 11
80.062408369547
 21
229.263023259723
 31
0.0
  0
LINE
  5
12E
330
1F
100
AcDbEntity
  8
Layer0
  6
AUSGEZOGEN
 62
    18
420
        0
370
    18
100
AcDbLine
 10
80.062408369547
 20
229.263023259723
 30
0.0
 11
82.062408369547
 21
229.263023259723
 31
0.0
  0
LINE
  5
12F
330
1F
100
AcDbEntity
  8
Layer0
  6
AUSGEZOGEN
 62
    18
420
        0
370
    18
100
AcDbLine
 10
82.062408369547
 20
218.027382724504
 30
0.0
 11
82.062408369547
 21
229.263023259723
 31
0.0
  0
LINE
  5
130
330
1F
100
AcDbEntity
  8
Layer0
  6
AUSGEZOGEN
 62
    18
420
        0
370
    18
100
AcDbLine
 10
83.862408369547
 20
218.027382724504
 30
0.0
 11
81.927375400776
 21
218.027382724504
 31
0.0
  0
LINE
  5
131
330
1F
100
AcDbEntity
  8
Layer0
  6
AUSGEZOGEN
 62
    18
420
        0
370
    18
100
AcDbLine
 10
83.862408369547
 20
218.027382724504
 30
0.0
 11
83.862408369547
 21
229.263023259723
 31
0.0
  0
LINE
  5
132
330
1F
100
AcDbEntity
  8
Layer0
  6
AUSGEZOGEN
 62
    18
420
        0
370
    18
100
AcDbLine
 10
83.862408369547
 20
229.263023259723
 30
0.0
 11
81.927375400776
 21
229.263023259723
 31
0.0
  0
LINE
  5
133
330
1F
100
AcDbEntity
  8
Layer0
  6
AUSGEZOGEN
 62
    18
420
        0
370
    18
100
AcDbLine
 10
81.927375400776
 20
218.027382724504
 30
0.0
 11
81.927375400776
 21
229.263023259723
 31
0.0
  0
LINE
  5
134
330
1F
100
AcDbEntity
  8
Layer0
  6
DASHDOT2
 62
    18
420
        0
370
    18
100
AcDbLine
 10
71.462408369547
 20
204.526547808592
 30
0.0
 11
71.462408369547
 21
222.332509158543
 31
0.0
  0
LINE
  5
135
330
1F
100
AcDbEntity
  8
Layer0
  6
AUSGEZOGEN
 62
    18
420
        0
370
    18
100
AcDbLine
 10
55.462408369547
 20
191.327382724504
 30
0.0
 11
55.762408369547
 21
191.027382724504
 31
0.0
  0
LINE
  5
136
330
1F
100
AcDbEntity
  8
Layer0
  6
AUSGEZOGEN
 62
    18
420
        0
370
    18
100
AcDbLine
 10
87.162408369547
 20
191.027382724504
 30
0.0
 11
87.462408369547
 21
191.327382724504
 31
0.0
  0
LINE
  5
137
330
1F
100
AcDbEntity
  8
Layer0
  6
AUSGEZOGEN
 62
    18
420
        0
370
    18
100
AcDbLine
 10
55.462408369547
 20
219.027382724504
 30
0.0
 11
55.462408369547
 21
191.327382724504
 31
0.0
  0
LINE
  5
138
330
1F
100
AcDbEntity
  8
Layer0
  6
AUSGEZOGEN
 62
    18
420
        0
370
    18
100
AcDbLine
 10
87.462408369547
 20
191.327382724504
 30
0.0
 11
87.462408369547
 21
217.027382724504
 31
0.0
  0
LINE
  5
139
330
1F
100
AcDbEntity
  8
Layer0
  6
AUSGEZOGEN
 62
    18
420
        0
370
    18
100
AcDbLine
 10
56.462408369547
 20
220.027382724504
 30
0.0
 11
55.462408369547
 21
219.027382724504
 31
0.0
  0
LINE
  5
13A
330
1F
100
AcDbEntity
  8
Layer0
  6
AUSGEZOGEN
 62
    18
420
        0
370
    18
100
AcDbLine
 10
71.462407571503
 20
196.865574695687
 30
0.0
 11
73.262108353206
 21
197.946944512944
 31
0.0
  0
LINE
  5
13B
330
1F
100
AcDbEntity
  8
Layer0
  6
AUSGEZOGEN
 62
    18
420
        0
370
    18
100
AcDbLine
 10
69.600207594462
 20
197.984499164443
 30
0.0
 11
71.462407571503
 21
196.865574695687
 31
0.0
  0
LINE
  5
13C
330
1F
100
AcDbEntity
  8
Layer0
  6
AUSGEZOGEN
 62
    18
420
        0
370
    18
100
AcDbLine
 10
73.306790877612
 20
198.127382724504
 30
0.0
 11
69.560558740026
 21
198.127382724504
 31
0.0
  0
LINE
  5
13D
330
1F
100
AcDbEntity
  8
Layer0
  6
AUSGEZOGEN
 62
    18
420
        0
370
    18
100
AcDbLine
 10
73.562407729455
 20
199.202240683656
 30
0.0
 11
73.562408369547
 21
210.527382724504
 31
0.0
  0
LINE
  5
13E
330
1F
100
AcDbEntity
  8
Layer0
  6
AUSGEZOGEN
 62
    18
420
        0
370
    18
100
AcDbLine
 10
69.362408369547
 20
210.527382724504
 30
0.0
 11
69.362409276195
 21
198.90704309247
 31
0.0
  0
LINE
  5
13F
330
1F
100
AcDbEntity
  8
Layer0
  6
AUSGEZOGEN
 62
    18
420
        0
370
    18
100
AcDbLine
 10
73.562408369547
 20
210.527382724504
 30
0.0
 11
69.362408369547
 21
210.527382724504
 31
0.0
  0
LINE
  5
140
330
1F
100
AcDbEntity
  8
Layer0
  6
AUSGEZOGEN
 62
    18
420
        0
370
    18
100
AcDbLine
 10
67.098924753495
 20
210.527383029978
 30
0.0
 11
69.362408369547
 21
210.527382724504
 31
0.0
  0
LINE
  5
141
330
1F
100
AcDbEntity
  8
Layer0
  6
AUSGEZOGEN
 62
    18
420
        0
370
    18
100
AcDbLine
 10
73.562408369547
 20
210.527382724504
 30
0.0
 11
75.626537067123
 21
210.527383029978
 31
0.0
  0
LINE
  5
142
330
1F
100
AcDbEntity
  8
Layer0
  6
AUSGEZOGEN
 62
    18
420
        0
370
    18
100
AcDbLine
 10
68.462408942409
 20
210.527383029978
 30
0.0
 11
68.462408369547
 21
214.527382724504
 31
0.0
  0
LINE
  5
143
330
1F
100
AcDbEntity
  8
Layer0
  6
AUSGEZOGEN
 62
    18
420
        0
370
    18
100
AcDbLine
 10
74.462408369547
 20
214.527382724504
 30
0.0
 11
74.462408063241
 21
210.527383029978
 31
0.0
  0
LINE
  5
144
330
1F
100
AcDbEntity
  8
Layer0
  6
AUSGEZOGEN
 62
    18
420
        0
370
    18
100
AcDbLine
 10
74.462408369547
 20
214.527382724504
 30
0.0
 11
68.462408369547
 21
214.527382724504
 31
0.0
  0
LINE
  5
145
330
1F
100
AcDbEntity
  8
Layer0
  6
AUSGEZOGEN
 62
    18
420
        0
370
    18
100
AcDbLine
 10
68.462408369547
 20
214.527382724504
 30
0.0
 11
66.455773872562
 21
214.527382754307
 31
0.0
  0
LINE
  5
146
330
1F
100
AcDbEntity
  8
Layer0
  6
AUSGEZOGEN
 62
    18
420
        0
370
    18
100
AcDbLine
 10
68.462408942409
 20
210.527383029978
 30
0.0
 11
67.098924753495
 21
210.527383029978
 31
0.0
  0
LINE
  5
147
330
1F
100
AcDbEntity
  8
Layer0
  6
AUSGEZOGEN
 62
    18
420
        0
370
    18
100
AcDbLine
 10
76.222941142746
 20
214.527382754307
 30
0.0
 11
74.462408369547
 21
214.527382724504
 31
0.0
  0
LINE
  5
148
330
1F
100
AcDbEntity
  8
Layer0
  6
AUSGEZOGEN
 62
    18
420
        0
370
    18
100
AcDbLine
 10
75.626537067123
 20
210.527383029978
 30
0.0
 11
74.462408063241
 21
210.527383029978
 31
0.0
  0
LINE
  5
149
330
1F
100
AcDbEntity
  8
Layer0
  6
AUSGEZOGEN
 62
    18
420
        0
370
    18
100
AcDbLine
 10
55.462408369547
 20
191.327382724504
 30
0.0
 11
87.462408369547
 21
191.327382724504
 31
0.0
  0
LINE
  5
14A
330
1F
100
AcDbEntity
  8
Layer0
  6
AUSGEZOGEN
 62
    18
420
        0
370
    18
100
AcDbLine
 10
87.162408369547
 20
191.027382724504
 30
0.0
 11
55.762408369547
 21
191.027382724504
 31
0.0
  0
LINE
  5
14B
330
1F
100
AcDbEntity
  8
Layer0
  6
AUSGEZOGEN
 62
    18
420
        0
370
    18
100
AcDbLine
 10
87.265888998826
 20
217.027382724504
 30
0.0
 11
87.265888998826
 21
219.027382724504
 31
0.0
  0
LINE
  5
14C
330
1F
100
AcDbEntity
  8
Layer0
  6
AUSGEZOGEN
 62
    18
420
        0
370
    18
100
AcDbLine
 10
87.265888998826
 20
217.027382724504
 30
0.0
 11
87.462408369547
 21
217.027382724504
 31
0.0
  0
LINE
  5
14D
330
1F
100
AcDbEntity
  8
Layer0
  6
AUSGEZOGEN
 62
    18
420
        0
370
    18
100
AcDbLine
 10
65.754741983726
 20
219.027382724504
 30
0.0
 11
55.462408369547
 21
219.027382724504
 31
0.0
  0
LINE
  5
14E
330
1F
100
AcDbEntity
  8
Layer0
  6
AUSGEZOGEN
 62
    18
420
        0
370
    18
100
AcDbLine
 10
87.265888998826
 20
219.027382724504
 30
0.0
 11
76.871404808055
 21
219.027382724504
 31
0.0
  0
LWPOLYLINE
  5
14F
330
1F
100
AcDbEntity
  8
Layer0
  6
AUSGEZOGEN
 62
    18
420
        0
370
    18
100
AcDbPolyline
 90
       14
 70
     0
 43
0.0
 10
76.871404287644
 20
219.027382677007
 10
76.115446028538
 20
213.752583839517
 10
75.315883246489
 20
208.482785389345
 10
74.413785574265
 20
203.229452722292
 10
74.032734942861
 20
201.266587950807
 10
73.605498162337
 20
199.31331952713
 10
73.288133231231
 20
198.00512050889
 10
72.910472613998
 20
196.713269927125
 10
72.413502124377
 20
195.46791283093
 10
72.174919632502
 20
195.017786004167
 10
71.859080207773
 20
194.624544360261
 10
71.702714872785
 20
194.507944636564
 10
71.517022189923
 20
194.441977195959
 10
71.462407571503
 20
194.437840261083
  0
LWPOLYLINE
  5
150
330
1F
100
AcDbEntity
  8
Layer0
  6
AUSGEZOGEN
 62
    18
420
        0
370
    18
100
AcDbPolyline
 90
       14
 70
     0
 43
0.0
 10
71.462407571503
 20
194.437840261083
 10
71.369277176686
 20
194.44691879354
 10
71.230957147904
 20
194.497266091924
 10
71.01578251762
 20
194.660353713255
 10
70.77426449699
 20
194.958462618809
 10
70.5788674329
 20
195.290825568657
 10
70.122068611213
 20
196.310787700634
 10
69.769266856142
 20
197.376209550123
 10
69.470478085109
 20
198.458203353505
 10
68.692471695371
 20
201.689434476714
 10
68.042149630614
 20
204.95027606986
 10
67.472930860945
 20
208.227982052188
 10
66.938232493826
 20
211.50980634294
 10
65.754741293617
 20
219.027382677007
  0
LINE
  5
151
330
1F
100
AcDbEntity
  8
Layer0
  6
AUSGEZOGEN
 62
    18
420
        0
370
    18
100
AcDbLine
 10
77.014279419983
 20
220.027382724504
 30
0.0
 11
86.252607827296
 21
220.027382724504
 31
0.0
  0
LWPOLYLINE
  5
152
330
1F
100
AcDbEntity
  8
Layer0
  6
AUSGEZOGEN
 62
    18
420
        0
370
    18
100
AcDbPolyline
 90
        3
 70
     0
 43
0.0
 10
86.252608199843
 20
220.027382724504
 10
86.743501809665
 20
219.543138146685
 10
87.26588902367
 20
219.027382677007
  0
LINE
  5
153
330
1F
100
AcDbEntity
  8
Layer0
  6
AUSGEZOGEN
 62
    18
420
        0
370
    18
100
AcDbLine
 10
76.871404808055
 20
219.027382724504
 30
0.0
 11
77.014279419983
 21
220.027382724504
 31
0.0
  0
LINE
  5
154
330
1F
100
AcDbEntity
  8
Layer0
  6
AUSGEZOGEN
 62
    18
420
        0
370
    18
100
AcDbLine
 10
56.462408369547
 20
220.027382724504
 30
0.0
 11
65.600186238977
 21
220.027382724504
 31
0.0
  0
LINE
  5
155
330
1F
100
AcDbEntity
  8
Layer0
  6
AUSGEZOGEN
 62
    18
420
        0
370
    18
100
AcDbLine
 10
65.600186238977
 20
220.027382724504
 30
0.0
 11
65.754741983726
 21
219.027382724504
 31
0.0
  0
LINE
  5
156
330
1F
100
AcDbEntity
  8
Layer0
  6
AUSGEZOGEN
 62
    18
420
        0
370
    18
100
AcDbLine
 10
74.462408369547
 20
214.527382724504
 30
0.0
 11
74.462408369547
 21
220.027382724504
 31
0.0
  0
LINE
  5
157
330
1F
100
AcDbEntity
  8
Layer0
  6
AUSGEZOGEN
 62
    18
420
        0
370
    18
100
AcDbLine
 10
76.222941142746
 20
214.527382754307
 30
0.0
 11
74.462408369547
 21
214.527382724504
 31
0.0
  0
LINE
  5
158
330
1F
100
AcDbEntity
  8
Layer0
  6
AUSGEZOGEN
 62
    18
420
        0
370
    18
100
AcDbLine
 10
77.014279419983
 20
220.027382724504
 30
0.0
 11
74.462408369547
 21
220.027382724504
 31
0.0
  0
LINE
  5
159
330
1F
100
AcDbEntity
  8
Layer0
  6
AUSGEZOGEN
 62
    18
420
        0
370
    18
100
AcDbLine
 10
68.462408369547
 20
220.027382724504
 30
0.0
 11
68.462408369547
 21
214.527382724504
 31
0.0
  0
LINE
  5
15A
330
1F
100
AcDbEntity
  8
Layer0
  6
AUSGEZOGEN
 62
    18
420
        0
370
    18
100
AcDbLine
 10
68.462408369547
 20
214.527382724504
 30
0.0
 11
66.455773872562
 21
214.527382754307
 31
0.0
  0
LINE
  5
15B
330
1F
100
AcDbEntity
  8
Layer0
  6
AUSGEZOGEN
 62
    18
420
        0
370
    18
100
AcDbLine
 10
68.462408369547
 20
220.027382724504
 30
0.0
 11
65.600186238977
 21
220.027382724504
 31
0.0
  0
LINE
  5
15C
330
1F
100
AcDbEntity
  8
Layer0
  6
AUSGEZOGEN
 62
    18
420
        0
370
    18
100
AcDbLine
 10
74.462408369547
 20
214.527382724504
 30
0.0
 11
68.462408369547
 21
214.527382724504
 31
0.0
  0
LINE
  5
15D
330
1F
100
AcDbEntity
  8
Layer0
  6
AUSGEZOGEN
 62
    18
420
        0
370
    18
100
AcDbLine
 10
74.462408369547
 20
220.027382724504
 30
0.0
 11
68.462408369547
 21
220.027382724504
 31
0.0
  0
DIMENSION
  5
167
330
1F
100
AcDbEntity
  8
Layer0
  6
AUSGEZOGEN
 62
    18
420
        0
370
    18
100
AcDbDimension
280
     0
  2
*D6
 10
106.358917369562
 20
220.027382724504
 30
0.0
 11
104.258917369562
 21
205.527382724504
 31
0.0
 70
   160
 71
     5
 42
-1.0
 73
     0
 74
     0
 75
     0
 53
90.0
  3
ISO-25
100
AcDbAlignedDimension
 13
87.162408369547
 23
191.027382724504
 33
0.0
 14
86.252607827296
 24
220.027382724504
 34
0.0
 50
90.0
100
AcDbRotatedDimension
1001
ACAD
1000
DSTYLE
1002
{
1070
     3
1000
<>
1070
    44
1040
0.571428571429
1070
   280
1070
     0
1070
    77
1070
     1
1070
   179
1070
     2
1070
   271
1070
     2
1070
   173
1070
     1
1070
    41
1040
0.8
1070
   147
1040
0.428571428571
1070
   140
1040
3.0
1070
   178
1070
    18
1070
   177
1070
    18
1070
   176
1070
    18
1002
}
  0
DIMENSION
  5
171
330
1F
100
AcDbEntity
  8
Layer0
  6
AUSGEZOGEN
 62
    18
420
        0
370
    18
100
AcDbDimension
280
     0
  2
*D7
 10
38.75248018942
 20
220.027382724504
 30
0.0
 11
36.65248018942
 21
210.277382724504
 31
0.0
 70
   160
  1
19.5
 71
     5
 42
-1.0
 73
     0
 74
     0
 75
     0
 53
90.0
  3
ISO-25
100
AcDbAlignedDimension
 13
68.962408369547
 23
200.527382724504
 33
0.0
 14
56.462408369547
 24
220.027382724504
 34
0.0
 50
90.0
100
AcDbRotatedDimension
1001
ACAD
1000
DSTYLE
1002
{
1070
    44
1040
0.571428571429
1070
   280
1070
     0
1070
    77
1070
     1
1070
    78
1070
     8
1070
   179
1070
     2
1070
   271
1070
     2
1070
   173
1070
     1
1070
    41
1040
0.8
1070
   147
1040
0.428571428571
1070
   140
1040
3.0
1070
   178
1070
    18
1070
   177
1070
    18
1070
   176
1070
    18
1002
}
  0
DIMENSION
  5
17B
330
1F
100
AcDbEntity
  8
Layer0
  6
AUSGEZOGEN
 62
    18
420
        0
370
    18
100
AcDbDimension
280
     0
  2
*D8
 10
46.729949530411
 20
220.027382724504
 30
0.0
 11
44.629949530411
 21
215.277382724481
 31
0.0
 70
   160
  1
9.5
 71
     5
 42
-1.0
 73
     0
 74
     0
 75
     0
 53
90.0
  3
ISO-25
100
AcDbAlignedDimension
 13
67.098925206791
 23
210.527382724458
 33
0.0
 14
65.600186238977
 24
220.027382724504
 34
0.0
 50
90.0
100
AcDbRotatedDimension
1001
ACAD
1000
DSTYLE
1002
{
1070
    44
1040
0.571428571429
1070
   280
1070
     0
1070
    77
1070
     1
1070
    78
1070
     8
1070
   179
1070
     2
1070
   271
1070
     2
1070
   173
1070
     1
1070
    41
1040
0.8
1070
   147
1040
0.428571428571
1070
   140
1040
3.0
1070
   178
1070
    18
1070
   177
1070
    18
1070
   176
1070
    18
1002
}
  0
LINE
  5
17C
330
1F
100
AcDbEntity
  8
Layer0
  6
AUSGEZOGEN
 62
    18
420
        0
370
    18
100
AcDbLine
 10
73.962408912607
 20
200.929341145377
 30
0.0
 11
73.962408912607
 21
210.527383029978
 31
0.0
  0
LINE
  5
17D
330
1F
100
AcDbEntity
  8
Layer0
  6
AUSGEZOGEN
 62
    18
420
        0
370
    18
100
AcDbLine
 10
68.962408093043
 20
210.527383029978
 30
0.0
 11
68.962408093043
 21
200.586655416112
 31
0.0
  0
LINE
  5
17E
330
1F
100
AcDbEntity
  8
Layer0
  6
AUSGEZOGEN
 62
    18
420
        0
370
    18
100
AcDbLine
 10
69.362409276195
 20
200.527382322173
 30
0.0
 11
73.562407729455
 21
200.527382322173
 31
0.0
  0
LINE
  5
17F
330
1F
100
AcDbEntity
  8
Layer0
  6
AUSGEZOGEN
 62
    18
420
        0
370
    18
100
AcDbLine
 10
73.562407729455
 20
200.527382322173
 30
0.0
 11
73.877394062706
 21
200.527382322173
 31
0.0
  0
LINE
  5
180
330
1F
100
AcDbEntity
  8
Layer0
  6
AUSGEZOGEN
 62
    18
420
        0
370
    18
100
AcDbLine
 10
68.965153631993
 20
200.527382322173
 30
0.0
 11
69.362409276195
 21
200.527382322173
 31
0.0
  0
HATCH
  5
181
330
1F
100
AcDbEntity
  8
Layer0
  6
AUSGEZOGEN
 62
    18
420
        0
370
    18
100
AcDbHatch
 10
0.0
 20
0.0
 30
0.0
210
0.0
220
0.0
230
1.0
  2
ANSI31
 70
     0
 71
     0
 91
        1
 92
        2
 72
     0
 73
     1
 93
      102
 10
67.09892520678375
 20
210.5273827245043
 10
67.11821805371295
 20
210.4102207614249
 10
67.1375095677788
 20
210.2930524860925
 10
67.15680185656424
 20
210.175878464437
 10
67.17609702765199
 20
210.0586992623883
 10
67.19539718862492
 20
209.941515445876
 10
67.21470444706591
 20
209.8243275808301
 10
67.23402091055766
 20
209.7071362331803
 10
67.25334868668315
 20
209.5899419688564
 10
67.2726898830251
 20
209.4727453537881
 10
67.29204660716636
 20
209.3555469539054
 10
67.31142096668975
 20
209.2383473351379
 10
67.3308150691781
 20
209.1211470634155
 10
67.3502310222143
 20
209.003946704668
 10
67.36967093338109
 20
208.8867468248252
 10
67.3891369102613
 20
208.7695479898168
 10
67.40863106043787
 20
208.6523507655727
 10
67.4281554914935
 20
208.5351557180227
 10
67.44771231101106
 20
208.4179634130964
 10
67.46730362657343
 20
208.3007744167239
 10
67.48693154576335
 20
208.1835892948347
 10
67.50659817616369
 20
208.0664086133589
 10
67.52630562535728
 20
207.949232938226
 10
67.54605600092694
 20
207.832062835366
 10
67.56585141045551
 20
207.7148988707087
 10
67.5856939615258
 20
207.5977416101836
 10
67.60558576172065
 20
207.4805916197209
 10
67.62552891862288
 20
207.3634494652502
 10
67.64552553981531
 20
207.2463157127013
 10
67.66557773288082
 20
207.1291909280039
 10
67.68568760540214
 20
207.0120756770879
 10
67.70585726496216
 20
206.8949705258832
 10
67.72608881914374
 20
206.7778760403195
 10
67.74638437552963
 20
206.6607927863265
 10
67.7667460417027
 20
206.5437213298341
 10
67.78717592524578
 20
206.4266622367721
 10
67.80767613374167
 20
206.3096160730703
 10
67.82824877477324
 20
206.1925834046584
 10
67.8488959559233
 20
206.0755647974663
 10
67.86961978477467
 20
205.9585608174237
 10
67.89042236891015
 20
205.8415720304605
 10
67.91130581591261
 20
205.7245990025064
 10
67.93227223336487
 20
205.6076422994913
 10
67.95332372884974
 20
205.4907024873449
 10
67.97446240995006
 20
205.3737801319971
 10
67.99569038424866
 20
205.2568757993776
 10
68.01700975932837
 20
205.1399900554162
 10
68.03842264277199
 20
205.0231234660427
 10
68.05993114216241
 20
204.906276597187
 10
68.0815373650824
 20
204.7894500147788
 10
68.10324341911479
 20
204.6726442847479
 10
68.12505141184243
 20
204.555859973024
 10
68.14696345084809
 20
204.4390976455371
 10
68.16898164371469
 20
204.3223578682168
 10
68.19110809802504
 20
204.2056412069931
 10
68.21334492136188
 20
204.0889482277956
 10
68.23569422130811
 20
203.9722794965543
 10
68.2581581054466
 20
203.8556355791987
 10
68.28073868136005
 20
203.7390170416589
 10
68.30343805663142
 20
203.6224244498646
 10
68.32625833884345
 20
203.5058583697454
 10
68.34920163557899
 20
203.3893193672314
 10
68.37227005442088
 20
203.2728080082522
 10
68.39546570295192
 20
203.1563248587376
 10
68.418790688755
 20
203.0398704846175
 10
68.44224711941285
 20
202.9234454518216
 10
68.4658371025084
 20
202.8070503262798
 10
68.48956274562443
 20
202.6906856739218
 10
68.51342615634371
 20
202.5743520606775
 10
68.53742944224916
 20
202.4580500524765
 10
68.5615747109236
 20
202.3417802152487
 10
68.58586406994976
 20
202.225543114924
 10
68.6102996269106
 20
202.1093393174321
 10
68.63488348938881
 20
201.9931693887028
 10
68.65961776496738
 20
201.8770338946659
 10
68.684504561229
 20
201.7609334012511
 10
68.7095459857565
 20
201.6448684743884
 10
68.73474414613287
 20
201.5288396800075
 10
68.76010114994074
 20
201.4128475840381
 10
68.78561910476299
 20
201.2968927524101
 10
68.81130011818254
 20
201.1809757510533
 10
68.83714629778214
 20
201.0650971458974
 10
68.86315975114462
 20
200.9492575028723
 10
68.88934258585283
 20
200.8334573879078
 10
68.91569690948955
 20
200.7176973669336
 10
68.94222482963767
 20
200.6019780058796
 10
68.96892845388004
 20
200.4862998706755
 10
68.99580988979935
 20
200.3706635272511
 10
69.02287124497857
 20
200.2550695415363
 10
69.05011462700043
 20
200.1395184794609
 10
69.07754214344783
 20
200.0240109069545
 10
69.10515590190357
 20
199.9085473899471
 10
69.13295800995044
 20
199.7931284943683
 10
69.16095057517131
 20
199.6777547861481
 10
69.189135705149
 20
199.5624268312162
 10
69.21751550746637
 20
199.4471451955024
 10
69.24609208970617
 20
199.3319104449365
 10
69.27486755945131
 20
199.2167231454483
 10
69.30384402428456
 20
199.1015838629676
 10
69.33302359178876
 20
198.9864931634242
 10
69.36240836954676
 20
198.8714516127478
 10
69.36240836954673
 20
210.5273827245043
 97
        0
 75
     0
 76
     1
 52
90.0
 41
0.5
 77
     0
 78
     1
 53
135.0
 43
0.0
 44
0.0
 45
-1.122532015133644
 46
-1.122532015133644
 79
     0
 98
        0
  0
HATCH
  5
182
330
1F
100
AcDbEntity
  8
Layer0
  6
AUSGEZOGEN
 62
    18
420
        0
370
    18
100
AcDbHatch
 10
0.0
 20
0.0
 30
0.0
210
0.0
220
0.0
230
1.0
  2
ANSI31
 70
     0
 71
     0
 91
        1
 92
        2
 72
     0
 73
     1
 93
      102
 10
73.56240836954674
 20
210.5273827245044
 10
73.5624083695468
 20
199.1313613138875
 10
73.58920897881063
 20
199.2440308196408
 10
73.61582387385747
 20
199.3567418743822
 10
73.64225493071353
 20
199.4694940044154
 10
73.66850402540518
 20
199.5822867360447
 10
73.69457303395845
 20
199.6951195955737
 10
73.72046383239967
 20
199.8079921093065
 10
73.74617829675509
 20
199.920903803547
 10
73.77171830305087
 20
200.0338542045991
 10
73.79708572731329
 20
200.1468428387667
 10
73.82228244556856
 20
200.2598692323538
 10
73.84731033384293
 20
200.3729329116642
 10
73.87217126816259
 20
200.4860334030019
 10
73.89686712455378
 20
200.5991702326708
 10
73.92139977904276
 20
200.712342926975
 10
73.94577110765573
 20
200.8255510122181
 10
73.9699829864189
 20
200.9387940147043
 10
73.99403729135855
 20
201.0520714607373
 10
74.01793589850087
 20
201.1653828766212
 10
74.04168068387207
 20
201.2787277886598
 10
74.06527352349849
 20
201.3921057231571
 10
74.08871629340621
 20
201.505516206417
 10
74.11201086962154
 20
201.6189587647435
 10
74.13515912817073
 20
201.7324329244404
 10
74.15816294507994
 20
201.8459382118117
 10
74.18102419637546
 20
201.9594741531612
 10
74.20374475808342
 20
202.073040274793
 10
74.22632650623018
 20
202.186636103011
 10
74.2487713168419
 20
202.300261164119
 10
74.27108106594483
 20
202.4139149844209
 10
74.29325762956518
 20
202.5275970902208
 10
74.31530288372915
 20
202.6413070078225
 10
74.33721870446303
 20
202.75504426353
 10
74.359006967793
 20
202.8688083836472
 10
74.38066954974533
 20
202.9825988944779
 10
74.40220832634623
 20
203.0964153223262
 10
74.42362517362193
 20
203.210257193496
 10
74.44492196759865
 20
203.3241240342911
 10
74.46610058430264
 20
203.4380153710156
 10
74.48716289976011
 20
203.5519307299732
 10
74.50811078999726
 20
203.6658696374679
 10
74.52894613104036
 20
203.7798316198038
 10
74.54967079891563
 20
203.8938162032847
 10
74.5702866696493
 20
204.0078229142144
 10
74.59079561926762
 20
204.121851278897
 10
74.61119952379676
 20
204.2359008236363
 10
74.63150025926302
 20
204.3499710747364
 10
74.65169970169256
 20
204.464061558501
 10
74.67179972711168
 20
204.5781718012342
 10
74.69180221154653
 20
204.6923013292398
 10
74.71170903102342
 20
204.8064496688218
 10
74.73152206156848
 20
204.920616346284
 10
74.75124317920802
 20
205.0348008879306
 10
74.77087425996825
 20
205.1490028200652
 10
74.79041717987536
 20
205.263221668992
 10
74.80987381495567
 20
205.3774569610147
 10
74.82924604123534
 20
205.4917082224373
 10
74.84853573474061
 20
205.6059749795638
 10
74.86774477149766
 20
205.720256758698
 10
74.88687502753277
 20
205.8345530861439
 10
74.9059283788722
 20
205.9488634882054
 10
74.92490670154217
 20
206.0631874911864
 10
74.94381187156881
 20
206.177524621391
 10
74.96264576497845
 20
206.2918744051228
 10
74.98141025779734
 20
206.406236368686
 10
75.0001072260516
 20
206.5206100383844
 10
75.01873854576752
 20
206.6349949405219
 10
75.03730609297133
 20
206.7493906014026
 10
75.05581174368925
 20
206.8637965473302
 10
75.07425737394755
 20
206.9782123046087
 10
75.09264485977235
 20
207.092637399542
 10
75.11097607719
 20
207.2070713584341
 10
75.12925290222665
 20
207.321513707589
 10
75.14747721090862
 20
207.4359639733104
 10
75.16565087926199
 20
207.5504216819023
 10
75.18377578331314
 20
207.6648863596687
 10
75.20185379908821
 20
207.7793575329135
 10
75.21988680261344
 20
207.8938347279406
 10
75.23787666991507
 20
208.0083174710539
 10
75.25582527701937
 20
208.1228052885573
 10
75.27373449995247
 20
208.2372977067548
 10
75.29160621474068
 20
208.3517942519504
 10
75.30944229741021
 20
208.4662944504477
 10
75.3272446239873
 20
208.580797828551
 10
75.3450150704981
 20
208.6953039125641
 10
75.36275551296899
 20
208.8098122287908
 10
75.38046782742603
 20
208.9243223035351
 10
75.39815388989558
 20
209.038833663101
 10
75.41581557640379
 20
209.1533458337923
 10
75.43345476297691
 20
209.267858341913
 10
75.45107332564118
 20
209.382370713767
 10
75.46867314042282
 20
209.4968824756582
 10
75.48625608334808
 20
209.6113931538906
 10
75.50382403044318
 20
209.725902274768
 10
75.5213788577343
 20
209.8404093645944
 10
75.53892244124773
 20
209.9549139496738
 10
75.55645665700968
 20
210.06941555631
 10
75.57398338104633
 20
210.1839137108069
 10
75.59150448938402
 20
210.2984079394685
 10
75.60902185804886
 20
210.4128977685988
 10
75.62653736306714
 20
210.5273827245016
 97
        0
 75
     0
 76
     1
 52
90.0
 41
0.5
 77
     0
 78
     1
 53
135.0
 43
0.0
 44
0.0
 45
-1.122532015133644
 46
-1.122532015133644
 79
     0
 98
        0
  0
HATCH
  5
183
330
1F
100
AcDbEntity
  8
Layer0
  6
AUSGEZOGEN
 62
    18
420
        0
370
    18
100
AcDbHatch
 10
0.0
 20
0.0
 30
0.0
210
0.0
220
0.0
230
1.0
  2
ANSI31
 70
     0
 71
     0
 91
        1
 92
        2
 72
     0
 73
     1
 93
      582
 10
69.60020794104793
 20
197.9844983267677
 10
69.60403042821866
 20
197.9709149257551
 10
69.60785673397947
 20
197.9573316124415
 10
69.61168694514953
 20
197.9437484334158
 10
69.61552114854811
 20
197.9301654352666
 10
69.61935943099434
 20
197.9165826645823
 10
69.62320187930746
 20
197.9030001679517
 10
69.62704858030662
 20
197.8894179919635
 10
69.63089962081108
 20
197.8758361832062
 10
69.63475508763997
 20
197.8622547882684
 10
69.63861506761256
 20
197.8486738537389
 10
69.64247964754799
 20
197.8350934262062
 10
69.6463489142655
 20
197.8215135522588
 10
69.65022295458425
 20
197.8079342784856
 10
69.65410185532346
 20
197.7943556514751
 10
69.65798570330233
 20
197.7807777178159
 10
69.66187458534
 20
197.7672005240967
 10
69.66576858825576
 20
197.7536241169061
 10
69.66966779886877
 20
197.7400485428327
 10
69.67357230399818
 20
197.7264738484651
 10
69.67748219046325
 20
197.712900080392
 10
69.68139754508317
 20
197.699327285202
 10
69.68531845467712
 20
197.6857555094838
 10
69.68924500606428
 20
197.6721847998258
 10
69.69317728606387
 20
197.6586152028169
 10
69.69711538149511
 20
197.6450467650456
 10
69.70105937917717
 20
197.6314795331006
 10
69.70500936592924
 20
197.6179135535704
 10
69.70896542857054
 20
197.6043488730437
 10
69.71292765392025
 20
197.5907855381091
 10
69.71689612879754
 20
197.5772235953553
 10
69.72087094002168
 20
197.5636630913709
 10
69.72485217441181
 20
197.5501040727445
 10
69.72883991878717
 20
197.5365465860647
 10
69.73283425996692
 20
197.5229906779202
 10
69.73683528477028
 20
197.5094363948996
 10
69.74084308001645
 20
197.4958837835916
 10
69.7448577325246
 20
197.4823328905846
 10
69.74887932911392
 20
197.4687837624674
 10
69.75290795660365
 20
197.4552364458287
 10
69.75694370181299
 20
197.441690987257
 10
69.7609866515611
 20
197.428147433341
 10
69.76503689266718
 20
197.4146058306692
 10
69.76909451195047
 20
197.4010662258304
 10
69.77315959623013
 20
197.3875286654131
 10
69.77723223232536
 20
197.373993196006
 10
69.78131250705536
 20
197.3604598641977
 10
69.78540050723933
 20
197.3469287165769
 10
69.7894963196965
 20
197.3333997997321
 10
69.793600031246
 20
197.3198731602519
 10
69.7977117287071
 20
197.3063488447252
 10
69.80183149889893
 20
197.2928268997403
 10
69.80595942864073
 20
197.2793073718861
 10
69.81009560475172
 20
197.265790307751
 10
69.81424011405102
 20
197.2522757539238
 10
69.8183930433579
 20
197.2387637569931
 10
69.82255447949149
 20
197.2252543635474
 10
69.82672450927106
 20
197.2117476201754
 10
69.83090321951579
 20
197.1982435734658
 10
69.83509069704485
 20
197.1847422700071
 10
69.8392870286774
 20
197.1712437563881
 10
69.84349230123274
 20
197.1577480791973
 10
69.84770660153004
 20
197.1442552850233
 10
69.85193001638845
 20
197.1307654204549
 10
69.85616263262716
 20
197.1172785320805
 10
69.86040453706539
 20
197.1037946664889
 10
69.86465581652237
 20
197.0903138702687
 10
69.86891655781727
 20
197.0768361900084
 10
69.87318684776932
 20
197.0633616722968
 10
69.87746677319768
 20
197.0498903637224
 10
69.8817564209215
 20
197.0364223108739
 10
69.88605587776007
 20
197.02295756034
 10
69.89036523053255
 20
197.0094961587091
 10
69.89468456605815
 20
196.99603815257
 10
69.89901397115602
 20
196.9825835885114
 10
69.90335353264544
 20
196.9691325131217
 10
69.90770333734554
 20
196.9556849729898
 10
69.91206347207554
 20
196.942241014704
 10
69.91643402365463
 20
196.9288006848532
 10
69.92081507890202
 20
196.9153640300259
 10
69.9252067246369
 20
196.9019310968108
 10
69.92960904767847
 20
196.8885019317965
 10
69.93402213484592
 20
196.8750765815716
 10
69.93844607295841
 20
196.8616550927248
 10
69.94288094883524
 20
196.8482375118446
 10
69.94732684929556
 20
196.8348238855197
 10
69.9517838611585
 20
196.8214142603388
 10
69.95625207124334
 20
196.8080086828905
 10
69.96073156636925
 20
196.7946071997632
 10
69.96522243335545
 20
196.7812098575459
 10
69.96972475902112
 20
196.767816702827
 10
69.97423863018543
 20
196.7544277821952
 10
69.9787641336676
 20
196.741043142239
 10
69.9833013562868
 20
196.7276628295473
 10
69.98785038486233
 20
196.7142868907084
 10
69.99241130621326
 20
196.7009153723111
 10
69.99698420715885
 20
196.687548320944
 10
70.0015691745183
 20
196.6741857831959
 10
70.00616629511077
 20
196.6608278056551
 10
70.01077565575551
 20
196.6474744349105
 10
70.01539734327167
 20
196.6341257175506
 10
70.02003144447849
 20
196.6207817001641
 10
70.02467804619516
 20
196.6074424293396
 10
70.0293372352408
 20
196.5941079516656
 10
70.03400909843475
 20
196.5807783137309
 10
70.03869372259612
 20
196.567453562124
 10
70.04339119454409
 20
196.5541337434337
 10
70.04810160109787
 20
196.5408189042485
 10
70.0528250290767
 20
196.527509091157
 10
70.05756156529975
 20
196.5142043507479
 10
70.06231129658619
 20
196.5009047296099
 10
70.0670743097553
 20
196.4876102743314
 10
70.07185069162614
 20
196.4743210315013
 10
70.07664052901805
 20
196.461037047708
 10
70.08144390875009
 20
196.4477583695403
 10
70.08626091764162
 20
196.4344850435867
 10
70.09109164251174
 20
196.4212171164358
 10
70.09593617017967
 20
196.4079546346764
 10
70.10079458746455
 20
196.394697644897
 10
70.10566698118566
 20
196.3814461936863
 10
70.11055343816216
 20
196.3682003276329
 10
70.1154540452132
 20
196.3549600933254
 10
70.1203688891581
 20
196.3417255373525
 10
70.12529805681595
 20
196.3284967063027
 10
70.13024163500597
 20
196.3152736467648
 10
70.1351997105474
 20
196.3020564053272
 10
70.14017237025936
 20
196.2888450285787
 10
70.14515970096113
 20
196.2756395631079
 10
70.15016178947187
 20
196.2624400555035
 10
70.1551787226108
 20
196.2492465523539
 10
70.16021058719707
 20
196.236059100248
 10
70.16525747004991
 20
196.2228777457743
 10
70.17031945798851
 20
196.2097025355214
 10
70.17539663783211
 20
196.1965335160778
 10
70.18048909639984
 20
196.1833707340325
 10
70.18559692051087
 20
196.1702142359739
 10
70.19072019698456
 20
196.1570640684905
 10
70.19585901263991
 20
196.1439202781712
 10
70.20101345429623
 20
196.1307829116044
 10
70.20618360877273
 20
196.1176520153789
 10
70.21136956288854
 20
196.1045276360832
 10
70.21657140346292
 20
196.091409820306
 10
70.221789217315
 20
196.078298614636
 10
70.22702309126402
 20
196.0651940656617
 10
70.2322731121292
 20
196.0520962199717
 10
70.23753936672972
 20
196.0390051241547
 10
70.24282194188476
 20
196.0259208247994
 10
70.24812092441348
 20
196.0128433684943
 10
70.25343640113519
 20
195.9997728018281
 10
70.25876845886899
 20
195.9867091713894
 10
70.2641171844341
 20
195.9736525237668
 10
70.26948266464973
 20
195.9606029055491
 10
70.27486498633505
 20
195.9475603633246
 10
70.28026423630934
 20
195.9345249436822
 10
70.28568050139168
 20
195.9214966932106
 10
70.29111386840134
 20
195.9084756584981
 10
70.29656442415754
 20
195.8954618861336
 10
70.30203225547939
 20
195.8824554227055
 10
70.30751744918615
 20
195.8694563148027
 10
70.31302009209708
 20
195.8564646090136
 10
70.31854027103122
 20
195.843480351927
 10
70.32407807280788
 20
195.8305035901314
 10
70.32963358424621
 20
195.8175343702155
 10
70.33520689216544
 20
195.8045727387679
 10
70.34079808338478
 20
195.7916187423772
 10
70.34640724472337
 20
195.7786724276321
 10
70.35203446300045
 20
195.7657338411212
 10
70.35767982503523
 20
195.7528030294331
 10
70.36334341764683
 20
195.7398800391564
 10
70.36902532765453
 20
195.7269649168798
 10
70.37472564187749
 20
195.7140577091919
 10
70.38044444713495
 20
195.7011584626814
 10
70.38618183024604
 20
195.6882672239367
 10
70.39191398742577
 20
195.6754287205368
 10
70.39765378122252
 20
195.6625957383321
 10
70.40340853978893
 20
195.6497540407995
 10
70.40917911791735
 20
195.636904690425
 10
70.41496637040007
 20
195.6240487496948
 10
70.42077115202943
 20
195.611187281095
 10
70.42659431759779
 20
195.5983213471117
 10
70.43243672189749
 20
195.5854520102311
 10
70.43829921972076
 20
195.5725803329392
 10
70.44418266586007
 20
195.5597073777222
 10
70.45008791510759
 20
195.5468342070662
 10
70.45601582225578
 20
195.5339618834572
 10
70.46196724209693
 20
195.5210914693815
 10
70.46794302942334
 20
195.5082240273252
 10
70.4739440390274
 20
195.4953606197742
 10
70.47997112570135
 20
195.4825023092148
 10
70.4860251442376
 20
195.4696501581331
 10
70.49210694942843
 20
195.4568052290153
 10
70.49821739606617
 20
195.4439685843473
 10
70.50435733894318
 20
195.4311412866154
 10
70.51052763285179
 20
195.4183243983057
 10
70.51672913258426
 20
195.4055189819042
 10
70.52296269293302
 20
195.392726099897
 10
70.52922916869034
 20
195.3799468147704
 10
70.53552941464855
 20
195.3671821890104
 10
70.54186428559998
 20
195.3544332851032
 10
70.54823463633699
 20
195.3417011655348
 10
70.55464132165184
 20
195.3289868927913
 10
70.56108519633693
 20
195.316291529359
 10
70.56756711518457
 20
195.3036161377239
 10
70.57408793298708
 20
195.290961780372
 10
70.58064850453678
 20
195.2783295197897
 10
70.58724968462599
 20
195.2657204184628
 10
70.5938923280471
 20
195.2531355388777
 10
70.60057728959237
 20
195.2405759435203
 10
70.60730542405418
 20
195.2280426948768
 10
70.61407758622477
 20
195.2155368554333
 10
70.62089463089657
 20
195.203059487676
 10
70.62775741286188
 20
195.1906116540909
 10
70.63466678691299
 20
195.1781944171642
 10
70.64162360784229
 20
195.165808839382
 10
70.64862873044206
 20
195.1534559832305
 10
70.65568300950468
 20
195.1411369111956
 10
70.66278729982241
 20
195.1288526857635
 10
70.66994245618764
 20
195.1166043694205
 10
70.67714933339266
 20
195.1043930246525
 10
70.68440878622982
 20
195.0922197139456
 10
70.69172166949141
 20
195.0800854997861
 10
70.69908883796978
 20
195.06799144466
 10
70.70651114645733
 20
195.0559386110534
 10
70.7139894497463
 20
195.0439280614525
 10
70.72152460262902
 20
195.0319608583434
 10
70.72911745989785
 20
195.0200380642121
 10
70.7367688763452
 20
195.0081607415448
 10
70.74447970676317
 20
194.9963299528277
 10
70.7522508059443
 20
194.9845467605468
 10
70.76008302868087
 20
194.9728122271883
 10
70.76797722976517
 20
194.9611274152382
 10
70.77593426398954
 20
194.9494933871827
 10
70.78395498614634
 20
194.937911205508
 10
70.79204025102786
 20
194.9263819327
 10
70.80019091342643
 20
194.914906631245
 10
70.80840782813442
 20
194.9034863636291
 10
70.81669184994408
 20
194.8921221923383
 10
70.82504383364784
 20
194.8808151798588
 10
70.83346463403791
 20
194.8695663886767
 10
70.84195510590678
 20
194.8583768812781
 10
70.85051610404662
 20
194.8472477201492
 10
70.8591484832499
 20
194.8361799677761
 10
70.86785309830879
 20
194.8251746866448
 10
70.87663080401575
 20
194.8142329392415
 10
70.88548245516307
 20
194.8033557880522
 10
70.89440890654305
 20
194.7925442955633
 10
70.90341101294803
 20
194.7817995242607
 10
70.91248962917035
 20
194.7711225366305
 10
70.92164561000234
 20
194.7605143951589
 10
70.93087981023632
 20
194.749976162332
 10
70.94019308466466
 20
194.7395089006359
 10
70.94958628807962
 20
194.7291136725567
 10
70.95906027527354
 20
194.7187915405806
 10
70.96861590103885
 20
194.7085435671935
 10
70.97825402016775
 20
194.6983708148818
 10
70.98797548745262
 20
194.6882743461315
 10
70.99778115768575
 20
194.6782552234286
 10
71.00767188565956
 20
194.6683145092595
 10
71.01764852616634
 20
194.6584532661101
 10
71.02771193399838
 20
194.6486725564664
 10
71.03802925611603
 20
194.6388246310214
 10
71.04859352442327
 20
194.6289695167631
 10
71.05928689075748
 20
194.6192366789274
 10
71.07011050150857
 20
194.6096360091451
 10
71.08106550306641
 20
194.6001773990467
 10
71.09215304182098
 20
194.5908707402631
 10
71.10337426416214
 20
194.5817259244248
 10
71.11473031647995
 20
194.5727528431626
 10
71.1262223451642
 20
194.5639613881072
 10
71.13785149660481
 20
194.5553614508893
 10
71.14961891719179
 20
194.5469629231394
 10
71.161525753315
 20
194.5387756964883
 10
71.17357315136442
 20
194.5308096625667
 10
71.18576225772995
 20
194.5230747130053
 10
71.19805304621585
 20
194.5156075221055
 10
71.21047962412061
 20
194.5084091213714
 10
71.22308890401075
 20
194.5014639118463
 10
71.23587167225014
 20
194.4947885108579
 10
71.24881871520256
 20
194.4883995357337
 10
71.26192081923199
 20
194.482313603801
 10
71.27516877070218
 20
194.4765473323874
 10
71.28855335597706
 20
194.4711173388203
 10
71.30206536142043
 20
194.4660402404273
 10
71.3156955733962
 20
194.4613326545359
 10
71.32943477826822
 20
194.4570111984735
 10
71.34327376240032
 20
194.4530924895678
 10
71.35720331215637
 20
194.4495931451459
 10
71.37121421390023
 20
194.4465297825356
 10
71.38531150300099
 20
194.4439167878377
 10
71.39957527235941
 20
194.441762893604
 10
71.41393474532947
 20
194.440085470535
 10
71.42836589175357
 20
194.4388850521883
 10
71.44284468147418
 20
194.4381621721211
 10
71.45734708433378
 20
194.4379173638909
 10
71.47184907017478
 20
194.4381511610552
 10
71.4863266088397
 20
194.4388640971714
 10
71.50075567017097
 20
194.4400567057967
 10
71.51511222401103
 20
194.4417295204888
 10
71.5293722402024
 20
194.4438830748049
 10
71.54358109759954
 20
194.4465204055071
 10
71.5577196482362
 20
194.4496185105291
 10
71.57177215220065
 20
194.453159747289
 10
71.58572583462109
 20
194.4571270169746
 10
71.5995679206257
 20
194.4615032207733
 10
71.61328563534275
 20
194.4662712598726
 10
71.62686620390042
 20
194.4714140354603
 10
71.64029685142697
 20
194.4769144487238
 10
71.65356480305059
 20
194.4827554008507
 10
71.66665728389955
 20
194.4889197930285
 10
71.6795272460086
 20
194.4953673708713
 10
71.69223623847932
 20
194.5021025441508
 10
71.70480124422929
 20
194.5091214447508
 10
71.71722255466125
 20
194.5164125798686
 10
71.72950046117793
 20
194.5239644567013
 10
71.74163525518202
 20
194.5317655824463
 10
71.75362722807631
 20
194.5398044643006
 10
71.76547667126346
 20
194.5480696094615
 10
71.77718387614624
 20
194.5565495251261
 10
71.78874913412727
 20
194.5652327184918
 10
71.8001727366094
 20
194.5741076967556
 10
71.81145497499529
 20
194.5831629671148
 10
71.82259614068766
 20
194.5923870367667
 10
71.83359652508926
 20
194.6017684129082
 10
71.84445641960275
 20
194.6112956027369
 10
71.85517611563091
 20
194.6209571134496
 10
71.86575590457647
 20
194.6307414522439
 10
71.87618310607488
 20
194.6406243523927
 10
71.88642516492206
 20
194.6505468809394
 10
71.89656373221587
 20
194.6605727980641
 10
71.90660020887134
 20
194.6706999811416
 10
71.9165359958032
 20
194.6809263075469
 10
71.92637249392652
 20
194.6912496546548
 10
71.93611110415611
 20
194.7016678998402
 10
71.94575322740695
 20
194.712178920478
 10
71.95530026459386
 20
194.722780593943
 10
71.96475361663181
 20
194.7334707976102
 10
71.97411468443573
 20
194.7442474088544
 10
71.98338486892044
 20
194.7551083050505
 10
71.99256557100091
 20
194.7660513635733
 10
72.00165819159201
 20
194.7770744617977
 10
72.0106641316087
 20
194.7881754770987
 10
72.01958479196585
 20
194.7993522868511
 10
72.02842157357838
 20
194.8106027684297
 10
72.0371758773612
 20
194.8219247992095
 10
72.0458491042292
 20
194.8333162565653
 10
72.05444265509726
 20
194.844775017872
 10
72.06295793088037
 20
194.8562989605045
 10
72.0713963324934
 20
194.8678859618376
 10
72.07975926085123
 20
194.8795338992463
 10
72.08804811686878
 20
194.8912406501054
 10
72.09626430146096
 20
194.9030040917898
 10
72.10440921554269
 20
194.9148221016743
 10
72.11248426002885
 20
194.9266925571339
 10
72.1204908358344
 20
194.9386133355434
 10
72.12843034387419
 20
194.9505823142776
 10
72.13630418506315
 20
194.9625973707116
 10
72.14411376031617
 20
194.9746563822201
 10
72.15186047054823
 20
194.986757226178
 10
72.15954571667413
 20
194.9988977799603
 10
72.16717089960886
 20
195.0110759209417
 10
72.17473742026726
 20
195.0232895264972
 10
72.18224667956432
 20
195.0355364740015
 10
72.18970007841486
 20
195.0478146408298
 10
72.19709901773385
 20
195.0601219043567
 10
72.20444489843618
 20
195.0724561419572
 10
72.21173912143672
 20
195.0848152310061
 10
72.21898308765049
 20
195.0971970488783
 10
72.22617819799223
 20
195.1095994729488
 10
72.23332585337698
 20
195.1220203805923
 10
72.24042745471957
 20
195.1344576491837
 10
72.24748440293496
 20
195.146909156098
 10
72.25449809893803
 20
195.15937277871
 10
72.2614699436437
 20
195.1718463943946
 10
72.26840133796688
 20
195.1843278805266
 10
72.27527844931723
 20
195.1967870224777
 10
72.28210280261868
 20
195.2092193683991
 10
72.28889803798205
 20
195.2216662948397
 10
72.29566429180272
 20
195.2341277190781
 10
72.3024017004762
 20
195.2466035583929
 10
72.30911040039777
 20
195.2590937300625
 10
72.31579052796292
 20
195.2715981513656
 10
72.32244221956705
 20
195.2841167395804
 10
72.32906561160559
 20
195.2966494119857
 10
72.33566084047393
 20
195.3091960858598
 10
72.34222804256748
 20
195.3217566784815
 10
72.34876735428168
 20
195.3343311071292
 10
72.35527891201193
 20
195.3469192890813
 10
72.36176285215365
 20
195.3595211416166
 10
72.36821931110222
 20
195.3721365820133
 10
72.37464842525316
 20
195.3847655275501
 10
72.38105033100175
 20
195.3974078955056
 10
72.38742516474346
 20
195.4100636031581
 10
72.39377306287372
 20
195.4227325677864
 10
72.40009416178793
 20
195.4354147066688
 10
72.40638859788154
 20
195.448109937084
 10
72.41265650754991
 20
195.4608181763103
 10
72.41889802718845
 20
195.4735393416264
 10
72.42511329319262
 20
195.4862733503108
 10
72.4313024419578
 20
195.499020119642
 10
72.43746560987944
 20
195.5117795668986
 10
72.4436029333529
 20
195.524551609359
 10
72.44971454877364
 20
195.5373361643017
 10
72.45580059253706
 20
195.5501331490054
 10
72.46186120103857
 20
195.5629424807485
 10
72.46789651067363
 20
195.5757640768096
 10
72.47390665783757
 20
195.5885978544671
 10
72.47989177892589
 20
195.6014437309996
 10
72.48585201033393
 20
195.6143016236857
 10
72.49178748845713
 20
195.6271714498039
 10
72.49769834969089
 20
195.6400531266325
 10
72.5035847304307
 20
195.6529465714503
 10
72.50944676707189
 20
195.6658517015358
 10
72.5152845960099
 20
195.6787684341674
 10
72.52109835364016
 20
195.6916966866236
 10
72.52688817635806
 20
195.7046363761831
 10
72.53265420055905
 20
195.7175874201243
 10
72.53839656263852
 20
195.7305497357257
 10
72.54411539899183
 20
195.7435232402659
 10
72.54981084601451
 20
195.7565078510234
 10
72.5554830401019
 20
195.7695034852768
 10
72.56113211764944
 20
195.7825100603044
 10
72.56675821505249
 20
195.795527493385
 10
72.5723614687065
 20
195.808555701797
 10
72.57794201500695
 20
195.8215946028189
 10
72.58349999034917
 20
195.8346441137292
 10
72.58903553112859
 20
195.8477041518065
 10
72.59454877374066
 20
195.8607746343293
 10
72.60003985458076
 20
195.8738554785761
 10
72.60550891004425
 20
195.8869466018255
 10
72.61095607652666
 20
195.9000479213559
 10
72.61638149042335
 20
195.9131593544459
 10
72.62178528812973
 20
195.9262808183741
 10
72.62716760604124
 20
195.9394122304189
 10
72.63252858055324
 20
195.9525535078589
 10
72.6378683480612
 20
195.9657045679726
 10
72.64318704496051
 20
195.9788653280384
 10
72.64848480764658
 20
195.9920357053351
 10
72.65376177251483
 20
196.005215617141
 10
72.65901807596069
 20
196.0184049807347
 10
72.66425385437952
 20
196.0316037133947
 10
72.6694692441668
 20
196.0448117323996
 10
72.67466438171795
 20
196.0580289550278
 10
72.67983940342833
 20
196.0712552985579
 10
72.68499444569335
 20
196.0844906802684
 10
72.6901296449085
 20
196.0977350174379
 10
72.6952451374691
 20
196.1109882273449
 10
72.70034105977064
 20
196.1242502272678
 10
72.70541754820846
 20
196.1375209344853
 10
72.71047473917807
 20
196.1508002662758
 10
72.71551276907479
 20
196.1640881399178
 10
72.7205317742941
 20
196.17738447269
 10
72.72553189123141
 20
196.1906891818707
 10
72.73051325628211
 20
196.2040021847386
 10
72.73547600584158
 20
196.2173233985722
 10
72.74042027630531
 20
196.23065274065
 10
72.74534620406865
 20
196.2439901282505
 10
72.75025392552706
 20
196.2573354786522
 10
72.75514357707596
 20
196.2706887091337
 10
72.76001529511069
 20
196.2840497369734
 10
72.76486921602674
 20
196.29741847945
 10
72.76970547621949
 20
196.3107948538419
 10
72.77452421208437
 20
196.3241787774277
 10
72.77932556001679
 20
196.3375701674858
 10
72.78410965641217
 20
196.3509689412949
 10
72.78887663766596
 20
196.3643750161334
 10
72.79362664017344
 20
196.3777883092799
 10
72.79835980033016
 20
196.3912087380129
 10
72.8030762545315
 20
196.4046362196108
 10
72.80777613917286
 20
196.4180706713523
 10
72.81245959064967
 20
196.4315120105159
 10
72.81712674535731
 20
196.44496015438
 10
72.82177773969124
 20
196.4584150202233
 10
72.82641271004684
 20
196.4718765253242
 10
72.83103179281952
 20
196.4853445869612
 10
72.83563512440469
 20
196.4988191224129
 10
72.84022284119783
 20
196.5123000489579
 10
72.84479507959429
 20
196.5257872838746
 10
72.84935197598952
 20
196.5392807444415
 10
72.8538936667789
 20
196.5527803479372
 10
72.85842028835788
 20
196.5662860116402
 10
72.86293197712183
 20
196.579797652829
 10
72.86742886946621
 20
196.5933151887823
 10
72.8719111017864
 20
196.6068385367783
 10
72.87637881047783
 20
196.6203676140958
 10
72.8808321319359
 20
196.6339023380133
 10
72.88527120255605
 20
196.6474426258091
 10
72.88969615873367
 20
196.660988394762
 10
72.89410713686422
 20
196.6745395621503
 10
72.89850427334306
 20
196.6880960452526
 10
72.90288770456564
 20
196.7016577613476
 10
72.90725756692734
 20
196.7152246277136
 10
72.91161399682358
 20
196.7287965616293
 10
72.91595713064982
 20
196.742373480373
 10
72.92028710480139
 20
196.7559553012235
 10
72.9246040556738
 20
196.769541941459
 10
72.92890811966242
 20
196.7831333183583
 10
72.93319943316266
 20
196.7967293491998
 10
72.93747813256994
 20
196.810329951262
 10
72.94174435427965
 20
196.8239350418235
 10
72.94599823468724
 20
196.8375445381629
 10
72.95023991018812
 20
196.8511583575585
 10
72.9544695171777
 20
196.864776417289
 10
72.95868719205137
 20
196.8783986346329
 10
72.96289307120458
 20
196.8920249268687
 10
72.96708729103273
 20
196.9056552112749
 10
72.97126998793124
 20
196.91928940513
 10
72.9754412982955
 20
196.9329274257127
 10
72.97960135852094
 20
196.9465691903013
 10
72.98375030500296
 20
196.9602146161745
 10
72.98788827413702
 20
196.9738636206106
 10
72.99201540231849
 20
196.9875161208884
 10
72.99613182594283
 20
197.0011720342862
 10
73.0002376814054
 20
197.0148312780827
 10
73.00433310510164
 20
197.0284937695563
 10
73.00841823342694
 20
197.0421594259857
 10
73.01249320277674
 20
197.0558281646492
 10
73.01655814954648
 20
197.0694999028254
 10
73.02061321013153
 20
197.0831745577928
 10
73.02465852092735
 20
197.0968520468301
 10
73.02869421832929
 20
197.1105322872156
 10
73.03272043873278
 20
197.1242151962279
 10
73.03673731853326
 20
197.1379006911456
 10
73.04074499412616
 20
197.1515886892472
 10
73.04474360190684
 20
197.1652791078111
 10
73.04873327827076
 20
197.1789718641161
 10
73.05271415961334
 20
197.1926668754403
 10
73.05668638232996
 20
197.2063640590626
 10
73.06065008281604
 20
197.2200633322613
 10
73.064605397467
 20
197.2337646123152
 10
73.06855246267827
 20
197.2474678165024
 10
73.07249141484522
 20
197.2611728621019
 10
73.07642239036329
 20
197.2748796663919
 10
73.08034552562793
 20
197.288588146651
 10
73.08426095703453
 20
197.3022982201577
 10
73.08816882097847
 20
197.3160098041906
 10
73.09206925385524
 20
197.3297228160282
 10
73.09596239206019
 20
197.343437172949
 10
73.09984837198871
 20
197.3571527922315
 10
73.10372733003629
 20
197.3708695911543
 10
73.10759940259828
 20
197.384587486996
 10
73.11146472607015
 20
197.3983063970349
 10
73.11532343684729
 20
197.4120262385496
 10
73.11917567132511
 20
197.4257469288187
 10
73.123021565899
 20
197.4394683851208
 10
73.12686125696442
 20
197.4531905247341
 10
73.13069488091674
 20
197.4669132649375
 10
73.13452257415145
 20
197.4806365230093
 10
73.13834447306388
 20
197.4943602162281
 10
73.14216071404951
 20
197.5080842618724
 10
73.14597143350369
 20
197.5218085772208
 10
73.14977676782189
 20
197.5355330795516
 10
73.15357685339944
 20
197.5492576861436
 10
73.15737182663185
 20
197.5629823142752
 10
73.16116182391448
 20
197.576706881225
 10
73.16494698164283
 20
197.5904313042713
 10
73.16872743621221
 20
197.6041555006929
 10
73.17250332401807
 20
197.6178793877682
 10
73.17627478145582
 20
197.6316028827757
 10
73.1800419449209
 20
197.645325902994
 10
73.18380495080868
 20
197.6590483657015
 10
73.18756393551462
 20
197.6727701881769
 10
73.19131903543408
 20
197.6864912876985
 10
73.19507038696256
 20
197.7002115815451
 10
73.19881812649538
 20
197.713930986995
 10
73.20256239042803
 20
197.7276494213268
 10
73.20630331515588
 20
197.7413668018191
 10
73.21004103707435
 20
197.7550830457504
 10
73.21377569257885
 20
197.768798070399
 10
73.2175074180648
 20
197.7825117930438
 10
73.22123634992761
 20
197.796224130963
 10
73.22496262456275
 20
197.8099350014353
 10
73.22868637836555
 20
197.8236443217391
 10
73.23240774773146
 20
197.8373520091531
 10
73.23612686905591
 20
197.8510579809557
 10
73.23984387873429
 20
197.8647621544254
 10
73.24355891316202
 20
197.8784644468409
 10
73.24727210873456
 20
197.8921647754805
 10
73.25098360184722
 20
197.9058630576228
 10
73.25469352889553
 20
197.9195592105465
 10
73.25840202627484
 20
197.9332531515298
 10
73.26210923038053
 20
197.9469447978515
 10
71.46240836954678
 20
196.8655754245465
 97
        0
 75
     0
 76
     1
 52
90.0
 41
0.5
 77
     0
 78
     1
 53
135.0
 43
0.0
 44
0.0
 45
-1.122532015133644
 46
-1.122532015133644
 79
     0
 98
        0
  0
HATCH
  5
184
330
1F
100
AcDbEntity
  8
Layer0
  6
AUSGEZOGEN
 62
    18
420
        0
370
    18
100
AcDbHatch
 10
0.0
 20
0.0
 30
0.0
210
0.0
220
0.0
230
1.0
  2
ANSI31
 70
     0
 71
     0
 91
        1
 92
        2
 72
     0
 73
     1
 93
      103
 10
68.46240836954672
 20
214.5273827245043
 10
66.45577471088464
 20
214.5273827245043
 10
66.46208604491574
 20
214.4873635837332
 10
66.46839920430253
 20
214.4473447233169
 10
66.47471420748394
 20
214.4073261465105
 10
66.48103107289896
 20
214.3673078565689
 10
66.48734981898659
 20
214.327289856747
 10
66.49367046418575
 20
214.2872721502997
 10
66.49999302693544
 20
214.2472547404819
 10
66.50631752567469
 20
214.2072376305486
 10
66.51264397884239
 20
214.1672208237546
 10
66.51897240487762
 20
214.127204323355
 10
66.5253028222192
 20
214.0871881326045
 10
66.53163524930625
 20
214.0471722547581
 10
66.53796970457768
 20
214.0071566930708
 10
66.54430620647241
 20
213.9671414507975
 10
66.55064477342955
 20
213.927126531193
 10
66.55698542388797
 20
213.8871119375123
 10
66.56332817628669
 20
213.8470976730103
 10
66.56967304906468
 20
213.8070837409419
 10
66.57602006066091
 20
213.7670701445621
 10
66.58236922951431
 20
213.7270568871257
 10
66.58872057406393
 20
213.6870439718877
 10
66.5950741127487
 20
213.647031402103
 10
66.60142986400763
 20
213.6070191810266
 10
66.60778784627968
 20
213.5670073119132
 10
66.61414807800378
 20
213.5269957980179
 10
66.62051057761897
 20
213.4869846425955
 10
66.62687536356418
 20
213.446973848901
 10
66.63324245427842
 20
213.4069634201894
 10
66.63961186820063
 20
213.3669533597154
 10
66.64598362376981
 20
213.3269436707341
 10
66.65235773942493
 20
213.2869343565003
 10
66.65873423360495
 20
213.246925420269
 10
66.66511312474887
 20
213.2069168652951
 10
66.67149443129566
 20
213.1669086948334
 10
66.67787817168428
 20
213.1269009121391
 10
66.68426436435371
 20
213.0868935204668
 10
66.69065302774294
 20
213.0468865230716
 10
66.6970441802909
 20
213.0068799232083
 10
66.70343784043666
 20
212.966873724132
 10
66.70983402661909
 20
212.9268679290974
 10
66.71623275727717
 20
212.8868625413596
 10
66.72263405084999
 20
212.8468575641734
 10
66.72903792577637
 20
212.8068530007938
 10
66.7354444004954
 20
212.7668488544756
 10
66.74185349344606
 20
212.7268451284739
 10
66.74826522306722
 20
212.6868418260434
 10
66.75467960779793
 20
212.6468389504392
 10
66.76109666607715
 20
212.6068365049161
 10
66.76751641634388
 20
212.5668344927292
 10
66.7739388770371
 20
212.5268329171331
 10
66.78036406659572
 20
212.486831781383
 10
66.78679200345874
 20
212.4468310887337
 10
66.79322270606514
 20
212.40683084244
 10
66.79965619285394
 20
212.3668310457571
 10
66.80609248226409
 20
212.3268317019397
 10
66.8125315927345
 20
212.2868328142428
 10
66.81897354270421
 20
212.2468343859213
 10
66.82541835061221
 20
212.2068364202301
 10
66.83186603489744
 20
212.1668389204242
 10
66.83831661399887
 20
212.1268418897584
 10
66.8447701063555
 20
212.0868453314878
 10
66.85122653040628
 20
212.046849248867
 10
66.8576859045902
 20
212.0068536451512
 10
66.86414824734624
 20
211.9668585235952
 10
66.87061357711337
 20
211.9268638874539
 10
66.87708191233057
 20
211.8868697399823
 10
66.88355327143682
 20
211.8468760844353
 10
66.89002767287104
 20
211.8068829240678
 10
66.89650513507223
 20
211.7668902621346
 10
66.90298567647943
 20
211.7268981018909
 10
66.90946931553157
 20
211.6869064465913
 10
66.91595607066759
 20
211.6469152994909
 10
66.92244596032651
 20
211.6069246638446
 10
66.92893900294729
 20
211.5669345429073
 10
66.93543521696893
 20
211.5269449399339
 10
66.94193462083041
 20
211.4869558581794
 10
66.9484372329706
 20
211.4469673008985
 10
66.95494307182858
 20
211.4069792713464
 10
66.96145215584332
 20
211.3669917727778
 10
66.96796450345374
 20
211.3270048084478
 10
66.9744801330989
 20
211.2870183816111
 10
66.98099906321767
 20
211.2470324955228
 10
66.9875213122491
 20
211.2070471534377
 10
66.99404689863212
 20
211.1670623586109
 10
67.00057584080577
 20
211.127078114297
 10
67.00710815720896
 20
211.0870944237513
 10
67.01364386628069
 20
211.0471112902283
 10
67.02018298645993
 20
211.0071287169834
 10
67.02672553618567
 20
210.967146707271
 10
67.03327153389685
 20
210.9271652643465
 10
67.0398209980325
 20
210.8871843914644
 10
67.0463739470315
 20
210.8472040918799
 10
67.05293039933298
 20
210.8072243688478
 10
67.05949037337575
 20
210.7672452256231
 10
67.06605388759891
 20
210.7272666654607
 10
67.07262096044133
 20
210.6872886916154
 10
67.07919161034206
 20
210.6473113073422
 10
67.08576585574008
 20
210.607334515896
 10
67.09234371507432
 20
210.5673583205317
 10
67.09892520678375
 20
210.5273827245043
 10
68.46240836954672
 20
210.5273827245043
 97
        0
 75
     0
 76
     1
 52
90.0
 41
0.5
 77
     0
 78
     1
 53
135.0
 43
0.0
 44
0.0
 45
-1.122532015133644
 46
-1.122532015133644
 79
     0
 98
        0
  0
HATCH
  5
185
330
1F
100
AcDbEntity
  8
Layer0
  6
AUSGEZOGEN
 62
    18
420
        0
370
    18
100
AcDbHatch
 10
0.0
 20
0.0
 30
0.0
210
0.0
220
0.0
230
1.0
  2
ANSI31
 70
     0
 71
     0
 91
        1
 92
        2
 72
     0
 73
     1
 93
      103
 10
76.22294192765293
 20
214.5273827245044
 10
74.46240836954672
 20
214.5273827245044
 10
74.46240836954672
 20
210.5273827245044
 10
75.6265373630676
 20
210.5273827245044
 10
75.63265180713205
 20
210.56736001142
 10
75.63876260857614
 20
210.6073378567789
 10
75.64486978589795
 20
210.6473162575323
 10
75.6509733575954
 20
210.6872952106316
 10
75.65707334216654
 20
210.7272747130278
 10
75.66316975810946
 20
210.7672547616723
 10
75.66926262392201
 20
210.8072353535162
 10
75.67535195810234
 20
210.8472164855109
 10
75.68143777914838
 20
210.8871981546074
 10
75.68752010555824
 20
210.9271803577571
 10
75.69359895582983
 20
210.9671630919113
 10
75.69967434846126
 20
211.007146354021
 10
75.70574630195046
 20
211.0471301410376
 10
75.71181483479546
 20
211.0871144499123
 10
75.71787996549432
 20
211.1270992775963
 10
75.72394171254507
 20
211.1670846210409
 10
75.73000009444561
 20
211.2070704771972
 10
75.73605512969408
 20
211.2470568430165
 10
75.74210683678842
 20
211.28704371545
 10
75.74815523422666
 20
211.3270310914491
 10
75.7542003405068
 20
211.3670189679649
 10
75.76024217412689
 20
211.4070073419485
 10
75.76628075358491
 20
211.4469962103514
 10
75.7723160973789
 20
211.4869855701246
 10
75.77834822400689
 20
211.5269754182195
 10
75.78437715196685
 20
211.5669657515872
 10
75.79040289975677
 20
211.606956567179
 10
75.79642548587475
 20
211.6469478619461
 10
75.80244492881877
 20
211.6869396328397
 10
75.80846124708677
 20
211.7269318768112
 10
75.81447445917689
 20
211.7669245908117
 10
75.82048458358707
 20
211.8069177717924
 10
75.82649163881533
 20
211.8469114167045
 10
75.83249564335966
 20
211.8869055224994
 10
75.83849661571816
 20
211.9269000861282
 10
75.84449457438876
 20
211.9668951045422
 10
75.85048953786949
 20
212.0068905746926
 10
75.85648152465836
 20
212.0468864935305
 10
75.86247055325344
 20
212.0868828580074
 10
75.8684566421527
 20
212.1268796650744
 10
75.87443980985415
 20
212.1668769116826
 10
75.8804200748558
 20
212.2068745947834
 10
75.8863974556557
 20
212.246872711328
 10
75.89237197075181
 20
212.2868712582676
 10
75.89834363864219
 20
212.3268702325534
 10
75.90431247782482
 20
212.3668696311367
 10
75.91027850679774
 20
212.4068694509687
 10
75.916241744059
 20
212.4468696890007
 10
75.92220220810651
 20
212.4868703421838
 10
75.92815991743834
 20
212.5268714074694
 10
75.93411489055256
 20
212.5668728818085
 10
75.94006714594707
 20
212.6068747621525
 10
75.94601670212
 20
212.6468770454526
 10
75.9519635775693
 20
212.68687972866
 10
75.95790779079294
 20
212.726882808726
 10
75.96384936028906
 20
212.7668862826017
 10
75.96978830455555
 20
212.8068901472385
 10
75.97572464209054
 20
212.8468943995875
 10
75.98165839139187
 20
212.8868990366
 10
75.98758957095777
 20
212.9269040552271
 10
75.99351819928611
 20
212.9669094524203
 10
75.99944429487493
 20
213.0069152251307
 10
76.0053678762223
 20
213.0469213703093
 10
76.01128896182612
 20
213.0869278849076
 10
76.01720757018452
 20
213.1269347658768
 10
76.02312371979548
 20
213.1669420101681
 10
76.02903742915694
 20
213.2069496147327
 10
76.03494871676702
 20
213.2469575765219
 10
76.04085760112366
 20
213.2869658924867
 10
76.04676410072494
 20
213.3269745595787
 10
76.05266823406885
 20
213.3669835747489
 10
76.0585700196533
 20
213.4069929349486
 10
76.06446947597652
 20
213.447002637129
 10
76.07036662153632
 20
213.4870126782413
 10
76.0762614748308
 20
213.5270230552368
 10
76.082154054358
 20
213.5670337650667
 10
76.08804437861585
 20
213.6070448046822
 10
76.09393246610244
 20
213.6470561710346
 10
76.09981833531577
 20
213.687067861075
 10
76.10570200475382
 20
213.7270798717549
 10
76.11158349291469
 20
213.7670922000252
 10
76.11746281829627
 20
213.8071048428373
 10
76.12333999939665
 20
213.8471177971425
 10
76.12921505471382
 20
213.8871310598919
 10
76.13508800274582
 20
213.9271446280368
 10
76.14095886199067
 20
213.9671584985284
 10
76.14682765094634
 20
214.0071726683179
 10
76.15269438811083
 20
214.0471871343566
 10
76.15855909198223
 20
214.0872018935957
 10
76.16442178105854
 20
214.1272169429865
 10
76.17028247383769
 20
214.16723227948
 10
76.17614118881778
 20
214.2072479000277
 10
76.1819979444968
 20
214.2472638015807
 10
76.18785275937273
 20
214.2872799810903
 10
76.19370565194362
 20
214.3272964355077
 10
76.1995566407075
 20
214.3673131617841
 10
76.20540574416236
 20
214.4073301568707
 10
76.2112529808062
 20
214.4473474177188
 10
76.21709836913703
 20
214.4873649412797
 97
        0
 75
     0
 76
     1
 52
90.0
 41
0.5
 77
     0
 78
     1
 53
135.0
 43
0.0
 44
0.0
 45
-1.122532015133644
 46
-1.122532015133644
 79
     0
 98
        0
  0
HATCH
  5
186
330
1F
100
AcDbEntity
  8
Layer0
  6
AUSGEZOGEN
 62
    18
420
        0
370
    18
100
AcDbHatch
 10
0.0
 20
0.0
 30
0.0
210
0.0
220
0.0
230
1.0
  2
ANSI31
 70
     0
 71
     0
 91
        1
 92
        2
 72
     0
 73
     1
 93
      103
 10
68.46240836954672
 20
214.5273827245043
 10
68.46240836954667
 20
220.0273827245043
 10
65.6001862389773
 20
220.0273827245043
 10
65.60868627332107
 20
219.9723740635798
 10
65.61718629670145
 20
219.9173653974597
 10
65.6256863439935
 20
219.8623567316596
 10
65.63418645007232
 20
219.8073480716942
 10
65.64268664981307
 20
219.7523394230792
 10
65.65118697809083
 20
219.6973307913295
 10
65.65968746978075
 20
219.6423221819605
 10
65.66818815975796
 20
219.5873136004872
 10
65.67668908289755
 20
219.5323050524251
 10
65.68519027407461
 20
219.4772965432892
 10
65.69369176816434
 20
219.4222880785947
 10
65.7021936000418
 20
219.3672796638569
 10
65.71069580458209
 20
219.3122713045911
 10
65.71919841666039
 20
219.2572630063123
 10
65.72770147115176
 20
219.2022547745358
 10
65.73620500293134
 20
219.1472466147769
 10
65.74470904687428
 20
219.0922385325508
 10
65.75321363785562
 20
219.0372305333726
 10
65.76171881075055
 20
218.9822226227576
 10
65.77022460043418
 20
218.9272148062209
 10
65.77873104178155
 20
218.8722070892779
 10
65.78723816966789
 20
218.8171994774436
 10
65.79574601896826
 20
218.7621919762334
 10
65.80425462455779
 20
218.7071845911625
 10
65.81276402131158
 20
218.6521773277459
 10
65.82127424410476
 20
218.5971701914991
 10
65.82978532781243
 20
218.5421631879371
 10
65.83829730730974
 20
218.4871563225752
 10
65.84681021747178
 20
218.4321496009286
 10
65.85532409317369
 20
218.3771430285125
 10
65.86383896929061
 20
218.3221366108421
 10
65.87235488069757
 20
218.2671303534327
 10
65.88087186226977
 20
218.2121242617995
 10
65.8893899488823
 20
218.1571183414576
 10
65.89790917541029
 20
218.1021125979223
 10
65.90642957672878
 20
218.0471070367087
 10
65.91495118771306
 20
217.9921016633321
 10
65.92347404323809
 20
217.9370964833078
 10
65.93199817817901
 20
217.882091502151
 10
65.94052362741104
 20
217.8270867253767
 10
65.94905042580916
 20
217.7720821585004
 10
65.95757860824858
 20
217.717077807037
 10
65.96610820960439
 20
217.662073676502
 10
65.97463926475172
 20
217.6070697724104
 10
65.98317180856566
 20
217.5520661002776
 10
65.99170587592135
 20
217.4970626656187
 10
66.00024150169389
 20
217.4420594739489
 10
66.00877872075844
 20
217.3870565307834
 10
66.01731756799006
 20
217.3320538416375
 10
66.02585807826392
 20
217.2770514120264
 10
66.03440028645511
 20
217.2220492474653
 10
66.04294422743874
 20
217.1670473534693
 10
66.05148993608992
 20
217.1120457355538
 10
66.0600374472838
 20
217.0570443992339
 10
66.0685867958955
 20
217.0020433500248
 10
66.07713801680012
 20
216.9470425934418
 10
66.08569114487278
 20
216.892042135
 10
66.09424621498863
 20
216.8370419802147
 10
66.10280326202269
 20
216.782042134601
 10
66.11136232085022
 20
216.7270426036743
 10
66.11992342634619
 20
216.6720433929497
 10
66.12848661338583
 20
216.6170445079424
 10
66.1370519168442
 20
216.5620459541676
 10
66.14561937159644
 20
216.5070477371406
 10
66.15418901251763
 20
216.4520498623766
 10
66.16276087448296
 20
216.3970523353907
 10
66.17133499236752
 20
216.3420551616983
 10
66.17991140104638
 20
216.2870583468143
 10
66.18849013539472
 20
216.2320618962543
 10
66.19707123028763
 20
216.1770658155332
 10
66.2056547206002
 20
216.1220701101664
 10
66.2142406412076
 20
216.0670747856691
 10
66.22282902698493
 20
216.0120798475564
 10
66.23141991280727
 20
215.9570853013435
 10
66.24001333354983
 20
215.9020911525459
 10
66.24860932408762
 20
215.8470974066784
 10
66.25720791929581
 20
215.7921040692565
 10
66.26580915404952
 20
215.7371111457954
 10
66.27441306322385
 20
215.6821186418101
 10
66.28301968169393
 20
215.627126562816
 10
66.29162904433491
 20
215.5721349143283
 10
66.30024118602188
 20
215.5171437018622
 10
66.30885614162992
 20
215.4621529309328
 10
66.31747394603423
 20
215.4071626070555
 10
66.32609463410978
 20
215.3521727357454
 10
66.33471824073189
 20
215.2971833225177
 10
66.34334480077553
 20
215.2421943728876
 10
66.35197434911584
 20
215.1872058923704
 10
66.36060692062796
 20
215.1322178864813
 10
66.36924255018704
 20
215.0772303607355
 10
66.37788127266816
 20
215.0222433206481
 10
66.38652312294641
 20
214.9672567717345
 10
66.395168135897
 20
214.9122707195097
 10
66.40381634639493
 20
214.8572851694892
 10
66.41246778931543
 20
214.8023001271879
 10
66.42112249953351
 20
214.7473155981213
 10
66.42978051192438
 20
214.6923315878043
 10
66.43844186136312
 20
214.6373481017524
 10
66.44710658272481
 20
214.5823651454807
 10
66.45577471088464
 20
214.5273827245043
 97
        0
 75
     0
 76
     1
 52
90.0
 41
0.5
 77
     0
 78
     1
 53
135.0
 43
0.0
 44
0.0
 45
-1.122532015133644
 46
-1.122532015133644
 79
     0
 98
        0
  0
HATCH
  5
187
330
1F
100
AcDbEntity
  8
Layer0
  6
AUSGEZOGEN
 62
    18
420
        0
370
    18
100
AcDbHatch
 10
0.0
 20
0.0
 30
0.0
210
0.0
220
0.0
230
1.0
  2
ANSI31
 70
     0
 71
     0
 91
        1
 92
        2
 72
     0
 73
     1
 93
      103
 10
76.22294192765293
 20
214.5273827245044
 10
76.23096783792553
 20
214.5823664145013
 10
76.23899033248227
 20
214.6373506012878
 10
76.24700944629083
 20
214.6923352797426
 10
76.25502521431866
 20
214.7473204447444
 10
76.26303767153343
 20
214.8023060911721
 10
76.27104685290271
 20
214.8572922139043
 10
76.2790527933941
 20
214.9122788078198
 10
76.2870555279751
 20
214.9672658677972
 10
76.29505509161342
 20
215.0222533887154
 10
76.30305151927655
 20
215.0772413654531
 10
76.31104484593209
 20
215.132229792889
 10
76.31903510654766
 20
215.1872186659019
 10
76.3270223360908
 20
215.2422079793705
 10
76.33500656952916
 20
215.2971977281735
 10
76.34298784183028
 20
215.3521879071896
 10
76.35096618796172
 20
215.4071785112977
 10
76.35894164289112
 20
215.4621695353765
 10
76.36691424158602
 20
215.5171609743046
 10
76.37488401901405
 20
215.5721528229609
 10
76.38285101014276
 20
215.627145076224
 10
76.39081524993975
 20
215.6821377289726
 10
76.39877677337256
 20
215.7371307760856
 10
76.40673561540888
 20
215.7921242124418
 10
76.41469181101616
 20
215.8471180329197
 10
76.4226453951621
 20
215.9021122323981
 10
76.43059640281422
 20
215.957106805756
 10
76.43854486894014
 20
216.0121017478717
 10
76.44649082850742
 20
216.0670970536242
 10
76.45443431648363
 20
216.1220927178923
 10
76.46237536783642
 20
216.1770887355545
 10
76.4703140175333
 20
216.2320851014898
 10
76.4782503005419
 20
216.2870818105767
 10
76.48618425182977
 20
216.3420788576941
 10
76.49411590636453
 20
216.3970762377207
 10
76.50204529911377
 20
216.4520739455353
 10
76.50997246504505
 20
216.5070719760164
 10
76.51789743912593
 20
216.562070324043
 10
76.52582025632404
 20
216.6170689844937
 10
76.53374095160694
 20
216.6720679522473
 10
76.54165955994227
 20
216.7270672221825
 10
76.54957611629754
 20
216.782066789178
 10
76.55749065564038
 20
216.8370666481127
 10
76.56540321293835
 20
216.8920667938652
 10
76.57331382315903
 20
216.9470672213142
 10
76.58122252127004
 20
217.0020679253385
 10
76.58912934223892
 20
217.0570689008169
 10
76.59703432103328
 20
217.1120701426281
 10
76.6049374926207
 20
217.1670716456508
 10
76.6128388919688
 20
217.2220734047636
 10
76.62073855404515
 20
217.2770754148456
 10
76.6286365138173
 20
217.3320776707752
 10
76.63653280625283
 20
217.3870801674313
 10
76.64442746631937
 20
217.4420828996926
 10
76.65232052898446
 20
217.4970858624378
 10
76.6602120292157
 20
217.5520890505458
 10
76.66810200198069
 20
217.6070924588951
 10
76.67599048224702
 20
217.6620960823646
 10
76.68387750498226
 20
217.7170999158329
 10
76.691763105154
 20
217.7721039541789
 10
76.69964731772981
 20
217.8271081922813
 10
76.70753017767731
 20
217.8821126250188
 10
76.71541171996404
 20
217.9371172472701
 10
76.72329197955759
 20
217.992122053914
 10
76.73117099142559
 20
218.0471270398292
 10
76.73904879053555
 20
218.1021321998945
 10
76.74692541185516
 20
218.1571375289885
 10
76.75480089035193
 20
218.2121430219901
 10
76.76267526099343
 20
218.267148673778
 10
76.77054855874732
 20
218.3221544792308
 10
76.77842081858114
 20
218.3771604332274
 10
76.78629207546243
 20
218.4321665306465
 10
76.79416236435884
 20
218.4871727663668
 10
76.80203172023792
 20
218.5421791352671
 10
76.80990017806727
 20
218.597185632226
 10
76.81776777281448
 20
218.6521922521223
 10
76.82563453944715
 20
218.7071989898349
 10
76.8335005129328
 20
218.7622058402424
 10
76.84136572823905
 20
218.8172127982235
 10
76.84923022033354
 20
218.8722198586569
 10
76.85709402418382
 20
218.9272270164216
 10
76.86495717475742
 20
218.982234266396
 10
76.87281970702199
 20
219.037241603459
 10
76.88068165594507
 20
219.0922490224895
 10
76.88854305649426
 20
219.1472565183659
 10
76.89640394363718
 20
219.2022640859671
 10
76.90426435234139
 20
219.2572717201719
 10
76.91212431757444
 20
219.312279415859
 10
76.91998387430397
 20
219.3672871679071
 10
76.92784305749751
 20
219.422294971195
 10
76.9357019021227
 20
219.4773028206013
 10
76.94356044314708
 20
219.5323107110049
 10
76.9514187155383
 20
219.5873186372845
 10
76.95927675426387
 20
219.6423265943187
 10
76.9671345942914
 20
219.6973345769864
 10
76.9749922705885
 20
219.7523425801663
 10
76.9828498181227
 20
219.8073505987371
 10
76.99070727186162
 20
219.8623586275776
 10
76.99856466677284
 20
219.9173666615665
 10
77.006422037824
 20
219.9723746955825
 10
77.01427941998259
 20
220.0273827245044
 10
74.4624083695467
 20
220.0273827245044
 10
74.46240836954672
 20
214.5273827245044
 97
        0
 75
     0
 76
     1
 52
90.0
 41
0.5
 77
     0
 78
     1
 53
135.0
 43
0.0
 44
0.0
 45
-1.122532015133644
 46
-1.122532015133644
 79
     0
 98
        0
  0
CIRCLE
  5
188
330
1F
100
AcDbEntity
  8
Layer0
  6
AUSGEZOGEN
 62
    18
420
        0
370
    18
100
AcDbCircle
 10
71.462408369547
 20
273.883102359513
 30
0.0
 40
7.199999999999998
  0
CIRCLE
  5
189
330
1F
100
AcDbEntity
  8
Layer0
  6
AUSGEZOGEN
 62
    18
420
        0
370
    18
100
AcDbCircle
 10
71.462408369547
 20
273.883102359513
 30
0.0
 40
7.499999999999995
  0
CIRCLE
  5
18A
330
1F
100
AcDbEntity
  8
Layer0
  6
AUSGEZOGEN
 62
    18
420
        0
370
    18
100
AcDbCircle
 10
71.462408369547
 20
273.883102359513
 30
0.0
 40
14.3
  0
CIRCLE
  5
18B
330
1F
100
AcDbEntity
  8
Layer0
  6
AUSGEZOGEN
 62
    18
420
        0
370
    18
100
AcDbCircle
 10
71.462408369547
 20
273.883102359513
 30
0.0
 40
15.70000000000001
  0
CIRCLE
  5
18C
330
1F
100
AcDbEntity
  8
Layer0
  6
AUSGEZOGEN
 62
    18
420
        0
370
    18
100
AcDbCircle
 10
71.462408369547
 20
273.883102359513
 30
0.0
 40
15.99999999999999
  0
CIRCLE
  5
18D
330
1F
100
AcDbEntity
  8
Layer0
  6
AUSGEZOGEN
 62
    18
420
        0
370
    18
100
AcDbCircle
 10
71.462408369547
 20
273.883102359513
 30
0.0
 40
14.0
  0
INSERT
  5
193
330
1F
100
AcDbEntity
  8
0
100
AcDbBlockReference
  2
_Dot_nNn08
 10
0.0
 20
0.0
 30
0.0
  0
INSERT
  5
19F
330
1F
100
AcDbEntity
  8
0
100
AcDbBlockReference
  2
SW_CENTERMARKSYMBOL_0_nNn09
 10
0.0
 20
0.0
 30
0.0
  0
ARC
  5
1A0
330
1F
100
AcDbEntity
  8
Layer0
  6
AUSGEZOGEN
 62
    18
420
        0
370
    18
100
AcDbCircle
 10
82.962408369547
 20
139.685598784036
 30
0.0
 40
2.5
100
AcDbArc
 50
270.0
 51
90.0
  0
CIRCLE
  5
1A1
330
1F
100
AcDbEntity
  8
Layer0
  6
AUSGEZOGEN
 62
    18
420
        0
370
    18
100
AcDbCircle
 10
82.962408369547
 20
140.835598784036
 30
0.0
 40
0.9000000000000057
  0
CIRCLE
  5
1A2
330
1F
100
AcDbEntity
  8
Layer0
  6
AUSGEZOGEN
 62
    18
420
        0
370
    18
100
AcDbCircle
 10
82.962408369547
 20
138.535598784036
 30
0.0
 40
0.9000000000000057
  0
ARC
  5
1A3
330
1F
100
AcDbEntity
  8
Layer0
  6
AUSGEZOGEN
 62
    18
420
        0
370
    18
100
AcDbCircle
 10
83.926447757375
 20
138.738116784913
 30
0.0
 40
1.999999999999997
100
AcDbArc
 50
91.990470971105
 51
119.708690708563
  0
ARC
  5
1A4
330
1F
100
AcDbEntity
  8
Layer0
  6
AUSGEZOGEN
 62
    18
420
        0
370
    18
100
AcDbCircle
 10
71.462408369547
 20
139.685598784036
 30
0.0
 40
11.50000000000002
100
AcDbArc
 50
3.937228968013
 51
10.175507273497
  0
CIRCLE
  5
1A5
330
1F
100
AcDbEntity
  8
Layer0
  6
AUSGEZOGEN
 62
    18
420
        0
370
    18
100
AcDbCircle
 10
71.462408369547
 20
139.685598784036
 30
0.0
 40
2.100000000000002
  0
ARC
  5
1A6
330
1F
100
AcDbEntity
  8
Layer0
  6
AUSGEZOGEN
 62
    18
420
        0
370
    18
100
AcDbCircle
 10
83.926447757375
 20
138.738116784913
 30
0.0
 40
2.000000000000004
100
AcDbArc
 50
119.708690708563
 51
128.010048562607
  0
ARC
  5
1A7
330
1F
100
AcDbEntity
  8
Layer0
  6
AUSGEZOGEN
 62
    18
420
        0
370
    18
100
AcDbCircle
 10
71.462408369547
 20
139.685598784036
 30
0.0
 40
11.25000000000001
100
AcDbArc
 50
350.038014572949
 51
358.540799152053
  0
ARC
  5
1A8
330
1F
100
AcDbEntity
  8
Layer0
  6
AUSGEZOGEN
 62
    18
420
        0
370
    18
100
AcDbCircle
 10
71.462408369547
 20
139.685598784036
 30
0.0
 40
11.25
100
AcDbArc
 50
1.459200847949
 51
9.961985427052
  0
ARC
  5
1A9
330
1F
100
AcDbEntity
  8
Layer0
  6
AUSGEZOGEN
 62
    18
420
        0
370
    18
100
AcDbCircle
 10
71.462408369547
 20
139.685598784036
 30
0.0
 40
15.0
100
AcDbArc
 50
9.594068226861
 51
350.40593177314
  0
LINE
  5
1AA
330
1F
100
AcDbEntity
  8
Layer0
  6
AUSGEZOGEN
 62
    18
420
        0
370
    18
100
AcDbLine
 10
86.252607827296
 20
137.185598784036
 30
0.0
 11
87.265888998826
 21
137.185598784036
 31
0.0
  0
ARC
  5
1AB
330
1F
100
AcDbEntity
  8
Layer0
  6
AUSGEZOGEN
 62
    18
420
        0
370
    18
100
AcDbCircle
 10
71.462408369547
 20
139.685598784036
 30
0.0
 40
16.0
100
AcDbArc
 50
8.989299345164
 51
351.010700654838
  0
LINE
  5
1AC
330
1F
100
AcDbEntity
  8
Layer0
  6
AUSGEZOGEN
 62
    18
420
        0
370
    18
100
AcDbLine
 10
87.265888998826
 20
142.185598784036
 30
0.0
 11
86.252607827296
 21
142.185598784036
 31
0.0
  0
CIRCLE
  5
1AD
330
1F
100
AcDbEntity
  8
Layer0
  6
AUSGEZOGEN
 62
    18
420
        0
370
    18
100
AcDbCircle
 10
71.462408369547
 20
139.685598784036
 30
0.0
 40
3.0
  0
LINE
  5
1AE
330
1F
100
AcDbEntity
  8
Layer0
  6
AUSGEZOGEN
 62
    18
420
        0
370
    18
100
AcDbLine
 10
82.962408369547
 20
137.185598784036
 30
0.0
 11
86.252607827296
 21
137.185598784036
 31
0.0
  0
LINE
  5
1AF
330
1F
100
AcDbEntity
  8
Layer0
  6
AUSGEZOGEN
 62
    18
420
        0
370
    18
100
AcDbLine
 10
86.252607827296
 20
142.185598784036
 30
0.0
 11
82.962408369547
 21
142.185598784036
 31
0.0
  0
ARC
  5
1B0
330
1F
100
AcDbEntity
  8
Layer0
  6
AUSGEZOGEN
 62
    18
420
        0
370
    18
100
AcDbCircle
 10
82.962408369547
 20
139.685598784036
 30
0.0
 40
2.5
100
AcDbArc
 50
90.0
 51
270.0
  0
ARC
  5
1B1
330
1F
100
AcDbEntity
  8
Layer0
  6
AUSGEZOGEN
 62
    18
420
        0
370
    18
100
AcDbCircle
 10
71.462408369547
 20
139.685598784036
 30
0.0
 40
16.00000000000001
100
AcDbArc
 50
351.010700654838
 51
8.989299345164
  0
INSERT
  5
1BB
330
1F
100
AcDbEntity
  8
0
100
AcDbBlockReference
  2
AnonymMegaMac_nNn010
 10
0.0
 20
0.0
 30
0.0
  0
INSERT
  5
1C7
330
1F
100
AcDbEntity
  8
0
100
AcDbBlockReference
  2
SW_CENTERMARKSYMBOL_1_nNn011
 10
0.0
 20
0.0
 30
0.0
  0
INSERT
  5
1D3
330
1F
100
AcDbEntity
  8
0
100
AcDbBlockReference
  2
SW_CENTERMARKSYMBOL_2_nNn012
 10
0.0
 20
0.0
 30
0.0
  0
LINE
  5
1D4
330
1F
100
AcDbEntity
  8
Layer0
  6
AUSGEZOGEN
 62
    18
420
        0
370
    18
100
AcDbLine
 10
136.179269217535
 20
116.619464358767
 30
0.0
 11
136.013607390642
 21
116.575092063072
 31
0.0
  0
LINE
  5
1D5
330
1F
100
AcDbEntity
  8
Layer0
  6
AUSGEZOGEN
 62
    18
420
        0
370
    18
100
AcDbLine
 10
130.972788448546
 20
111.534273120976
 30
0.0
 11
130.928416152851
 21
111.368611294084
 31
0.0
  0
LINE
  5
1D6
330
1F
100
AcDbEntity
  8
Layer0
  6
AUSGEZOGEN
 62
    18
420
        0
370
    18
100
AcDbLine
 10
139.185454340391
 20
115.787047373686
 30
0.0
 11
138.781287258751
 21
116.191214455326
 31
0.0
  0
LINE
  5
1D7
330
1F
100
AcDbEntity
  8
Layer0
  6
AUSGEZOGEN
 62
    18
420
        0
370
    18
100
AcDbLine
 10
131.356666056292
 20
108.766593252867
 30
0.0
 11
131.760833137932
 21
108.362426171228
 31
0.0
  0
LINE
  5
1D8
330
1F
100
AcDbEntity
  8
Layer0
  6
AUSGEZOGEN
 62
    18
420
        0
370
    18
100
AcDbLine
 10
137.43760078555
 20
121.312099597393
 30
0.0
 11
137.271938958657
 21
121.267727301699
 31
0.0
  0
LINE
  5
1D9
330
1F
100
AcDbEntity
  8
Layer0
  6
AUSGEZOGEN
 62
    18
420
        0
370
    18
100
AcDbLine
 10
126.28015320992
 20
110.275941552961
 30
0.0
 11
126.235780914225
 21
110.110279726069
 31
0.0
  0
LINE
  5
1DA
330
1F
100
AcDbEntity
  8
Layer0
  6
AUSGEZOGEN
 62
    18
420
        0
370
    18
100
AcDbLine
 10
154.184000768238
 20
109.203071641959
 30
0.0
 11
142.988572606811
 21
120.398499803386
 31
0.0
  0
LINE
  5
1DB
330
1F
100
AcDbEntity
  8
Layer0
  6
AUSGEZOGEN
 62
    18
420
        0
370
    18
100
AcDbLine
 10
127.149380708232
 20
104.559307904807
 30
0.0
 11
138.34480886966
 21
93.36387974338
 31
0.0
  0
LINE
  5
1DC
330
1F
100
AcDbEntity
  8
Layer0
  6
AUSGEZOGEN
 62
    18
420
        0
370
    18
100
AcDbLine
 10
143.895780690921
 20
92.450279949373
 30
0.0
 11
144.447986780563
 21
92.598187601689
 31
0.0
  0
LINE
  5
1DD
330
1F
100
AcDbEntity
  8
Layer0
  6
AUSGEZOGEN
 62
    18
420
        0
370
    18
100
AcDbLine
 10
154.94969290993
 20
103.099893731056
 30
0.0
 11
155.097600562246
 21
103.652099820697
 31
0.0
  0
ARC
  5
1DE
330
1F
100
AcDbEntity
  8
Layer0
  6
AUSGEZOGEN
 62
    18
420
        0
370
    18
100
AcDbCircle
 10
139.2057466847
 20
115.161252690927
 30
0.0
 40
5.034089785275778
100
AcDbArc
 50
54.141702892335
 51
110.247110447581
  0
LWPOLYLINE
  5
1DF
330
1F
100
AcDbEntity
  8
Layer0
  6
AUSGEZOGEN
 62
    18
420
        0
370
    18
100
AcDbPolyline
 90
       31
 70
     0
 43
0.0
 10
128.306658040204
 20
105.393251571467
 10
128.170157907803
 20
105.561153267299
 10
127.922178919648
 20
105.937039574629
 10
127.720255775665
 20
106.351265191067
 10
127.565633399183
 20
106.801276277942
 10
127.459265088568
 20
107.284298367261
 10
127.401806639829
 20
107.797353467223
 10
127.393612303407
 20
108.337278422527
 10
127.434732600112
 20
108.90074441628
 10
127.52491400964
 20
109.484277493261
 10
127.663600533614
 20
110.084279978004
 10
127.849937123496
 20
110.697052655671
 10
128.082774952245
 20
111.318817578936
 10
128.360678497221
 20
111.945741360288
 10
128.681934390656
 20
112.573958806144
 10
129.04456198314
 20
113.199596747046
 10
129.446325554979
 20
113.818797917041
 10
129.884748100152
 20
114.427744735013
 10
130.357126597878
 20
115.022682841332
 10
130.860548677637
 20
115.599944244737
 10
131.391910574902
 20
116.155969936716
 10
131.947936266881
 20
116.687331833982
 10
132.525197670286
 20
117.190753913741
 10
133.120135776606
 20
117.663132411467
 10
133.729082594577
 20
118.10155495664
 10
134.348283764573
 20
118.503318528478
 10
134.973921705474
 20
118.865946120962
 10
135.60213915133
 20
119.187202014398
 10
136.229062932683
 20
119.465105559374
 10
136.850827855948
 20
119.697943388123
 10
137.463600533614
 20
119.884279978004
  0
LWPOLYLINE
  5
1E0
330
1F
100
AcDbEntity
  8
Layer0
  6
AUSGEZOGEN
 62
    18
420
        0
370
    18
100
AcDbPolyline
 90
       31
 70
     0
 43
0.0
 10
139.185454340391
 20
115.787047373686
 10
139.347137066321
 20
115.600872229821
 10
139.522795169904
 20
115.316684675191
 10
139.650974813093
 20
114.994488245541
 10
139.730173206767
 20
114.638060399424
 10
139.759461822172
 20
114.25157992745
 10
139.738497277073
 20
113.83957795979
 10
139.667525361591
 20
113.406884842819
 10
139.547378156546
 20
112.958573507717
 10
139.379464278065
 20
112.499899994994
 10
139.165752362849
 20
112.036241832217
 10
138.908747987704
 20
111.573034987418
 10
138.611464293948
 20
111.115710137338
 10
138.27738666108
 20
110.669628997709
 10
137.910431843897
 20
110.240021462036
 10
137.51490205212
 20
109.831924285882
 10
137.095434510921
 20
109.45012203551
 10
136.656947093697
 20
109.09909099322
 10
136.204580664504
 20
108.782946677034
 10
135.743638806119
 20
108.505395590003
 10
135.279525640391
 20
108.269691764857
 10
134.817682469844
 20
108.078598613439
 10
134.363523983386
 20
107.934356528232
 10
133.922374774029
 20
107.838656615803
 10
133.499406912907
 20
107.792620870125
 10
133.099579311468
 20
107.796789018227
 10
132.727579582773
 20
107.851112192381
 10
132.387769083518
 20
107.954953503041
 10
132.084131781116
 20
108.10709550578
 10
131.820227545319
 20
108.305754474722
 10
131.760833137932
 20
108.362426171228
  0
LINE
  5
1E1
330
1F
100
AcDbEntity
  8
Layer0
  6
AUSGEZOGEN
 62
    18
420
        0
370
    18
100
AcDbLine
 10
130.856400082396
 20
111.058641446703
 30
0.0
 11
130.928416152851
 21
111.368611294084
 31
0.0
  0
LWPOLYLINE
  5
1E2
330
1F
100
AcDbEntity
  8
Layer0
  6
AUSGEZOGEN
 62
    18
420
        0
370
    18
100
AcDbPolyline
 90
       44
 70
     0
 43
0.0
 10
136.179269217535
 20
116.619464358767
 10
136.532647191823
 20
116.699759854057
 10
136.959662947458
 20
116.755808708365
 10
137.364512135015
 20
116.761714763667
 10
137.742448267926
 20
116.717408776867
 10
138.089040390583
 20
116.623410195149
 10
138.400225027241
 20
116.48082106594
 10
138.672353822554
 20
116.291313116411
 10
138.902236315205
 20
116.057108154
 10
139.087177343153
 20
115.780952017755
 10
139.225008641938
 20
115.466082385884
 10
139.314114265602
 20
115.11619081693
 10
139.353449532177
 20
114.735379469632
 10
139.342553271628
 20
114.328113008857
 10
139.281553232647
 20
113.899166261491
 10
139.171164584918
 20
113.453568235956
 10
139.012681534407
 20
112.996543161688
 10
138.807962149977
 20
112.53344923982
 10
138.559406579236
 20
112.069715823176
 10
138.269928908993
 20
111.610779762071
 10
137.942923000261
 20
111.162021662211
 10
137.582222698333
 20
110.728702802014
 10
137.19205688446
 20
110.315903448929
 10
136.776999896077
 20
109.928463297944
 10
136.341917896883
 20
109.57092473059
 10
135.891911825518
 20
109.247479559669
 10
135.432257591725
 20
108.96191988408
 10
134.96834422113
 20
108.717593629931
 10
134.505610673842
 20
108.517365299161
 10
134.049482077623
 20
108.363582385879
 10
133.605306123219
 20
108.258047854137
 10
133.178290367584
 20
108.201998999829
 10
132.773441180028
 20
108.196092944526
 10
132.395505047117
 20
108.240398931327
 10
132.048912924459
 20
108.334397513045
 10
131.737728287801
 20
108.476986642253
 10
131.465599492489
 20
108.666494591783
 10
131.235716999838
 20
108.900699554194
 10
131.05077597189
 20
109.176855690438
 10
130.912944673105
 20
109.49172532231
 10
130.823839049441
 20
109.841616891263
 10
130.784503782866
 20
110.222428238561
 10
130.795400043415
 20
110.629694699337
 10
130.856400082396
 20
111.058641446703
  0
LWPOLYLINE
  5
1E3
330
1F
100
AcDbEntity
  8
Layer0
  6
AUSGEZOGEN
 62
    18
420
        0
370
    18
100
AcDbPolyline
 90
       57
 70
     1
 43
0.0
 10
130.903653020909
 20
111.236702067491
 10
130.844493764967
 20
110.817860812846
 10
130.835142196443
 20
110.420654182874
 10
130.875711830711
 20
110.049903727994
 10
130.965710207367
 20
109.710109856496
 10
131.104044868035
 20
109.405397205682
 10
131.289036617327
 20
109.139464574359
 10
131.518439906002
 20
108.91554002443
 10
131.789470088895
 20
108.736341696593
 10
132.098837226732
 20
108.604044815801
 10
132.44278602154
 20
108.520255286973
 10
132.817141400875
 20
108.485990201483
 10
133.217359197548
 20
108.501665491054
 10
133.638581309655
 20
108.567090878903
 10
134.075694671359
 20
108.681472189451
 10
134.523393318578
 20
108.843420988532
 10
134.976242796203
 20
109.050971437107
 10
135.428746125023
 20
109.301604153885
 10
135.875410527602
 20
109.592276797201
 10
136.310814103161
 20
109.919460994921
 10
136.729671642107
 20
110.2791851741
 10
137.126898781314
 20
110.667082770497
 10
137.497673721413
 20
111.078445232753
 10
137.837495756894
 20
111.508279177822
 10
138.142239908583
 20
111.95136700388
 10
138.408206995296
 20
112.40233022494
 10
138.632168536887
 20
112.855694758391
 10
138.811405943629
 20
113.30595737294
 10
138.943743516205
 20
113.747652490387
 10
139.027574855754
 20
114.175418530345
 10
139.061882363373
 20
114.584062992553
 10
139.046249592395
 20
114.968625486807
 10
138.980866303484
 20
115.324437945367
 10
138.866526161194
 20
115.647181286984
 10
138.704617099966
 20
115.932937844689
 10
138.497104476473
 20
116.178238920969
 10
138.246507212863
 20
116.38010689305
 10
137.955867220445
 20
116.53609135721
 10
137.628712475018
 20
116.644298873355
 10
137.269014192015
 20
116.703415948821
 10
136.881138621331
 20
116.712724982395
 10
136.469794046965
 20
116.672112975019
 10
136.039973634827
 20
116.582072901449
 10
135.59689482247
 20
116.443697726205
 10
135.145935986466
 20
116.258667136467
 10
134.692571156199
 20
116.029227152946
 10
134.242303566564
 20
115.758162866234
 10
133.800598856151
 20
115.448764629578
 10
133.372818721794
 20
115.104788118449
 10
132.96415583484
 20
114.73040874173
 10
132.579570809145
 20
114.330170957906
 10
132.22373198595
 20
113.908933111496
 10
131.900958766535
 20
113.471808459331
 10
131.615169180545
 20
113.024103102545
 10
131.369832326411
 20
112.571251577691
 10
131.167926261203
 20
112.118750888832
 10
131.011901851041
 20
111.672093781356
  0
LWPOLYLINE
  5
1E4
330
1F
100
AcDbEntity
  8
Layer0
  6
AUSGEZOGEN
 62
    18
420
        0
370
    18
100
AcDbPolyline
 90
       65
 70
     0
 43
0.0
 10
137.436165469842
 20
121.311715041776
 10
138.082026518551
 20
121.462417042706
 10
138.711431333759
 20
121.564054209828
 10
139.320942324625
 20
121.616071436178
 10
139.907230553479
 20
121.618184621705
 10
140.467093917321
 20
121.570382224922
 10
140.997474636604
 20
121.472925325944
 10
141.49547595576
 20
121.326346200558
 10
141.958377964276
 20
121.131445413117
 10
142.383652451904
 20
120.889287444135
 10
142.768976716864
 20
120.601194876468
 10
143.112246251641
 20
120.268741171815
 10
143.411586237072
 20
119.893742077028
 10
143.665361781959
 20
119.478245707121
 10
143.872186852279
 20
119.024521359187
 10
144.030931841219
 20
118.535047118274
 10
144.140729738696
 20
118.01249632295
 10
144.20098086667
 20
117.459722964454
 10
144.211356154373
 20
116.879746099183
 10
144.171798935581
 20
116.275733359657
 10
144.082525258107
 20
115.650983654004
 10
143.944022703819
 20
115.008909148471
 10
143.75704772564
 20
114.353016631355
 10
143.522621516063
 20
113.686888360137
 10
143.242024429752
 20
113.014162496443
 10
142.91678899069
 20
112.338513235657
 10
142.548691522062
 20
111.663630739745
 10
142.139742444597
 20
110.99320098287
 10
141.692175296343
 20
110.330885619878
 10
141.208434533862
 20
109.680301987609
 10
140.691162181449
 20
109.04500334826
 10
140.143183401318
 20
108.428459482695
 10
139.567491063544
 20
107.834037739708
 10
138.967229400041
 20
107.264984644729
 10
138.345676831861
 20
106.724408168433
 10
137.706228063596
 20
106.215260752077
 10
137.052375542674
 20
105.740323182291
 10
136.387690384829
 20
105.302189403385
 10
135.715802869897
 20
104.903252350129
 10
135.040382614494
 20
104.545690878367
 10
134.365118529838
 20
104.231457864866
 10
133.693698674198
 20
103.962269541378
 10
133.029790109995
 20
103.73959612118
 10
132.377018875583
 20
103.564653769275
 10
131.738950181082
 20
103.438397960124
 10
131.119068936436
 20
103.361518259177
 10
130.520760718048
 20
103.334434556698
 10
129.947293277928
 20
103.35729477448
 10
129.401798696374
 20
103.42997405794
 10
128.887256275627
 20
103.552075458035
 10
128.406476267961
 20
103.722932099259
 10
127.962084527058
 20
103.941610821885
 10
127.556508166502
 20
104.206917278563
 10
127.191962303735
 20
104.517402457427
 10
126.870437961842
 20
104.871370596097
 10
126.593691195286
 20
105.266888443346
 10
126.363233498936
 20
105.701795817847
 10
126.180323552814
 20
106.173717406333
 10
126.045960347617
 20
106.680075736737
 10
125.96087772858
 20
107.21810525545
 10
125.925540387463
 20
107.784867431812
 10
125.940141324569
 20
108.377266807356
 10
126.004600794643
 20
108.992067902117
 10
126.118566742412
 20
109.625912885712
 10
126.235780914225
 20
110.110279726069
  0
LWPOLYLINE
  5
1E5
330
1F
100
AcDbEntity
  8
Layer0
  6
AUSGEZOGEN
 62
    18
420
        0
370
    18
100
AcDbPolyline
 90
       84
 70
     1
 43
0.0
 10
137.270530555119
 20
121.267349956499
 10
136.616335157404
 20
121.069531356721
 10
135.952808223411
 20
120.824348563145
 10
135.283660464906
 20
120.53317273741
 10
134.612634027587
 20
120.197632252845
 10
133.943481563484
 20
119.819603587947
 10
133.279945244611
 20
119.401200832353
 10
132.625735835217
 20
118.944763863992
 10
131.984511939692
 20
118.45284526354
 10
131.359859542165
 20
117.92819603935
 10
130.755271952224
 20
117.373750242702
 10
130.174130268917
 20
116.792608559394
 10
129.619684472269
 20
116.188020969454
 10
129.095035248079
 20
115.563368571926
 10
128.603116647626
 20
114.922144676401
 10
128.146679679265
 20
114.267935267008
 10
127.728276923671
 20
113.604398948134
 10
127.350248258773
 20
112.935246484031
 10
127.014707774208
 20
112.264220046712
 10
126.723531948473
 20
111.595072288207
 10
126.478349154898
 20
110.931545354214
 10
126.280530555119
 20
110.277349956499
 10
126.13118243099
 20
109.636144621092
 10
126.031139997802
 20
109.011515228326
 10
125.980962733422
 20
108.406954959138
 10
125.980931249466
 20
107.825844759787
 10
126.031045722006
 20
107.271434434226
 10
126.131025890582
 20
106.746824469887
 10
126.280312625536
 20
106.254948698491
 10
126.47807105489
 20
105.798557888876
 10
126.72319523329
 20
105.380204363578
 10
127.014314326896
 20
105.00222772521
 10
127.34980027965
 20
104.666741772456
 10
127.727776918018
 20
104.375622678849
 10
128.146130443317
 20
104.13049850045
 10
128.602521252932
 20
103.932740071095
 10
129.094397024328
 20
103.783453336141
 10
129.619006988667
 20
103.683473167565
 10
130.173417314227
 20
103.633358695026
 10
130.754527513579
 20
103.633390178981
 10
131.359087782766
 20
103.683567443362
 10
131.983717175533
 20
103.78360987655
 10
132.624922510939
 20
103.932958000679
 10
133.279117908655
 20
104.130776600457
 10
133.942644842648
 20
104.375959394032
 10
134.611792601153
 20
104.667135219767
 10
135.282819038472
 20
105.002675704332
 10
135.951971502575
 20
105.380704369231
 10
136.615507821448
 20
105.799107124825
 10
137.269717230842
 20
106.255544093185
 10
137.910941126367
 20
106.747462693638
 10
138.535593523894
 20
107.272111917828
 10
139.140181113835
 20
107.826557714476
 10
139.721322797142
 20
108.407699397784
 10
140.27576859379
 20
109.012286987724
 10
140.80041781798
 20
109.636939385252
 10
141.292336418433
 20
110.278163280776
 10
141.748773386794
 20
110.93237269017
 10
142.167176142388
 20
111.595909009044
 10
142.545204807286
 20
112.265061473146
 10
142.880745291851
 20
112.936087910466
 10
143.171921117586
 20
113.60523566897
 10
143.417103911161
 20
114.268762602964
 10
143.614922510939
 20
114.922958000679
 10
143.764270635068
 20
115.564163336086
 10
143.864313068257
 20
116.188792728852
 10
143.914490332637
 20
116.79335299804
 10
143.914521816593
 20
117.374463197391
 10
143.864407344053
 20
117.928873522952
 10
143.764427175477
 20
118.453483487291
 10
143.615140440523
 20
118.945359258687
 10
143.417382011168
 20
119.401750068302
 10
143.172257832769
 20
119.8201035936
 10
142.881138739163
 20
120.198080231968
 10
142.545652786408
 20
120.533566184722
 10
142.167676148041
 20
120.824685278329
 10
141.749322622742
 20
121.069809456728
 10
141.292931813127
 20
121.267567886082
 10
140.801056041731
 20
121.416854621037
 10
140.276446077392
 20
121.516834789613
 10
139.722035751831
 20
121.566949262152
 10
139.14092555248
 20
121.566917778196
 10
138.536365283292
 20
121.516740513816
 10
137.911735890526
 20
121.416698080628
  0
LWPOLYLINE
  5
1E6
330
1F
100
AcDbEntity
  8
Layer0
  6
AUSGEZOGEN
 62
    18
420
        0
370
    18
100
AcDbPolyline
 90
       45
 70
     0
 43
0.0
 10
138.34480886966
 20
93.36387974338
 10
138.508486004307
 20
93.209771287197
 10
138.886226787855
 20
92.915529181866
 10
139.304021380468
 20
92.666714027525
 10
139.759601706645
 20
92.464676563427
 10
140.250494564014
 20
92.31051358745
 10
140.774035049574
 20
92.205062001927
 10
141.327381026614
 20
92.148894270366
 10
141.907528553778
 20
92.142315309723
 10
142.511328192523
 20
92.185360835107
 10
143.135502104423
 20
92.277797165895
 10
143.776661845533
 20
92.419122494304
 10
144.431326761178
 20
92.608569609555
 10
145.095942881336
 20
92.845110062815
 10
145.766902214027
 20
93.127459750325
 10
146.440562331961
 20
93.454085884393
 10
147.113266146135
 20
93.823215314417
 10
147.781361759018
 20
94.232844152766
 10
148.441222289558
 20
94.68074865325
 10
149.089265562371
 20
95.164497283142
 10
149.721973554256
 20
95.681463923206
 10
150.335911492427
 20
96.228842124072
 10
150.92774650082
 20
96.803660341565
 10
151.494265693229
 20
97.402798068287
 10
152.032393615055
 20
98.02300277387
 10
152.539208938979
 20
98.660907561939
 10
153.011960323935
 20
99.313049447938
 10
153.448081351273
 20
99.97588815858
 10
153.845204457037
 20
100.64582535088
 10
154.201173784729
 20
101.319224146429
 10
154.514056888775
 20
101.99242887486
 10
154.782155225163
 20
102.661784919338
 10
155.004013372307
 20
103.323658556321
 10
155.178426932071
 20
103.974456681906
 10
155.304449068069
 20
104.61064631766
 10
155.381395645742
 20
105.228773790048
 10
155.40884894631
 20
105.825483479341
 10
155.386659934434
 20
106.397536036225
 10
155.314949067283
 20
106.941825967202
 10
155.194105640614
 20
107.455398493344
 10
155.024785675398
 20
107.935465590859
 10
154.8079083565
 20
108.379421126392
 10
154.544651042703
 20
108.784855004905
 10
154.236442875204
 20
109.149566253328
 10
154.184000768238
 20
109.203071641959
  0
LWPOLYLINE
  5
1E7
330
1F
100
AcDbEntity
  8
Layer0
  6
AUSGEZOGEN
 62
    18
420
        0
370
    18
100
AcDbPolyline
 90
       80
 70
     1
 43
0.0
 10
137.063401534041
 20
120.494478977577
 10
137.676261214886
 20
120.636137355636
 10
138.272298572088
 20
120.72825122394
 10
138.847838837136
 20
120.77025266986
 10
139.399333612911
 20
120.761882740515
 10
139.923382750728
 20
120.703193039302
 10
140.41675531339
 20
120.594545407746
 10
140.876409494985
 20
120.436609694625
 10
141.299511374631
 20
120.230359626128
 10
141.683452388547
 20
119.977066802513
 10
142.025865412707
 20
119.678292858266
 10
142.324639356954
 20
119.335879834106
 10
142.577932180568
 20
118.951938820191
 10
142.784182249065
 20
118.528836940544
 10
142.942117962187
 20
118.06918275895
 10
143.050765593743
 20
117.575810196288
 10
143.109455294956
 20
117.05176105847
 10
143.117825224301
 20
116.500266282696
 10
143.075823778381
 20
115.924726017647
 10
142.983709910077
 20
115.328688660446
 10
142.842051532018
 20
114.715828979601
 10
142.65172201521
 20
114.089925458841
 10
142.413894804416
 20
113.454837001506
 10
142.130036183477
 20
112.814479139125
 10
141.801896235182
 20
112.172799890858
 10
141.431498051431
 20
111.533755422651
 10
141.021125260195
 20
110.901285656156
 10
140.573307946197
 20
110.279289977799
 10
140.090807052091
 20
109.671603197773
 10
139.576597356337
 20
109.081971907152
 10
139.033849132702
 20
108.514031378916
 10
138.465908604466
 20
107.971283155281
 10
137.876277313846
 20
107.457073459527
 10
137.268590533819
 20
106.974572565421
 10
136.646594855463
 20
106.526755251423
 10
136.014125088967
 20
106.116382460188
 10
135.375080620761
 20
105.745984276436
 10
134.733401372494
 20
105.417844328141
 10
134.093043510112
 20
105.133985707202
 10
133.457955052777
 20
104.896158496408
 10
132.832051532017
 20
104.705828979601
 10
132.219191851172
 20
104.564170601541
 10
131.623154493971
 20
104.472056733237
 10
131.047614228923
 20
104.430055287317
 10
130.496119453148
 20
104.438425216663
 10
129.97207031533
 20
104.497114917875
 10
129.478697752669
 20
104.605762549431
 10
129.019043571074
 20
104.763698262553
 10
128.595941691427
 20
104.96994833105
 10
128.212000677512
 20
105.223241154665
 10
127.869587653352
 20
105.522015098912
 10
127.570813709105
 20
105.864428123072
 10
127.31752088549
 20
106.248369136987
 10
127.111270816993
 20
106.671471016634
 10
126.953335103872
 20
107.131125198228
 10
126.844687472316
 20
107.62449776089
 10
126.785997771103
 20
108.148546898708
 10
126.777627841758
 20
108.700041674482
 10
126.819629287678
 20
109.275581939531
 10
126.911743155982
 20
109.871619296732
 10
127.053401534041
 20
110.484478977577
 10
127.243731050849
 20
111.110382498337
 10
127.481558261642
 20
111.745470955671
 10
127.765416882582
 20
112.385828818053
 10
128.093556830877
 20
113.02750806632
 10
128.463955014628
 20
113.666552534527
 10
128.874327805864
 20
114.299022301022
 10
129.322145119862
 20
114.921017979379
 10
129.804646013968
 20
115.528704759405
 10
130.318855709722
 20
116.118336050026
 10
130.861603933357
 20
116.686276578262
 10
131.429544461593
 20
117.229024801897
 10
132.019175752213
 20
117.743234497651
 10
132.62686253224
 20
118.225735391757
 10
133.248858210596
 20
118.673552705755
 10
133.881327977092
 20
119.08392549699
 10
134.520372445298
 20
119.454323680741
 10
135.162051693565
 20
119.782463629036
 10
135.802409555947
 20
120.066322249976
 10
136.437498013282
 20
120.30414946077
  0
LWPOLYLINE
  5
1E8
330
1F
100
AcDbEntity
  8
Layer0
  6
AUSGEZOGEN
 62
    18
420
        0
370
    18
100
AcDbPolyline
 90
       41
 70
     0
 43
0.0
 10
137.140266868302
 20
120.207613643316
 10
136.527494190636
 20
120.021277053435
 10
135.905729267371
 20
119.788439224686
 10
135.278805486018
 20
119.51053567971
 10
134.650588040162
 20
119.189279786274
 10
134.024950099261
 20
118.82665219379
 10
133.405748929265
 20
118.424888621952
 10
132.796802111294
 20
117.986466076779
 10
132.201864004974
 20
117.514087579052
 10
131.624602601569
 20
117.010665499293
 10
131.06857690959
 20
116.479303602028
 10
130.537215012325
 20
115.923277910049
 10
130.033792932566
 20
115.346016506644
 10
129.56141443484
 20
114.751078400325
 10
129.122991889667
 20
114.142131582353
 10
128.721228317828
 20
113.522930412357
 10
128.358600725344
 20
112.897292471456
 10
128.037344831909
 20
112.2690750256
 10
127.759441286933
 20
111.642151244247
 10
127.526603458184
 20
111.020386320983
 10
127.340266868302
 20
110.407613643316
 10
127.201580344328
 20
109.807611158573
 10
127.1113989348
 20
109.224078081592
 10
127.070278638095
 20
108.660612087838
 10
127.078472974517
 20
108.120687132535
 10
127.135931423256
 20
107.607632032573
 10
127.242299733871
 20
107.124609943254
 10
127.396922110353
 20
106.674598856379
 10
127.598845254336
 20
106.260373239941
 10
127.846824242491
 20
105.884486932611
 10
128.139330201893
 20
105.549257398469
 10
128.474559736036
 20
105.256751439066
 10
128.850446043366
 20
105.008772450912
 10
129.264671659803
 20
104.806849306929
 10
129.714682746679
 20
104.652226930446
 10
130.197704835998
 20
104.545858619832
 10
130.710759935959
 20
104.488400171092
 10
131.250684891263
 20
104.48020583467
 10
131.814150885017
 20
104.521326131375
 10
132.397683961997
 20
104.611507540904
 10
132.914156471843
 20
104.728228270661
  0
LWPOLYLINE
  5
1E9
330
1F
100
AcDbEntity
  8
Layer0
  6
AUSGEZOGEN
 62
    18
420
        0
370
    18
100
AcDbPolyline
 90
       21
 70
     0
 43
0.0
 10
142.819652240973
 20
114.633724039837
 10
142.936372970715
 20
115.150196549621
 10
143.026554380243
 20
115.733729626602
 10
143.067674676948
 20
116.297195620355
 10
143.059480340526
 20
116.837120575659
 10
143.002021891786
 20
117.35017567562
 10
142.895653581172
 20
117.83319776494
 10
142.74103120469
 20
118.283208851815
 10
142.539108060706
 20
118.697434468253
 10
142.291129072552
 20
119.073320775582
 10
141.99862311315
 20
119.408550309725
 10
141.663393579007
 20
119.701056269128
 10
141.287507271677
 20
119.949035257282
 10
140.87328165524
 20
120.150958401265
 10
140.423270568364
 20
120.305580777748
 10
139.940248479045
 20
120.411949088362
 10
139.427193379084
 20
120.469407537102
 10
138.88726842378
 20
120.477601873524
 10
138.323802430026
 20
120.436481576819
 10
137.740269353046
 20
120.34630016729
 10
137.140266868302
 20
120.207613643316
  0
DIMENSION
  5
1FB
330
1F
100
AcDbEntity
  8
Layer6
  6
AUSGEZOGEN
 62
    18
420
        0
370
    18
100
AcDbDimension
280
     0
  2
*D14
 10
73.962408912607
 20
228.217684534747
 30
0.0
 11
60.61466779046
 21
230.317684534747
 31
0.0
 70
   160
  1
M5
 71
     5
 42
-1.0
 73
     0
 74
     0
 75
     0
  3
ISO-25
100
AcDbAlignedDimension
 13
68.962408093043
 23
210.527383029978
 33
0.0
 14
73.962408912607
 24
210.527383029978
 34
0.0
100
AcDbRotatedDimension
1001
ACAD
1000
DSTYLE
1002
{
1070
    44
1040
2.5
1070
   280
1070
     0
1070
    77
1070
     1
1070
    78
1070
     8
1070
   179
1070
     2
1070
   271
1070
     2
1070
   173
1070
     1
1070
    41
1040
3.5
1070
   147
1040
0.428571428571
1070
   140
1040
3.0
1070
   178
1070
    18
1070
   177
1070
    18
1070
   176
1070
    18
1002
}
  0
DIMENSION
  5
208
330
1F
100
AcDbEntity
  8
Layer6
  6
AUSGEZOGEN
 62
    18
420
        0
370
    18
100
AcDbDimension
280
     0
  2
*D15
 10
74.462408369547
 20
236.029280582564
 30
0.0
 11
71.462408369547
 21
238.129280582564
 31
0.0
 70
   160
 71
     5
 42
-1.0
 73
     0
 74
     0
 75
     0
  3
ISO-25
100
AcDbAlignedDimension
 13
68.462408369547
 23
220.027382724504
 33
0.0
 14
74.462408369547
 24
220.027382724504
 34
0.0
100
AcDbRotatedDimension
1001
ACAD
1000
DSTYLE
1002
{
1070
     3
1000
<>
1070
    44
1040
2.5
1070
   280
1070
     0
1070
    77
1070
     1
1070
    78
1070
     8
1070
   179
1070
     2
1070
   271
1070
     2
1070
   173
1070
     1
1070
    41
1040
3.5
1070
   147
1040
0.428571428571
1070
   140
1040
3.0
1070
   178
1070
    18
1070
   177
1070
    18
1070
   176
1070
    18
1002
}
  0
DIMENSION
  5
213
330
1F
100
AcDbEntity
  8
Layer6
  6
AUSGEZOGEN
 62
    18
420
        0
370
    18
100
AcDbDimension
280
     0
  2
*D16
 10
87.462408369547
 20
182.22570731001
 30
0.0
 11
71.462408369547
 21
184.32570731001
 31
0.0
 70
   160
 71
     5
 42
-1.0
 73
     0
 74
     0
 75
     0
  3
ISO-25
100
AcDbAlignedDimension
 13
55.462408369547
 23
191.327382724504
 33
0.0
 14
87.462408369547
 24
191.327382724504
 34
0.0
100
AcDbRotatedDimension
1001
ACAD
1000
DSTYLE
1002
{
1070
     3
1000
<>
1070
    44
1040
2.5
1070
   280
1070
     0
1070
    77
1070
     1
1070
    78
1070
     8
1070
   179
1070
     2
1070
   271
1070
     2
1070
   173
1070
     1
1070
    41
1040
3.5
1070
   147
1040
0.428571428571
1070
   140
1040
3.0
1070
   178
1070
    18
1070
   177
1070
    18
1070
   176
1070
    18
1002
}
  0
DIMENSION
  5
220
330
1F
100
AcDbEntity
  8
Layer6
  6
AUSGEZOGEN
 62
    18
420
        0
370
    18
100
AcDbDimension
280
     0
  2
*D17
 10
82.962408369547
 20
163.720402742671
 30
0.0
 11
77.212408369547
 21
165.820402742671
 31
0.0
 70
   160
 71
     5
 42
-1.0
 73
     0
 74
     0
 75
     0
  3
ISO-25
100
AcDbAlignedDimension
 13
71.462408369547
 23
158.185598784036
 33
0.0
 14
82.962408369547
 24
144.685598784036
 34
0.0
100
AcDbRotatedDimension
1001
ACAD
1000
DSTYLE
1002
{
1070
     3
1000
<>
1070
    44
1040
2.5
1070
   280
1070
     0
1070
    77
1070
     1
1070
    78
1070
     8
1070
   179
1070
     2
1070
   271
1070
     2
1070
   173
1070
     1
1070
    41
1040
3.5
1070
   147
1040
0.428571428571
1070
   140
1040
3.0
1070
   178
1070
    18
1070
   177
1070
    18
1070
   176
1070
    18
1002
}
  0
DIMENSION
  5
22E
330
1F
100
AcDbEntity
  8
Layer6
  6
AUSGEZOGEN
 62
    18
420
        0
370
    18
100
AcDbDimension
280
     0
  2
*D18
 10
97.20712909044
 20
219.027382724504
 30
0.0
 11
94.75712909044
 21
203.833981935087
 31
0.0
 70
   160
  1
1x45%%d
 71
     5
 42
-1.0
 73
     0
 74
     0
 75
     0
 53
90.0
  3
ISO-25
100
AcDbAlignedDimension
 13
86.252608199843
 23
220.027382724504
 33
0.0
 14
87.265888998826
 24
219.027382724504
 34
0.0
 50
-90.0
100
AcDbRotatedDimension
1001
ACAD
1000
DSTYLE
1002
{
1070
    44
1040
2.5
1070
   280
1070
     0
1070
    77
1070
     1
1070
    78
1070
     8
1070
   179
1070
     2
1070
   271
1070
     2
1070
   173
1070
     1
1070
    41
1040
3.5
1070
   147
1040
0.5
1070
   140
1040
3.5
1070
   178
1070
    18
1070
   177
1070
    18
1070
   176
1070
    18
1002
}
  0
TEXT
  5
22F
330
1F
100
AcDbEntity
  8
Layer5
  6
AUSGEZOGEN
 62
    18
420
        0
370
    18
100
AcDbText
 10
142.529295533812
 20
38.463864716377
 30
0.0
 40
4.25
  1
24V
 41
0.851510760204
  7
Arial
 72
     5
 11
151.515075708553
 21
38.463864716377
 31
0.0
100
AcDbText
  0
TEXT
  5
230
330
1F
100
AcDbEntity
  8
Layer5
  6
AUSGEZOGEN
 62
    18
420
        0
370
    18
100
AcDbText
 10
119.018253289413
 20
38.463864716377
 30
0.0
 40
4.25
  1
4240020
 41
0.876017415546
  7
Arial
 72
     5
 11
139.241991344704
 21
38.463864716377
 31
0.0
100
AcDbText
  0
TEXT
  5
231
330
1F
100
AcDbEntity
  8
Layer5
  6
AUSGEZOGEN
 62
    18
420
        0
370
    18
100
AcDbText
 10
103.532026168848
 20
38.463864716377
 30
0.0
 40
4.25
  1
12V
 41
0.775525696509
  7
Arial
 72
     5
 11
111.715954962682
 21
38.463864716377
 31
0.0
100
AcDbText
  0
TEXT
  5
232
330
1F
100
AcDbEntity
  8
Layer5
  6
AUSGEZOGEN
 62
    18
420
        0
370
    18
100
AcDbText
 10
80.124302570464
 20
38.463864716377
 30
0.0
 40
4.25
  1
4230020
 41
0.876017415546
  7
Arial
 72
     5
 11
100.348040625754
 21
38.463864716377
 31
0.0
100
AcDbText
  0
LINE
  5
233
330
1F
100
AcDbEntity
  8
Layer1
  6
AUSGEZOGEN
 62
    18
420
        0
370
    18
100
AcDbLine
 10
141.203985193096
 20
44.09085026868
 30
0.0
 11
141.203985193096
 21
37.161512325827
 31
0.0
  0
LINE
  5
234
330
1F
100
AcDbEntity
  8
Layer1
  6
AUSGEZOGEN
 62
    18
420
        0
370
    18
100
AcDbLine
 10
102.275017495504
 20
44.09085026868
 30
0.0
 11
102.275017495504
 21
37.161512325827
 31
0.0
  0
LINE
  5
235
330
1F
100
AcDbEntity
  8
Layer1
  6
AUSGEZOGEN
 62
    18
420
        0
370
    18
100
AcDbLine
 10
116.000833276932
 20
48.811083917825
 30
0.0
 11
116.000833276932
 21
36.061083917825
 31
0.0
  0
ENDSEC
  0
SECTION
  2
OBJECTS
  0
DICTIONARY
  5
C
330
0
100
AcDbDictionary
281
     1
  3
ACAD_DETAILVIEWSTYLE
350
26E
  3
ACAD_GROUP
350
D
  3
ACAD_LAYOUT
350
1A
  3
ACAD_MATERIAL
350
43
  3
ACAD_MLEADERSTYLE
350
6B
  3
ACAD_MLINESTYLE
350
17
  3
ACAD_PLOTSETTINGS
350
19
  3
ACAD_PLOTSTYLENAME
350
E
  3
ACAD_SCALELIST
350
47
  3
ACAD_SECTIONVIEWSTYLE
350
26F
  3
ACAD_TABLESTYLE
350
69
  3
ACAD_VISUALSTYLE
350
2A
  3
ACAD_WIPEOUT_VARS
350
26B
  3
ACDB_RECOMPOSE_DATA
350
26A
  3
AcDbVariableDictionary
350
236
  0
SUN
  5
6D
330
29
100
AcDbSun
 90
        1
290
     0
 63
     7
421
 16777215
 40
1.0
291
     1
 91
  2455826
 92
 54000000
292
     0
 70
     2
 71
   256
280
     1
  0
DICTIONARY
  5
26E
102
{ACAD_REACTORS
330
C
102
}
330
C
100
AcDbDictionary
281
     1
  0
DICTIONARY
  5
D
102
{ACAD_REACTORS
330
C
102
}
330
C
100
AcDbDictionary
281
     1
  0
DICTIONARY
  5
1A
102
{ACAD_REACTORS
330
C
102
}
330
C
100
AcDbDictionary
281
     1
  3
Layout1
350
1E
  3
Layout2
350
26
  3
Model
350
22
  0
DICTIONARY
  5
43
102
{ACAD_REACTORS
330
C
102
}
330
C
100
AcDbDictionary
281
     1
  3
ByBlock
350
45
  3
ByLayer
350
44
  3
Global
350
46
  0
DICTIONARY
  5
6B
102
{ACAD_REACTORS
330
C
102
}
330
C
100
AcDbDictionary
281
     1
  3
Standard
350
6C
  0
DICTIONARY
  5
17
102
{ACAD_REACTORS
330
C
102
}
330
C
100
AcDbDictionary
281
     1
  3
Standard
350
18
  0
DICTIONARY
  5
19
102
{ACAD_REACTORS
330
C
102
}
330
C
100
AcDbDictionary
281
     1
  0
ACDBDICTIONARYWDFLT
  5
E
102
{ACAD_REACTORS
330
C
102
}
330
C
100
AcDbDictionary
281
     1
  3
Normal
350
F
100
AcDbDictionaryWithDefault
340
F
  0
DICTIONARY
  5
47
102
{ACAD_REACTORS
330
C
102
}
330
C
100
AcDbDictionary
281
     1
  3
A0
350
48
  3
A1
350
49
  3
A2
350
4A
  3
A3
350
4B
  3
A4
350
4C
  3
A5
350
4D
  3
A6
350
4E
  3
A7
350
4F
  3
A8
350
50
  3
A9
350
51
  3
B0
350
52
  3
B1
350
53
  3
B2
350
54
  3
B3
350
55
  3
B4
350
56
  3
B5
350
57
  3
B6
350
58
  3
B7
350
59
  3
B8
350
5A
  3
B9
350
5B
  3
C0
350
5C
  3
C1
350
5D
  3
C2
350
5E
  3
C3
350
5F
  3
C4
350
60
  3
C5
350
61
  3
C6
350
62
  3
C7
350
63
  3
C8
350
64
  3
C9
350
65
  3
D0
350
66
  3
D1
350
67
  3
D2
350
68
  0
DICTIONARY
  5
26F
102
{ACAD_REACTORS
330
C
102
}
330
C
100
AcDbDictionary
281
     1
  0
DICTIONARY
  5
69
102
{ACAD_REACTORS
330
C
102
}
330
C
100
AcDbDictionary
281
     1
  3
Standard
350
6A
  0
DICTIONARY
  5
2A
102
{ACAD_REACTORS
330
C
102
}
330
C
100
AcDbDictionary
281
     1
  3
2dWireframe
350
2F
  3
Basic
350
32
  3
Brighten
350
36
  3
ColorChange
350
3A
  3
Conceptual
350
34
  3
Dim
350
35
  3
EdgeColorOff
350
3D
  3
Facepattern
350
39
  3
Flat
350
2B
  3
FlatWithEdges
350
2C
  3
Gouraud
350
2D
  3
GouraudWithEdges
350
2E
  3
Hidden
350
31
  3
JitterOff
350
3B
  3
Linepattern
350
38
  3
OverhangOff
350
3C
  3
Realistic
350
33
  3
Shaded
350
42
  3
Shaded with edges
350
41
  3
Shades of Gray
350
3E
  3
Sketchy
350
3F
  3
Thicken
350
37
  3
Wireframe
350
30
  3
X-Ray
350
40
  0
WIPEOUTVARIABLES
  5
26B
102
{ACAD_REACTORS
330
C
102
}
330
C
100
AcDbWipeoutVariables
 70
     0
  0
XRECORD
  5
26A
102
{ACAD_REACTORS
330
C
102
}
330
C
100
AcDbXrecord
280
     1
 90
        1
330
6A
  0
DICTIONARY
  5
236
102
{ACAD_REACTORS
330
C
102
}
330
C
100
AcDbDictionary
281
     1
  3
CANNOSCALE
350
237
  3
CMLEADERSTYLE
350
26D
  3
CTABLESTYLE
350
26C
  3
SECTIONTHICKNESSINC
350
271
  3
WIPEOUTFRAME
350
270
  0
LAYOUT
  5
1E
102
{ACAD_REACTORS
330
1A
102
}
330
1A
100
AcDbPlotSettings
  1

  2
none_device
  4

  6

 40
0.0
 41
0.0
 42
0.0
 43
0.0
 44
0.0
 45
0.0
 46
0.0
 47
0.0
 48
0.0
 49
0.0
140
0.0
141
0.0
142
1.0
143
1.0
 70
   688
 72
     1
 73
     0
 74
     5
  7

 75
    16
 76
     0
 77
     2
 78
   300
147
1.0
148
0.0
149
0.0
100
AcDbLayout
  1
Layout1
 70
     1
 71
     1
 10
0.0
 20
0.0
 11
420.0
 21
297.0
 12
0.0
 22
0.0
 32
0.0
 14
1.000000000000E+20
 24
1.000000000000E+20
 34
1.000000000000E+20
 15
-1.000000000000E+20
 25
-1.000000000000E+20
 35
-1.000000000000E+20
146
0.0
 13
0.0
 23
0.0
 33
0.0
 16
1.0
 26
0.0
 36
0.0
 17
0.0
 27
1.0
 37
0.0
 76
     0
330
1B
  0
LAYOUT
  5
26
102
{ACAD_REACTORS
330
1A
102
}
330
1A
100
AcDbPlotSettings
  1

  2
none_device
  4

  6

 40
0.0
 41
0.0
 42
0.0
 43
0.0
 44
0.0
 45
0.0
 46
0.0
 47
0.0
 48
0.0
 49
0.0
140
0.0
141
0.0
142
1.0
143
1.0
 70
   688
 72
     1
 73
     0
 74
     5
  7

 75
    16
 76
     0
 77
     2
 78
   300
147
1.0
148
0.0
149
0.0
100
AcDbLayout
  1
Layout2
 70
     1
 71
     2
 10
0.0
 20
0.0
 11
0.0
 21
0.0
 12
0.0
 22
0.0
 32
0.0
 14
0.0
 24
0.0
 34
0.0
 15
0.0
 25
0.0
 35
0.0
146
0.0
 13
0.0
 23
0.0
 33
0.0
 16
1.0
 26
0.0
 36
0.0
 17
0.0
 27
1.0
 37
0.0
 76
     0
330
23
  0
LAYOUT
  5
22
102
{ACAD_REACTORS
330
1A
102
}
330
1A
100
AcDbPlotSettings
  1

  2
none_device
  4
Letter_(8.50_x_11.00_Inches)
  6

 40
6.35
 41
6.35
 42
6.35000508
 43
6.35000508
 44
215.9
 45
279.4
 46
0.0
 47
0.0
 48
0.0
 49
0.0
140
0.0
141
0.0
142
1.0
143
1.0
 70
  1712
 72
     1
 73
     0
 74
     0
  7

 75
     0
 76
     0
 77
     2
 78
   300
147
1.0
148
0.0
149
0.0
100
AcDbLayout
  1
Model
 70
     1
 71
     0
 10
0.0
 20
0.0
 11
420.0
 21
297.0
 12
0.0
 22
0.0
 32
0.0
 14
-314.326250525373
 24
17.00088970765
 34
0.0
 15
435.648043987683
 25
332.463162614749
 35
0.0
146
0.0
 13
0.0
 23
0.0
 33
0.0
 16
1.0
 26
0.0
 36
0.0
 17
0.0
 27
1.0
 37
0.0
 76
     0
330
1F
331
29
  0
MATERIAL
  5
45
102
{ACAD_REACTORS
330
43
102
}
330
43
100
AcDbMaterial
  1
ByBlock
 72
     1
 94
      127
  0
MATERIAL
  5
44
102
{ACAD_REACTORS
330
43
102
}
330
43
100
AcDbMaterial
  1
ByLayer
 72
     1
 94
      127
  0
MATERIAL
  5
46
102
{ACAD_REACTORS
330
43
102
}
330
43
100
AcDbMaterial
  1
Global
 72
     1
 94
      127
  0
MLEADERSTYLE
  5
6C
102
{ACAD_REACTORS
330
6B
102
}
330
6B
100
AcDbMLeaderStyle
179
     2
170
     2
171
     1
172
     0
 90
        2
 40
0.0
 41
0.0
173
     1
 91
-1056964608
340
14
 92
       -2
290
     1
 42
2.0
291
     1
 43
8.0
  3
Standard
341
0
 44
4.0
300

342
11
174
     1
178
     6
175
     1
176
     0
 93
-1056964608
 45
4.0
292
     0
297
     0
 46
4.0
343
0
 94
-1056964608
 47
1.0
 49
1.0
140
1.0
293
     1
141
0.0
294
     1
177
     0
142
1.0
295
     0
296
     0
143
3.75
271
     0
272
     9
273
     9
  0
MLINESTYLE
  5
18
102
{ACAD_REACTORS
330
17
102
}
330
17
100
AcDbMlineStyle
  2
Standard
 70
     0
  3

 62
   256
 51
90.0
 52
90.0
 71
     2
 49
0.5
 62
   256
  6
BYLAYER
 49
-0.5
 62
   256
  6
BYLAYER
  0
ACDBPLACEHOLDER
  5
F
102
{ACAD_REACTORS
330
E
102
}
330
E
  0
SCALE
  5
48
102
{ACAD_REACTORS
330
47
102
}
330
47
100
AcDbScale
 70
     0
300
1:1
140
1.0
141
1.0
290
     1
  0
SCALE
  5
49
102
{ACAD_REACTORS
330
47
102
}
330
47
100
AcDbScale
 70
     0
300
1:2
140
1.0
141
2.0
290
     0
  0
SCALE
  5
4A
102
{ACAD_REACTORS
330
47
102
}
330
47
100
AcDbScale
 70
     0
300
1:4
140
1.0
141
4.0
290
     0
  0
SCALE
  5
4B
102
{ACAD_REACTORS
330
47
102
}
330
47
100
AcDbScale
 70
     0
300
1:5
140
1.0
141
5.0
290
     0
  0
SCALE
  5
4C
102
{ACAD_REACTORS
330
47
102
}
330
47
100
AcDbScale
 70
     0
300
1:8
140
1.0
141
8.0
290
     0
  0
SCALE
  5
4D
102
{ACAD_REACTORS
330
47
102
}
330
47
100
AcDbScale
 70
     0
300
1:10
140
1.0
141
10.0
290
     0
  0
SCALE
  5
4E
102
{ACAD_REACTORS
330
47
102
}
330
47
100
AcDbScale
 70
     0
300
1:16
140
1.0
141
16.0
290
     0
  0
SCALE
  5
4F
102
{ACAD_REACTORS
330
47
102
}
330
47
100
AcDbScale
 70
     0
300
1:20
140
1.0
141
20.0
290
     0
  0
SCALE
  5
50
102
{ACAD_REACTORS
330
47
102
}
330
47
100
AcDbScale
 70
     0
300
1:30
140
1.0
141
30.0
290
     0
  0
SCALE
  5
51
102
{ACAD_REACTORS
330
47
102
}
330
47
100
AcDbScale
 70
     0
300
1:40
140
1.0
141
40.0
290
     0
  0
SCALE
  5
52
102
{ACAD_REACTORS
330
47
102
}
330
47
100
AcDbScale
 70
     0
300
1:50
140
1.0
141
50.0
290
     0
  0
SCALE
  5
53
102
{ACAD_REACTORS
330
47
102
}
330
47
100
AcDbScale
 70
     0
300
1:100
140
1.0
141
100.0
290
     0
  0
SCALE
  5
54
102
{ACAD_REACTORS
330
47
102
}
330
47
100
AcDbScale
 70
     0
300
2:1
140
2.0
141
1.0
290
     0
  0
SCALE
  5
55
102
{ACAD_REACTORS
330
47
102
}
330
47
100
AcDbScale
 70
     0
300
4:1
140
4.0
141
1.0
290
     0
  0
SCALE
  5
56
102
{ACAD_REACTORS
330
47
102
}
330
47
100
AcDbScale
 70
     0
300
8:1
140
8.0
141
1.0
290
     0
  0
SCALE
  5
57
102
{ACAD_REACTORS
330
47
102
}
330
47
100
AcDbScale
 70
     0
300
10:1
140
10.0
141
1.0
290
     0
  0
SCALE
  5
58
102
{ACAD_REACTORS
330
47
102
}
330
47
100
AcDbScale
 70
     0
300
100:1
140
100.0
141
1.0
290
     0
  0
SCALE
  5
59
102
{ACAD_REACTORS
330
47
102
}
330
47
100
AcDbScale
 70
     0
300
1/128" = 1'-0"
140
0.0078125
141
12.0
290
     0
  0
SCALE
  5
5A
102
{ACAD_REACTORS
330
47
102
}
330
47
100
AcDbScale
 70
     0
300
1/64" = 1'-0"
140
0.015625
141
12.0
290
     0
  0
SCALE
  5
5B
102
{ACAD_REACTORS
330
47
102
}
330
47
100
AcDbScale
 70
     0
300
1/32" = 1'-0"
140
0.03125
141
12.0
290
     0
  0
SCALE
  5
5C
102
{ACAD_REACTORS
330
47
102
}
330
47
100
AcDbScale
 70
     0
300
1/16" = 1'-0"
140
0.0625
141
12.0
290
     0
  0
SCALE
  5
5D
102
{ACAD_REACTORS
330
47
102
}
330
47
100
AcDbScale
 70
     0
300
3/32" = 1'-0"
140
0.09375
141
12.0
290
     0
  0
SCALE
  5
5E
102
{ACAD_REACTORS
330
47
102
}
330
47
100
AcDbScale
 70
     0
300
1/8" = 1'-0"
140
0.125
141
12.0
290
     0
  0
SCALE
  5
5F
102
{ACAD_REACTORS
330
47
102
}
330
47
100
AcDbScale
 70
     0
300
3/16" = 1'-0"
140
0.1875
141
12.0
290
     0
  0
SCALE
  5
60
102
{ACAD_REACTORS
330
47
102
}
330
47
100
AcDbScale
 70
     0
300
1/4" = 1'-0"
140
0.25
141
12.0
290
     0
  0
SCALE
  5
61
102
{ACAD_REACTORS
330
47
102
}
330
47
100
AcDbScale
 70
     0
300
3/8" = 1'-0"
140
0.375
141
12.0
290
     0
  0
SCALE
  5
62
102
{ACAD_REACTORS
330
47
102
}
330
47
100
AcDbScale
 70
     0
300
1/2" = 1'-0"
140
0.5
141
12.0
290
     0
  0
SCALE
  5
63
102
{ACAD_REACTORS
330
47
102
}
330
47
100
AcDbScale
 70
     0
300
3/4" = 1'-0"
140
0.75
141
12.0
290
     0
  0
SCALE
  5
64
102
{ACAD_REACTORS
330
47
102
}
330
47
100
AcDbScale
 70
     0
300
1" = 1'-0"
140
1.0
141
12.0
290
     0
  0
SCALE
  5
65
102
{ACAD_REACTORS
330
47
102
}
330
47
100
AcDbScale
 70
     0
300
1-1/2" = 1'-0"
140
1.5
141
12.0
290
     0
  0
SCALE
  5
66
102
{ACAD_REACTORS
330
47
102
}
330
47
100
AcDbScale
 70
     0
300
3" = 1'-0"
140
3.0
141
12.0
290
     0
  0
SCALE
  5
67
102
{ACAD_REACTORS
330
47
102
}
330
47
100
AcDbScale
 70
     0
300
6" = 1'-0"
140
6.0
141
12.0
290
     0
  0
SCALE
  5
68
102
{ACAD_REACTORS
330
47
102
}
330
47
100
AcDbScale
 70
     0
300
1'-0" = 1'-0"
140
12.0
141
12.0
290
     0
  0
TABLESTYLE
  5
6A
102
{ACAD_REACTORS
330
69
102
}
102
{ACAD_XDICTIONARY
360
268
102
}
330
69
100
AcDbTableStyle
  3
Standard
 70
     0
 71
     0
 40
0.06
 41
0.06
280
     0
281
     0
  7
Standard
140
4.5
170
     2
 62
     0
 63
   257
283
     0
 90
        4
 91
        0
  1

274
    -2
284
     1
 64
     0
275
    -2
285
     1
 65
     0
276
    -2
286
     1
 66
     0
277
    -2
287
     1
 67
     0
278
    -2
288
     1
 68
     0
279
    -2
289
     1
 69
     0
  7
Standard
140
6.0
170
     5
 62
     0
 63
   257
283
     0
 90
        4
 91
        0
  1

274
    -2
284
     1
 64
     0
275
    -2
285
     1
 65
     0
276
    -2
286
     1
 66
     0
277
    -2
287
     1
 67
     0
278
    -2
288
     1
 68
     0
279
    -2
289
     1
 69
     0
  7
Standard
140
4.5
170
     5
 62
     0
 63
   257
283
     0
 90
        4
 91
        0
  1

274
    -2
284
     1
 64
     0
275
    -2
285
     1
 65
     0
276
    -2
286
     1
 66
     0
277
    -2
287
     1
 67
     0
278
    -2
288
     1
 68
     0
279
    -2
289
     1
 69
     0
  0
VISUALSTYLE
  5
2F
102
{ACAD_REACTORS
330
2A
102
}
102
{ACAD_XDICTIONARY
360
240
102
}
330
2A
100
AcDbVisualStyle
  2
2dWireframe
 70
     4
177
     2
291
     0
 71
     0
176
     1
 72
     2
176
     1
 73
     0
176
     1
 90
        0
176
     1
 40
0.6
176
     1
 41
30.0
176
     1
 62
     5
 63
     7
421
 16777215
176
     1
 74
     1
176
     1
 91
        4
176
     1
 64
     7
176
     1
 65
   257
176
     1
 75
     1
176
     1
175
     1
176
     1
 42
1.0
176
     1
 92
        0
176
     1
 66
   257
176
     1
 43
1.0
176
     1
 76
     1
176
     1
 77
     6
176
     1
 78
     2
176
     1
 67
     7
176
     1
 79
     5
176
     1
170
     0
176
     1
171
     0
176
     1
290
     0
176
     1
 93
        1
176
     1
 44
0.0
176
     1
173
     0
176
     1
  0
VISUALSTYLE
  5
32
102
{ACAD_REACTORS
330
2A
102
}
102
{ACAD_XDICTIONARY
360
246
102
}
330
2A
100
AcDbVisualStyle
  2
Basic
 70
     7
177
     2
291
     1
 71
     1
176
     1
 72
     0
176
     1
 73
     1
176
     1
 90
        0
176
     1
 40
0.6
176
     1
 41
30.0
176
     1
 62
     5
 63
     7
421
 16777215
176
     1
 74
     0
176
     1
 91
        4
176
     1
 64
     7
176
     1
 65
   257
176
     1
 75
     1
176
     1
175
     1
176
     1
 42
1.0
176
     1
 92
        8
176
     1
 66
     7
176
     1
 43
1.0
176
     1
 76
     1
176
     1
 77
     6
176
     1
 78
     2
176
     1
 67
     7
176
     1
 79
     5
176
     1
170
     0
176
     1
171
     0
176
     1
290
     0
176
     1
 93
        1
176
     1
 44
0.0
176
     1
173
     0
176
     1
  0
VISUALSTYLE
  5
36
102
{ACAD_REACTORS
330
2A
102
}
102
{ACAD_XDICTIONARY
360
24E
102
}
330
2A
100
AcDbVisualStyle
  2
Brighten
 70
    12
177
     2
291
     1
 71
     2
176
     1
 72
     2
176
     1
 73
     0
176
     1
 90
        0
176
     1
 40
0.6
176
     1
 41
30.0
176
     1
 62
     5
 63
     7
421
 16777215
176
     1
 74
     1
176
     1
 91
        4
176
     1
 64
     7
176
     1
 65
   257
176
     1
 75
     1
176
     1
175
     1
176
     1
 42
1.0
176
     1
 92
        8
176
     1
 66
     7
176
     1
 43
1.0
176
     1
 76
     1
176
     1
 77
     6
176
     1
 78
     2
176
     1
 67
     7
176
     1
 79
     5
176
     1
170
     0
176
     1
171
     0
176
     1
290
     0
176
     1
 93
        1
176
     1
 44
50.0
176
     1
173
     0
176
     1
  0
VISUALSTYLE
  5
3A
102
{ACAD_REACTORS
330
2A
102
}
102
{ACAD_XDICTIONARY
360
256
102
}
330
2A
100
AcDbVisualStyle
  2
ColorChange
 70
    16
177
     2
291
     1
 71
     2
176
     1
 72
     2
176
     1
 73
     3
176
     1
 90
        0
176
     1
 40
0.6
176
     1
 41
30.0
176
     1
 62
     5
 63
     8
421
  8421504
176
     1
 74
     1
176
     1
 91
        4
176
     1
 64
     7
176
     1
 65
   257
176
     1
 75
     1
176
     1
175
     1
176
     1
 42
1.0
176
     1
 92
        8
176
     1
 66
     8
424
  8421504
176
     1
 43
1.0
176
     1
 76
     1
176
     1
 77
     6
176
     1
 78
     2
176
     1
 67
     7
176
     1
 79
     5
176
     1
170
     0
176
     1
171
     0
176
     1
290
     0
176
     1
 93
        1
176
     1
 44
0.0
176
     1
173
     0
176
     1
  0
VISUALSTYLE
  5
34
102
{ACAD_REACTORS
330
2A
102
}
102
{ACAD_XDICTIONARY
360
24A
102
}
330
2A
100
AcDbVisualStyle
  2
Conceptual
 70
     9
177
     2
291
     0
 71
     3
176
     1
 72
     2
176
     1
 73
     0
176
     1
 90
        0
176
     1
 40
0.6
176
     1
 41
30.0
176
     1
 62
     5
 63
     7
421
 16777215
176
     1
 74
     2
176
     1
 91
        2
176
     1
 64
     7
176
     1
 65
   257
176
     1
 75
     1
176
     1
175
     1
176
     1
 42
179.0
176
     1
 92
        8
176
     1
 66
     7
176
     1
 43
1.0
176
     1
 76
     1
176
     1
 77
     6
176
     1
 78
     2
176
     1
 67
     7
176
     1
 79
     3
176
     1
170
     0
176
     1
171
     0
176
     1
290
     0
176
     1
 93
        1
176
     1
 44
0.0
176
     1
173
     0
176
     1
  0
VISUALSTYLE
  5
35
102
{ACAD_REACTORS
330
2A
102
}
102
{ACAD_XDICTIONARY
360
24C
102
}
330
2A
100
AcDbVisualStyle
  2
Dim
 70
    11
177
     2
291
     1
 71
     2
176
     1
 72
     2
176
     1
 73
     0
176
     1
 90
        0
176
     1
 40
0.6
176
     1
 41
30.0
176
     1
 62
     5
 63
     7
421
 16777215
176
     1
 74
     1
176
     1
 91
        4
176
     1
 64
     7
176
     1
 65
   257
176
     1
 75
     1
176
     1
175
     1
176
     1
 42
1.0
176
     1
 92
        8
176
     1
 66
     7
176
     1
 43
1.0
176
     1
 76
     1
176
     1
 77
     6
176
     1
 78
     2
176
     1
 67
     7
176
     1
 79
     5
176
     1
170
     0
176
     1
171
     0
176
     1
290
     0
176
     1
 93
        1
176
     1
 44
-50.0
176
     1
173
     0
176
     1
  0
VISUALSTYLE
  5
3D
102
{ACAD_REACTORS
330
2A
102
}
102
{ACAD_XDICTIONARY
360
25C
102
}
330
2A
100
AcDbVisualStyle
  2
EdgeColorOff
 70
    22
177
     2
291
     1
 71
     2
176
     0
 72
     2
176
     0
 73
     0
176
     0
 90
        0
176
     0
 40
0.6
176
     0
 41
30.0
176
     0
 62
     5
 63
     7
421
 16777215
176
     0
 74
     1
176
     0
 91
        4
176
     0
 64
     7
176
     0
 65
   257
176
     0
 75
     1
176
     0
175
     1
176
     0
 42
1.0
176
     0
 92
        8
176
     2
 66
     7
176
     0
 43
1.0
176
     0
 76
     1
176
     0
 77
     6
176
     0
 78
     2
176
     0
 67
     7
176
     0
 79
     5
176
     0
170
     0
176
     0
171
     0
176
     0
290
     0
176
     0
 93
        1
176
     0
 44
0.0
176
     0
173
     0
176
     0
  0
VISUALSTYLE
  5
39
102
{ACAD_REACTORS
330
2A
102
}
102
{ACAD_XDICTIONARY
360
254
102
}
330
2A
100
AcDbVisualStyle
  2
Facepattern
 70
    15
177
     2
291
     1
 71
     2
176
     1
 72
     2
176
     1
 73
     0
176
     1
 90
        0
176
     1
 40
0.6
176
     1
 41
30.0
176
     1
 62
     5
 63
     7
421
 16777215
176
     1
 74
     1
176
     1
 91
        4
176
     1
 64
     7
176
     1
 65
   257
176
     1
 75
     1
176
     1
175
     1
176
     1
 42
1.0
176
     1
 92
        8
176
     1
 66
     7
176
     1
 43
1.0
176
     1
 76
     1
176
     1
 77
     6
176
     1
 78
     2
176
     1
 67
     7
176
     1
 79
     5
176
     1
170
     0
176
     1
171
     0
176
     1
290
     0
176
     1
 93
        1
176
     1
 44
0.0
176
     1
173
     0
176
     1
  0
VISUALSTYLE
  5
2B
102
{ACAD_REACTORS
330
2A
102
}
102
{ACAD_XDICTIONARY
360
238
102
}
330
2A
100
AcDbVisualStyle
  2
Flat
 70
     0
177
     2
291
     1
 71
     2
176
     1
 72
     1
176
     1
 73
     1
176
     1
 90
        2
176
     1
 40
0.6
176
     1
 41
30.0
176
     1
 62
     5
 63
     7
421
 16777215
176
     1
 74
     0
176
     1
 91
        0
176
     1
 64
     7
176
     1
 65
   257
176
     1
 75
     1
176
     1
175
     1
176
     1
 42
1.0
176
     1
 92
        8
176
     1
 66
     7
176
     1
 43
1.0
176
     1
 76
     1
176
     1
 77
     6
176
     1
 78
     2
176
     1
 67
     7
176
     1
 79
     5
176
     1
170
     0
176
     1
171
     0
176
     1
290
     0
176
     1
 93
       13
176
     1
 44
0.0
176
     1
173
     0
176
     1
  0
VISUALSTYLE
  5
2C
102
{ACAD_REACTORS
330
2A
102
}
102
{ACAD_XDICTIONARY
360
23A
102
}
330
2A
100
AcDbVisualStyle
  2
FlatWithEdges
 70
     1
177
     2
291
     1
 71
     2
176
     1
 72
     1
176
     1
 73
     1
176
     1
 90
        2
176
     1
 40
0.6
176
     1
 41
30.0
176
     1
 62
     5
 63
     7
421
 16777215
176
     1
 74
     1
176
     1
 91
        0
176
     1
 64
     7
176
     1
 65
   257
176
     1
 75
     1
176
     1
175
     1
176
     1
 42
1.0
176
     1
 92
        0
176
     1
 66
   257
176
     1
 43
1.0
176
     1
 76
     1
176
     1
 77
     6
176
     1
 78
     2
176
     1
 67
     7
176
     1
 79
     5
176
     1
170
     0
176
     1
171
     0
176
     1
290
     0
176
     1
 93
       13
176
     1
 44
0.0
176
     1
173
     0
176
     1
  0
VISUALSTYLE
  5
2D
102
{ACAD_REACTORS
330
2A
102
}
102
{ACAD_XDICTIONARY
360
23C
102
}
330
2A
100
AcDbVisualStyle
  2
Gouraud
 70
     2
177
     2
291
     1
 71
     2
176
     1
 72
     2
176
     1
 73
     1
176
     1
 90
        2
176
     1
 40
0.6
176
     1
 41
30.0
176
     1
 62
     5
 63
     7
421
 16777215
176
     1
 74
     0
176
     1
 91
        0
176
     1
 64
     7
176
     1
 65
   257
176
     1
 75
     1
176
     1
175
     1
176
     1
 42
1.0
176
     1
 92
        0
176
     1
 66
     7
176
     1
 43
1.0
176
     1
 76
     1
176
     1
 77
     6
176
     1
 78
     2
176
     1
 67
     7
176
     1
 79
     5
176
     1
170
     0
176
     1
171
     0
176
     1
290
     0
176
     1
 93
       13
176
     1
 44
0.0
176
     1
173
     0
176
     1
  0
VISUALSTYLE
  5
2E
102
{ACAD_REACTORS
330
2A
102
}
102
{ACAD_XDICTIONARY
360
23E
102
}
330
2A
100
AcDbVisualStyle
  2
GouraudWithEdges
 70
     3
177
     2
291
     1
 71
     2
176
     1
 72
     2
176
     1
 73
     1
176
     1
 90
        2
176
     1
 40
0.6
176
     1
 41
30.0
176
     1
 62
     5
 63
     7
421
 16777215
176
     1
 74
     1
176
     1
 91
        0
176
     1
 64
     7
176
     1
 65
   257
176
     1
 75
     1
176
     1
175
     1
176
     1
 42
1.0
176
     1
 92
        0
176
     1
 66
   257
176
     1
 43
1.0
176
     1
 76
     1
176
     1
 77
     6
176
     1
 78
     2
176
     1
 67
     7
176
     1
 79
     5
176
     1
170
     0
176
     1
171
     0
176
     1
290
     0
176
     1
 93
       13
176
     1
 44
0.0
176
     1
173
     0
176
     1
  0
VISUALSTYLE
  5
31
102
{ACAD_REACTORS
330
2A
102
}
102
{ACAD_XDICTIONARY
360
244
102
}
330
2A
100
AcDbVisualStyle
  2
Hidden
 70
     6
177
     2
291
     0
 71
     1
176
     1
 72
     2
176
     1
 73
     2
176
     1
 90
        0
176
     1
 40
0.6
176
     1
 41
30.0
176
     1
 62
     5
 63
     7
421
 16777215
176
     1
 74
     2
176
     1
 91
        2
176
     1
 64
     7
176
     1
 65
   257
176
     1
 75
     2
176
     1
175
     1
176
     1
 42
40.0
176
     1
 92
        0
176
     1
 66
   257
176
     1
 43
1.0
176
     1
 76
     1
176
     1
 77
     6
176
     1
 78
     2
176
     1
 67
     7
176
     1
 79
     3
176
     1
170
     0
176
     1
171
     0
176
     1
290
     0
176
     1
 93
        1
176
     1
 44
0.0
176
     1
173
     0
176
     1
  0
VISUALSTYLE
  5
3B
102
{ACAD_REACTORS
330
2A
102
}
102
{ACAD_XDICTIONARY
360
258
102
}
330
2A
100
AcDbVisualStyle
  2
JitterOff
 70
    20
177
     2
291
     1
 71
     2
176
     0
 72
     2
176
     0
 73
     0
176
     0
 90
        0
176
     0
 40
0.6
176
     0
 41
30.0
176
     0
 62
     5
 63
     7
421
 16777215
176
     0
 74
     1
176
     0
 91
        4
176
     0
 64
     7
176
     0
 65
   257
176
     0
 75
     1
176
     0
175
     1
176
     0
 42
1.0
176
     0
 92
       10
176
     2
 66
     7
176
     0
 43
1.0
176
     0
 76
     1
176
     0
 77
     6
176
     0
 78
     2
176
     0
 67
     7
176
     0
 79
     5
176
     0
170
     0
176
     0
171
     0
176
     0
290
     0
176
     0
 93
        1
176
     0
 44
0.0
176
     0
173
     0
176
     0
  0
VISUALSTYLE
  5
38
102
{ACAD_REACTORS
330
2A
102
}
102
{ACAD_XDICTIONARY
360
252
102
}
330
2A
100
AcDbVisualStyle
  2
Linepattern
 70
    14
177
     2
291
     1
 71
     2
176
     1
 72
     2
176
     1
 73
     0
176
     1
 90
        0
176
     1
 40
0.6
176
     1
 41
30.0
176
     1
 62
     5
 63
     7
421
 16777215
176
     1
 74
     1
176
     1
 91
        4
176
     1
 64
     7
176
     1
 65
   257
176
     1
 75
     7
176
     1
175
     7
176
     1
 42
1.0
176
     1
 92
        8
176
     1
 66
     7
176
     1
 43
1.0
176
     1
 76
     1
176
     1
 77
     6
176
     1
 78
     2
176
     1
 67
     7
176
     1
 79
     5
176
     1
170
     0
176
     1
171
     0
176
     1
290
     0
176
     1
 93
        1
176
     1
 44
0.0
176
     1
173
     0
176
     1
  0
VISUALSTYLE
  5
3C
102
{ACAD_REACTORS
330
2A
102
}
102
{ACAD_XDICTIONARY
360
25A
102
}
330
2A
100
AcDbVisualStyle
  2
OverhangOff
 70
    21
177
     2
291
     1
 71
     2
176
     0
 72
     2
176
     0
 73
     0
176
     0
 90
        0
176
     0
 40
0.6
176
     0
 41
30.0
176
     0
 62
     5
 63
     7
421
 16777215
176
     0
 74
     1
176
     0
 91
        4
176
     0
 64
     7
176
     0
 65
   257
176
     0
 75
     1
176
     0
175
     1
176
     0
 42
1.0
176
     0
 92
        9
176
     2
 66
     7
176
     0
 43
1.0
176
     0
 76
     1
176
     0
 77
     6
176
     0
 78
     2
176
     0
 67
     7
176
     0
 79
     5
176
     0
170
     0
176
     0
171
     0
176
     0
290
     0
176
     0
 93
        1
176
     0
 44
0.0
176
     0
173
     0
176
     0
  0
VISUALSTYLE
  5
33
102
{ACAD_REACTORS
330
2A
102
}
102
{ACAD_XDICTIONARY
360
248
102
}
330
2A
100
AcDbVisualStyle
  2
Realistic
 70
     8
177
     2
291
     0
 71
     2
176
     1
 72
     3
176
     1
 73
     0
176
     1
 90
        2
176
     1
 40
0.6
176
     1
 41
30.0
176
     1
 62
     5
 63
     7
421
 16777215
176
     1
 74
     0
176
     1
 91
        0
176
     1
 64
     7
176
     1
 65
   257
176
     1
 75
     1
176
     1
175
     1
176
     1
 42
1.0
176
     1
 92
        8
176
     1
 66
   257
176
     1
 43
1.0
176
     1
 76
     1
176
     1
 77
     6
176
     1
 78
     2
176
     1
 67
     7
176
     1
 79
     3
176
     1
170
     0
176
     1
171
     0
176
     1
290
     0
176
     1
 93
       13
176
     1
 44
0.0
176
     1
173
     0
176
     1
  0
VISUALSTYLE
  5
42
102
{ACAD_REACTORS
330
2A
102
}
102
{ACAD_XDICTIONARY
360
266
102
}
330
2A
100
AcDbVisualStyle
  2
Shaded
 70
    27
177
     2
291
     0
 71
     2
176
     1
 72
     2
176
     1
 73
     1
176
     1
 90
        2
176
     1
 40
0.6
176
     1
 41
30.0
176
     1
 62
     5
 63
     7
421
 16777215
176
     1
 74
     0
176
     1
 91
        4
176
     1
 64
     7
176
     1
 65
   257
176
     1
 75
     1
176
     1
175
     1
176
     1
 42
1.0
176
     1
 92
        8
176
     1
 66
   257
176
     1
 43
1.0
176
     1
 76
     1
176
     1
 77
     6
176
     1
 78
     2
176
     1
 67
     8
425
  7895160
176
     1
 79
     3
176
     1
170
     0
176
     1
171
     0
176
     1
290
     0
176
     1
 93
        5
176
     1
 44
0.0
176
     1
173
     0
176
     1
  0
VISUALSTYLE
  5
41
102
{ACAD_REACTORS
330
2A
102
}
102
{ACAD_XDICTIONARY
360
264
102
}
330
2A
100
AcDbVisualStyle
  2
Shaded with edges
 70
    26
177
     2
291
     0
 71
     2
176
     1
 72
     2
176
     1
 73
     1
176
     1
 90
        2
176
     1
 40
0.6
176
     1
 41
30.0
176
     1
 62
     5
 63
     7
421
 16777215
176
     1
 74
     1
176
     1
 91
       10
176
     1
 64
     7
176
     1
 65
   257
176
     1
 75
     2
176
     1
175
     1
176
     1
 42
1.0
176
     1
 92
        8
176
     1
 66
   257
176
     1
 43
1.0
176
     1
 76
     1
176
     1
 77
     6
176
     1
 78
     2
176
     1
 67
     7
176
     1
 79
     3
176
     1
170
     0
176
     1
171
     0
176
     1
290
     0
176
     1
 93
        5
176
     1
 44
0.0
176
     1
173
     0
176
     1
  0
VISUALSTYLE
  5
3E
102
{ACAD_REACTORS
330
2A
102
}
102
{ACAD_XDICTIONARY
360
25E
102
}
330
2A
100
AcDbVisualStyle
  2
Shades of Gray
 70
    23
177
     2
291
     0
 71
     2
176
     1
 72
     2
176
     1
 73
     3
176
     1
 90
        0
176
     1
 40
0.6
176
     1
 41
30.0
176
     1
 62
     5
 63
     7
421
 16777215
176
     1
 74
     2
176
     1
 91
        2
176
     1
 64
     7
176
     1
 65
     7
176
     1
 75
     1
176
     1
175
     1
176
     1
 42
40.0
176
     1
 92
        8
176
     1
 66
     7
176
     1
 43
1.0
176
     1
 76
     1
176
     1
 77
     6
176
     1
 78
     2
176
     1
 67
     7
176
     1
 79
     3
176
     1
170
     0
176
     1
171
     0
176
     1
290
     0
176
     1
 93
        1
176
     1
 44
0.0
176
     1
173
     0
176
     1
  0
VISUALSTYLE
  5
3F
102
{ACAD_REACTORS
330
2A
102
}
102
{ACAD_XDICTIONARY
360
260
102
}
330
2A
100
AcDbVisualStyle
  2
Sketchy
 70
    24
177
     2
291
     0
 71
     1
176
     1
 72
     2
176
     1
 73
     2
176
     1
 90
        0
176
     1
 40
0.6
176
     1
 41
30.0
176
     1
 62
     5
 63
     7
421
 16777215
176
     1
 74
     2
176
     1
 91
        2
176
     1
 64
     7
176
     1
 65
     7
176
     1
 75
     1
176
     1
175
     1
176
     1
 42
40.0
176
     1
 92
       11
176
     1
 66
     7
176
     1
 43
1.0
176
     1
 76
     1
176
     1
 77
     6
176
     1
 78
     2
176
     1
 67
     7
176
     1
 79
     6
176
     1
170
     0
176
     1
171
     0
176
     1
290
     0
176
     1
 93
        1
176
     1
 44
0.0
176
     1
173
     0
176
     1
  0
VISUALSTYLE
  5
37
102
{ACAD_REACTORS
330
2A
102
}
102
{ACAD_XDICTIONARY
360
250
102
}
330
2A
100
AcDbVisualStyle
  2
Thicken
 70
    13
177
     2
291
     1
 71
     2
176
     1
 72
     2
176
     1
 73
     0
176
     1
 90
        0
176
     1
 40
0.6
176
     1
 41
30.0
176
     1
 62
     5
 63
     7
421
 16777215
176
     1
 74
     1
176
     1
 91
        4
176
     1
 64
     7
176
     1
 65
   257
176
     1
 75
     1
176
     1
175
     1
176
     1
 42
1.0
176
     1
 92
       12
176
     1
 66
     7
176
     1
 43
1.0
176
     1
 76
     1
176
     1
 77
     6
176
     1
 78
     2
176
     1
 67
     7
176
     1
 79
     5
176
     1
170
     0
176
     1
171
     0
176
     1
290
     0
176
     1
 93
        1
176
     1
 44
0.0
176
     1
173
     0
176
     1
  0
VISUALSTYLE
  5
30
102
{ACAD_REACTORS
330
2A
102
}
102
{ACAD_XDICTIONARY
360
242
102
}
330
2A
100
AcDbVisualStyle
  2
Wireframe
 70
     5
177
     2
291
     0
 71
     0
176
     1
 72
     2
176
     1
 73
     0
176
     1
 90
        0
176
     1
 40
0.6
176
     1
 41
30.0
176
     1
 62
     5
 63
     7
421
 16777215
176
     1
 74
     1
176
     1
 91
        4
176
     1
 64
     7
176
     1
 65
   257
176
     1
 75
     1
176
     1
175
     1
176
     1
 42
1.0
176
     1
 92
        0
176
     1
 66
   257
176
     1
 43
1.0
176
     1
 76
     1
176
     1
 77
     6
176
     1
 78
     2
176
     1
 67
     7
176
     1
 79
     3
176
     1
170
     0
176
     1
171
     0
176
     1
290
     0
176
     1
 93
        1
176
     1
 44
0.0
176
     1
173
     0
176
     1
  0
VISUALSTYLE
  5
40
102
{ACAD_REACTORS
330
2A
102
}
102
{ACAD_XDICTIONARY
360
262
102
}
330
2A
100
AcDbVisualStyle
  2
X-Ray
 70
    25
177
     2
291
     0
 71
     2
176
     1
 72
     2
176
     1
 73
     1
176
     1
 90
        1
176
     1
 40
0.5
176
     1
 41
30.0
176
     1
 62
     5
 63
     7
421
 16777215
176
     1
 74
     1
176
     1
 91
        0
176
     1
 64
     7
176
     1
 65
   257
176
     1
 75
     1
176
     1
175
     1
176
     1
 42
1.0
176
     1
 92
        8
176
     1
 66
     7
176
     1
 43
1.0
176
     1
 76
     1
176
     1
 77
     6
176
     1
 78
     2
176
     1
 67
     7
176
     1
 79
     3
176
     1
170
     0
176
     1
171
     0
176
     1
290
     0
176
     1
 93
       13
176
     1
 44
0.0
176
     1
173
     0
176
     1
  0
DICTIONARYVAR
  5
237
102
{ACAD_REACTORS
330
236
102
}
330
236
100
DictionaryVariables
280
     0
  1
1:1
  0
DICTIONARYVAR
  5
26D
102
{ACAD_REACTORS
330
236
102
}
330
236
100
DictionaryVariables
280
     0
  1
Standard
  0
DICTIONARYVAR
  5
26C
102
{ACAD_REACTORS
330
236
102
}
330
236
100
DictionaryVariables
280
     0
  1
Standard
  0
DICTIONARYVAR
  5
271
102
{ACAD_REACTORS
330
236
102
}
330
236
100
DictionaryVariables
280
     0
  1
6.000000
  0
DICTIONARYVAR
  5
270
102
{ACAD_REACTORS
330
236
102
}
330
236
100
DictionaryVariables
280
     0
  1
0
  0
DICTIONARY
  5
268
330
6A
100
AcDbDictionary
280
     1
281
     1
  3
ACAD_ROUNDTRIP_2008_TABLESTYLE_CELLSTYLEMAP
360
269
  0
DICTIONARY
  5
240
330
2F
100
AcDbDictionary
280
     1
281
     1
  3
ACAD_XREC_ROUNDTRIP
360
241
  0
DICTIONARY
  5
246
330
32
100
AcDbDictionary
280
     1
281
     1
  3
ACAD_XREC_ROUNDTRIP
360
247
  0
DICTIONARY
  5
24E
330
36
100
AcDbDictionary
280
     1
281
     1
  3
ACAD_XREC_ROUNDTRIP
360
24F
  0
DICTIONARY
  5
256
330
3A
100
AcDbDictionary
280
     1
281
     1
  3
ACAD_XREC_ROUNDTRIP
360
257
  0
DICTIONARY
  5
24A
330
34
100
AcDbDictionary
280
     1
281
     1
  3
ACAD_XREC_ROUNDTRIP
360
24B
  0
DICTIONARY
  5
24C
330
35
100
AcDbDictionary
280
     1
281
     1
  3
ACAD_XREC_ROUNDTRIP
360
24D
  0
DICTIONARY
  5
25C
330
3D
100
AcDbDictionary
280
     1
281
     1
  3
ACAD_XREC_ROUNDTRIP
360
25D
  0
DICTIONARY
  5
254
330
39
100
AcDbDictionary
280
     1
281
     1
  3
ACAD_XREC_ROUNDTRIP
360
255
  0
DICTIONARY
  5
238
330
2B
100
AcDbDictionary
280
     1
281
     1
  3
ACAD_XREC_ROUNDTRIP
360
239
  0
DICTIONARY
  5
23A
330
2C
100
AcDbDictionary
280
     1
281
     1
  3
ACAD_XREC_ROUNDTRIP
360
23B
  0
DICTIONARY
  5
23C
330
2D
100
AcDbDictionary
280
     1
281
     1
  3
ACAD_XREC_ROUNDTRIP
360
23D
  0
DICTIONARY
  5
23E
330
2E
100
AcDbDictionary
280
     1
281
     1
  3
ACAD_XREC_ROUNDTRIP
360
23F
  0
DICTIONARY
  5
244
330
31
100
AcDbDictionary
280
     1
281
     1
  3
ACAD_XREC_ROUNDTRIP
360
245
  0
DICTIONARY
  5
258
330
3B
100
AcDbDictionary
280
     1
281
     1
  3
ACAD_XREC_ROUNDTRIP
360
259
  0
DICTIONARY
  5
252
330
38
100
AcDbDictionary
280
     1
281
     1
  3
ACAD_XREC_ROUNDTRIP
360
253
  0
DICTIONARY
  5
25A
330
3C
100
AcDbDictionary
280
     1
281
     1
  3
ACAD_XREC_ROUNDTRIP
360
25B
  0
DICTIONARY
  5
248
330
33
100
AcDbDictionary
280
     1
281
     1
  3
ACAD_XREC_ROUNDTRIP
360
249
  0
DICTIONARY
  5
266
330
42
100
AcDbDictionary
280
     1
281
     1
  3
ACAD_XREC_ROUNDTRIP
360
267
  0
DICTIONARY
  5
264
330
41
100
AcDbDictionary
280
     1
281
     1
  3
ACAD_XREC_ROUNDTRIP
360
265
  0
DICTIONARY
  5
25E
330
3E
100
AcDbDictionary
280
     1
281
     1
  3
ACAD_XREC_ROUNDTRIP
360
25F
  0
DICTIONARY
  5
260
330
3F
100
AcDbDictionary
280
     1
281
     1
  3
ACAD_XREC_ROUNDTRIP
360
261
  0
DICTIONARY
  5
250
330
37
100
AcDbDictionary
280
     1
281
     1
  3
ACAD_XREC_ROUNDTRIP
360
251
  0
DICTIONARY
  5
242
330
30
100
AcDbDictionary
280
     1
281
     1
  3
ACAD_XREC_ROUNDTRIP
360
243
  0
DICTIONARY
  5
262
330
40
100
AcDbDictionary
280
     1
281
     1
  3
ACAD_XREC_ROUNDTRIP
360
263
  0
CELLSTYLEMAP
  5
269
102
{ACAD_REACTORS
330
268
102
}
330
268
100
AcDbCellStyleMap
 90
        3
300
CELLSTYLE
  1
TABLEFORMAT_BEGIN
 90
        5
170
     1
 91
        0
 92
    32768
 62
   257
 93
        1
300
CONTENTFORMAT
  1
CONTENTFORMAT_BEGIN
 90
        0
 91
        0
 92
        4
 93
        0
300

 40
0.0
140
1.0
 94
        5
 62
     0
340
11
144
6.0
309
CONTENTFORMAT_END
171
     1
301
MARGIN
  1
CELLMARGIN_BEGIN
 40
1.5
 40
1.5
 40
1.5
 40
1.5
 40
1.5
 40
1.5
309
CELLMARGIN_END
 94
        6
 95
        1
302
GRIDFORMAT
  1
GRIDFORMAT_BEGIN
 90
        0
 91
        1
 62
     0
 92
       -2
340
14
 93
        0
 40
0.045
309
GRIDFORMAT_END
 95
        2
302
GRIDFORMAT
  1
GRIDFORMAT_BEGIN
 90
        0
 91
        1
 62
     0
 92
       -2
340
14
 93
        0
 40
0.045
309
GRIDFORMAT_END
 95
        4
302
GRIDFORMAT
  1
GRIDFORMAT_BEGIN
 90
        0
 91
        1
 62
     0
 92
       -2
340
14
 93
        0
 40
0.045
309
GRIDFORMAT_END
 95
        8
302
GRIDFORMAT
  1
GRIDFORMAT_BEGIN
 90
        0
 91
        1
 62
     0
 92
       -2
340
14
 93
        0
 40
0.045
309
GRIDFORMAT_END
 95
       16
302
GRIDFORMAT
  1
GRIDFORMAT_BEGIN
 90
        0
 91
        1
 62
     0
 92
       -2
340
14
 93
        0
 40
0.045
309
GRIDFORMAT_END
 95
       32
302
GRIDFORMAT
  1
GRIDFORMAT_BEGIN
 90
        0
 91
        1
 62
     0
 92
       -2
340
14
 93
        0
 40
0.045
309
GRIDFORMAT_END
309
TABLEFORMAT_END
  1
CELLSTYLE_BEGIN
 90
        1
 91
        1
300
_TITLE
309
CELLSTYLE_END
300
CELLSTYLE
  1
TABLEFORMAT_BEGIN
 90
        5
170
     1
 91
        0
 92
        0
 62
   257
 93
        1
300
CONTENTFORMAT
  1
CONTENTFORMAT_BEGIN
 90
        0
 91
        0
 92
        4
 93
        0
300

 40
0.0
140
1.0
 94
        5
 62
     0
340
11
144
4.5
309
CONTENTFORMAT_END
171
     1
301
MARGIN
  1
CELLMARGIN_BEGIN
 40
1.5
 40
1.5
 40
1.5
 40
1.5
 40
1.5
 40
1.5
309
CELLMARGIN_END
 94
        6
 95
        1
302
GRIDFORMAT
  1
GRIDFORMAT_BEGIN
 90
        0
 91
        1
 62
     0
 92
       -2
340
14
 93
        0
 40
0.045
309
GRIDFORMAT_END
 95
        2
302
GRIDFORMAT
  1
GRIDFORMAT_BEGIN
 90
        0
 91
        1
 62
     0
 92
       -2
340
14
 93
        0
 40
0.045
309
GRIDFORMAT_END
 95
        4
302
GRIDFORMAT
  1
GRIDFORMAT_BEGIN
 90
        0
 91
        1
 62
     0
 92
       -2
340
14
 93
        0
 40
0.045
309
GRIDFORMAT_END
 95
        8
302
GRIDFORMAT
  1
GRIDFORMAT_BEGIN
 90
        0
 91
        1
 62
     0
 92
       -2
340
14
 93
        0
 40
0.045
309
GRIDFORMAT_END
 95
       16
302
GRIDFORMAT
  1
GRIDFORMAT_BEGIN
 90
        0
 91
        1
 62
     0
 92
       -2
340
14
 93
        0
 40
0.045
309
GRIDFORMAT_END
 95
       32
302
GRIDFORMAT
  1
GRIDFORMAT_BEGIN
 90
        0
 91
        1
 62
     0
 92
       -2
340
14
 93
        0
 40
0.045
309
GRIDFORMAT_END
309
TABLEFORMAT_END
  1
CELLSTYLE_BEGIN
 90
        2
 91
        1
300
_HEADER
309
CELLSTYLE_END
300
CELLSTYLE
  1
TABLEFORMAT_BEGIN
 90
        5
170
     1
 91
        0
 92
        0
 62
   257
 93
        1
300
CONTENTFORMAT
  1
CONTENTFORMAT_BEGIN
 90
        0
 91
        0
 92
        4
 93
        0
300

 40
0.0
140
1.0
 94
        2
 62
     0
340
11
144
4.5
309
CONTENTFORMAT_END
171
     1
301
MARGIN
  1
CELLMARGIN_BEGIN
 40
1.5
 40
1.5
 40
1.5
 40
1.5
 40
1.5
 40
1.5
309
CELLMARGIN_END
 94
        6
 95
        1
302
GRIDFORMAT
  1
GRIDFORMAT_BEGIN
 90
        0
 91
        1
 62
     0
 92
       -2
340
14
 93
        0
 40
0.045
309
GRIDFORMAT_END
 95
        2
302
GRIDFORMAT
  1
GRIDFORMAT_BEGIN
 90
        0
 91
        1
 62
     0
 92
       -2
340
14
 93
        0
 40
0.045
309
GRIDFORMAT_END
 95
        4
302
GRIDFORMAT
  1
GRIDFORMAT_BEGIN
 90
        0
 91
        1
 62
     0
 92
       -2
340
14
 93
        0
 40
0.045
309
GRIDFORMAT_END
 95
        8
302
GRIDFORMAT
  1
GRIDFORMAT_BEGIN
 90
        0
 91
        1
 62
     0
 92
       -2
340
14
 93
        0
 40
0.045
309
GRIDFORMAT_END
 95
       16
302
GRIDFORMAT
  1
GRIDFORMAT_BEGIN
 90
        0
 91
        1
 62
     0
 92
       -2
340
14
 93
        0
 40
0.045
309
GRIDFORMAT_END
 95
       32
302
GRIDFORMAT
  1
GRIDFORMAT_BEGIN
 90
        0
 91
        1
 62
     0
 92
       -2
340
14
 93
        0
 40
0.045
309
GRIDFORMAT_END
309
TABLEFORMAT_END
  1
CELLSTYLE_BEGIN
 90
        3
 91
        2
300
_DATA
309
CELLSTYLE_END
  0
XRECORD
  5
241
102
{ACAD_REACTORS
330
240
102
}
330
240
100
AcDbXrecord
280
     1
102
RTVSPost2010Prop28
280
     1
102
RTVSPost2010PropOp28
 70
     1
102
RTVSPost2010Prop29
280
     1
102
RTVSPost2010PropOp29
 70
     1
102
RTVSPost2010Prop30
280
     0
102
RTVSPost2010PropOp30
 70
     1
102
RTVSPost2010Prop31
280
     0
102
RTVSPost2010PropOp31
 70
     1
102
RTVSPost2010Prop32
280
     0
102
RTVSPost2010PropOp32
 70
     1
102
RTVSPost2010Prop33
280
     0
102
RTVSPost2010PropOp33
 70
     1
102
RTVSPost2010Prop34
280
     0
102
RTVSPost2010PropOp34
 70
     1
102
RTVSPost2010Prop35
280
     0
102
RTVSPost2010PropOp35
 70
     1
102
RTVSPost2010Prop36
280
     0
102
RTVSPost2010PropOp36
 70
     1
102
RTVSPost2010Prop37
 90
       50
102
RTVSPost2010PropOp37
 70
     1
102
RTVSPost2010Prop38
140
0.0
102
RTVSPost2010PropOp38
 70
     1
102
RTVSPost2010Prop39
140
1.0
102
RTVSPost2010PropOp39
 70
     1
102
RTVSPost2010Prop40
 90
        0
102
RTVSPost2010PropOp40
 70
     1
102
RTVSPost2010Prop41ColorIndex
 90
       18
102
RTVSPost2010Prop41ColorRGB
 90
        0
102
RTVSPost2010PropOp41
 70
     1
102
RTVSPost2010Prop42
 90
       50
102
RTVSPost2010PropOp42
 70
     1
102
RTVSPost2010Prop43
 90
        3
102
RTVSPost2010PropOp43
 70
     1
102
RTVSPost2010Prop44ColorIndex
 90
        5
102
RTVSPost2010Prop44ColorRGB
 90
      255
102
RTVSPost2010PropOp44
 70
     1
102
RTVSPost2010Prop45
280
     0
102
RTVSPost2010PropOp45
 70
     1
102
RTVSPost2010Prop46
 90
       50
102
RTVSPost2010PropOp46
 70
     1
102
RTVSPost2010Prop47
 90
       50
102
RTVSPost2010PropOp47
 70
     1
102
RTVSPost2010Prop48
 90
       50
102
RTVSPost2010PropOp48
 70
     1
102
RTVSPost2010Prop49
280
     0
102
RTVSPost2010PropOp49
 70
     1
102
RTVSPost2010Prop50
 90
       50
102
RTVSPost2010PropOp50
 70
     1
102
RTVSPost2010Prop51ColorIndex
 90
      256
102
RTVSPost2010Prop51ColorRGB
 90
-16777216
102
RTVSPost2010PropOp51
 70
     0
102
RTVSPost2010Prop52
140
1.0
102
RTVSPost2010PropOp52
 70
     0
102
RTVSPost2010Prop53
 90
        2
102
RTVSPost2010PropOp53
 70
     1
102
RTVSPost2010Prop54
  1
strokes_ogs.tif
102
RTVSPost2010PropOp54
 70
     1
102
RTVSPost2010Prop55
280
     0
102
RTVSPost2010PropOp55
 70
     1
102
RTVSPost2010Prop56
140
1.0
102
RTVSPost2010PropOp56
 70
     1
102
RTVSPost2010Prop57
140
1.0
102
RTVSPost2010PropOp57
 70
     1
  0
XRECORD
  5
247
102
{ACAD_REACTORS
330
246
102
}
330
246
100
AcDbXrecord
280
     1
102
RTVSPost2010Prop28
280
     0
102
RTVSPost2010PropOp28
 70
     1
102
RTVSPost2010Prop29
280
     1
102
RTVSPost2010PropOp29
 70
     1
102
RTVSPost2010Prop30
280
     1
102
RTVSPost2010PropOp30
 70
     1
102
RTVSPost2010Prop31
280
     0
102
RTVSPost2010PropOp31
 70
     1
102
RTVSPost2010Prop32
280
     0
102
RTVSPost2010PropOp32
 70
     1
102
RTVSPost2010Prop33
280
     0
102
RTVSPost2010PropOp33
 70
     1
102
RTVSPost2010Prop34
280
     0
102
RTVSPost2010PropOp34
 70
     1
102
RTVSPost2010Prop35
280
     0
102
RTVSPost2010PropOp35
 70
     1
102
RTVSPost2010Prop36
280
     0
102
RTVSPost2010PropOp36
 70
     1
102
RTVSPost2010Prop37
 90
       50
102
RTVSPost2010PropOp37
 70
     1
102
RTVSPost2010Prop38
140
0.0
102
RTVSPost2010PropOp38
 70
     1
102
RTVSPost2010Prop39
140
1.0
102
RTVSPost2010PropOp39
 70
     1
102
RTVSPost2010Prop40
 90
        0
102
RTVSPost2010PropOp40
 70
     1
102
RTVSPost2010Prop41ColorIndex
 90
       18
102
RTVSPost2010Prop41ColorRGB
 90
        0
102
RTVSPost2010PropOp41
 70
     1
102
RTVSPost2010Prop42
 90
       50
102
RTVSPost2010PropOp42
 70
     1
102
RTVSPost2010Prop43
 90
        3
102
RTVSPost2010PropOp43
 70
     1
102
RTVSPost2010Prop44ColorIndex
 90
        5
102
RTVSPost2010Prop44ColorRGB
 90
      255
102
RTVSPost2010PropOp44
 70
     1
102
RTVSPost2010Prop45
280
     0
102
RTVSPost2010PropOp45
 70
     1
102
RTVSPost2010Prop46
 90
       50
102
RTVSPost2010PropOp46
 70
     1
102
RTVSPost2010Prop47
 90
       50
102
RTVSPost2010PropOp47
 70
     1
102
RTVSPost2010Prop48
 90
       50
102
RTVSPost2010PropOp48
 70
     1
102
RTVSPost2010Prop49
280
     0
102
RTVSPost2010PropOp49
 70
     1
102
RTVSPost2010Prop50
 90
       50
102
RTVSPost2010PropOp50
 70
     1
102
RTVSPost2010Prop51ColorIndex
 90
      256
102
RTVSPost2010Prop51ColorRGB
 90
-16777216
102
RTVSPost2010PropOp51
 70
     0
102
RTVSPost2010Prop52
140
1.0
102
RTVSPost2010PropOp52
 70
     0
102
RTVSPost2010Prop53
 90
        2
102
RTVSPost2010PropOp53
 70
     1
102
RTVSPost2010Prop54
  1
strokes_ogs.tif
102
RTVSPost2010PropOp54
 70
     1
102
RTVSPost2010Prop55
280
     0
102
RTVSPost2010PropOp55
 70
     1
102
RTVSPost2010Prop56
140
1.0
102
RTVSPost2010PropOp56
 70
     1
102
RTVSPost2010Prop57
140
1.0
102
RTVSPost2010PropOp57
 70
     1
  0
XRECORD
  5
24F
102
{ACAD_REACTORS
330
24E
102
}
330
24E
100
AcDbXrecord
280
     1
102
RTVSPost2010Prop28
280
     0
102
RTVSPost2010PropOp28
 70
     1
102
RTVSPost2010Prop29
280
     1
102
RTVSPost2010PropOp29
 70
     1
102
RTVSPost2010Prop30
280
     1
102
RTVSPost2010PropOp30
 70
     1
102
RTVSPost2010Prop31
280
     0
102
RTVSPost2010PropOp31
 70
     1
102
RTVSPost2010Prop32
280
     0
102
RTVSPost2010PropOp32
 70
     1
102
RTVSPost2010Prop33
280
     0
102
RTVSPost2010PropOp33
 70
     1
102
RTVSPost2010Prop34
280
     0
102
RTVSPost2010PropOp34
 70
     1
102
RTVSPost2010Prop35
280
     0
102
RTVSPost2010PropOp35
 70
     1
102
RTVSPost2010Prop36
280
     0
102
RTVSPost2010PropOp36
 70
     1
102
RTVSPost2010Prop37
 90
       50
102
RTVSPost2010PropOp37
 70
     1
102
RTVSPost2010Prop38
140
0.0
102
RTVSPost2010PropOp38
 70
     1
102
RTVSPost2010Prop39
140
1.0
102
RTVSPost2010PropOp39
 70
     1
102
RTVSPost2010Prop40
 90
        0
102
RTVSPost2010PropOp40
 70
     1
102
RTVSPost2010Prop41ColorIndex
 90
       18
102
RTVSPost2010Prop41ColorRGB
 90
        0
102
RTVSPost2010PropOp41
 70
     1
102
RTVSPost2010Prop42
 90
       50
102
RTVSPost2010PropOp42
 70
     1
102
RTVSPost2010Prop43
 90
        3
102
RTVSPost2010PropOp43
 70
     1
102
RTVSPost2010Prop44ColorIndex
 90
        5
102
RTVSPost2010Prop44ColorRGB
 90
      255
102
RTVSPost2010PropOp44
 70
     1
102
RTVSPost2010Prop45
280
     0
102
RTVSPost2010PropOp45
 70
     1
102
RTVSPost2010Prop46
 90
       50
102
RTVSPost2010PropOp46
 70
     1
102
RTVSPost2010Prop47
 90
       50
102
RTVSPost2010PropOp47
 70
     1
102
RTVSPost2010Prop48
 90
       50
102
RTVSPost2010PropOp48
 70
     1
102
RTVSPost2010Prop49
280
     0
102
RTVSPost2010PropOp49
 70
     1
102
RTVSPost2010Prop50
 90
       50
102
RTVSPost2010PropOp50
 70
     1
102
RTVSPost2010Prop51ColorIndex
 90
      256
102
RTVSPost2010Prop51ColorRGB
 90
-16777216
102
RTVSPost2010PropOp51
 70
     0
102
RTVSPost2010Prop52
140
1.0
102
RTVSPost2010PropOp52
 70
     0
102
RTVSPost2010Prop53
 90
        2
102
RTVSPost2010PropOp53
 70
     1
102
RTVSPost2010Prop54
  1
strokes_ogs.tif
102
RTVSPost2010PropOp54
 70
     1
102
RTVSPost2010Prop55
280
     0
102
RTVSPost2010PropOp55
 70
     1
102
RTVSPost2010Prop56
140
1.0
102
RTVSPost2010PropOp56
 70
     1
102
RTVSPost2010Prop57
140
1.0
102
RTVSPost2010PropOp57
 70
     1
  0
XRECORD
  5
257
102
{ACAD_REACTORS
330
256
102
}
330
256
100
AcDbXrecord
280
     1
102
RTVSPost2010Prop28
280
     0
102
RTVSPost2010PropOp28
 70
     1
102
RTVSPost2010Prop29
280
     1
102
RTVSPost2010PropOp29
 70
     1
102
RTVSPost2010Prop30
280
     1
102
RTVSPost2010PropOp30
 70
     1
102
RTVSPost2010Prop31
280
     0
102
RTVSPost2010PropOp31
 70
     1
102
RTVSPost2010Prop32
280
     0
102
RTVSPost2010PropOp32
 70
     1
102
RTVSPost2010Prop33
280
     0
102
RTVSPost2010PropOp33
 70
     1
102
RTVSPost2010Prop34
280
     0
102
RTVSPost2010PropOp34
 70
     1
102
RTVSPost2010Prop35
280
     0
102
RTVSPost2010PropOp35
 70
     1
102
RTVSPost2010Prop36
280
     0
102
RTVSPost2010PropOp36
 70
     1
102
RTVSPost2010Prop37
 90
       50
102
RTVSPost2010PropOp37
 70
     1
102
RTVSPost2010Prop38
140
0.0
102
RTVSPost2010PropOp38
 70
     1
102
RTVSPost2010Prop39
140
1.0
102
RTVSPost2010PropOp39
 70
     1
102
RTVSPost2010Prop40
 90
        0
102
RTVSPost2010PropOp40
 70
     1
102
RTVSPost2010Prop41ColorIndex
 90
       18
102
RTVSPost2010Prop41ColorRGB
 90
        0
102
RTVSPost2010PropOp41
 70
     1
102
RTVSPost2010Prop42
 90
       50
102
RTVSPost2010PropOp42
 70
     1
102
RTVSPost2010Prop43
 90
        3
102
RTVSPost2010PropOp43
 70
     1
102
RTVSPost2010Prop44ColorIndex
 90
        5
102
RTVSPost2010Prop44ColorRGB
 90
      255
102
RTVSPost2010PropOp44
 70
     1
102
RTVSPost2010Prop45
280
     0
102
RTVSPost2010PropOp45
 70
     1
102
RTVSPost2010Prop46
 90
       50
102
RTVSPost2010PropOp46
 70
     1
102
RTVSPost2010Prop47
 90
       50
102
RTVSPost2010PropOp47
 70
     1
102
RTVSPost2010Prop48
 90
       50
102
RTVSPost2010PropOp48
 70
     1
102
RTVSPost2010Prop49
280
     0
102
RTVSPost2010PropOp49
 70
     1
102
RTVSPost2010Prop50
 90
       50
102
RTVSPost2010PropOp50
 70
     1
102
RTVSPost2010Prop51ColorIndex
 90
      256
102
RTVSPost2010Prop51ColorRGB
 90
-16777216
102
RTVSPost2010PropOp51
 70
     0
102
RTVSPost2010Prop52
140
1.0
102
RTVSPost2010PropOp52
 70
     0
102
RTVSPost2010Prop53
 90
        2
102
RTVSPost2010PropOp53
 70
     1
102
RTVSPost2010Prop54
  1
strokes_ogs.tif
102
RTVSPost2010PropOp54
 70
     1
102
RTVSPost2010Prop55
280
     0
102
RTVSPost2010PropOp55
 70
     1
102
RTVSPost2010Prop56
140
1.0
102
RTVSPost2010PropOp56
 70
     1
102
RTVSPost2010Prop57
140
1.0
102
RTVSPost2010PropOp57
 70
     1
  0
XRECORD
  5
24B
102
{ACAD_REACTORS
330
24A
102
}
330
24A
100
AcDbXrecord
280
     1
102
RTVSPost2010Prop28
280
     0
102
RTVSPost2010PropOp28
 70
     1
102
RTVSPost2010Prop29
280
     1
102
RTVSPost2010PropOp29
 70
     1
102
RTVSPost2010Prop30
280
     1
102
RTVSPost2010PropOp30
 70
     1
102
RTVSPost2010Prop31
280
     0
102
RTVSPost2010PropOp31
 70
     1
102
RTVSPost2010Prop32
280
     0
102
RTVSPost2010PropOp32
 70
     1
102
RTVSPost2010Prop33
280
     0
102
RTVSPost2010PropOp33
 70
     1
102
RTVSPost2010Prop34
280
     0
102
RTVSPost2010PropOp34
 70
     1
102
RTVSPost2010Prop35
280
     0
102
RTVSPost2010PropOp35
 70
     1
102
RTVSPost2010Prop36
280
     0
102
RTVSPost2010PropOp36
 70
     1
102
RTVSPost2010Prop37
 90
       50
102
RTVSPost2010PropOp37
 70
     1
102
RTVSPost2010Prop38
140
0.0
102
RTVSPost2010PropOp38
 70
     1
102
RTVSPost2010Prop39
140
1.0
102
RTVSPost2010PropOp39
 70
     1
102
RTVSPost2010Prop40
 90
        0
102
RTVSPost2010PropOp40
 70
     1
102
RTVSPost2010Prop41ColorIndex
 90
       18
102
RTVSPost2010Prop41ColorRGB
 90
        0
102
RTVSPost2010PropOp41
 70
     1
102
RTVSPost2010Prop42
 90
       50
102
RTVSPost2010PropOp42
 70
     1
102
RTVSPost2010Prop43
 90
        3
102
RTVSPost2010PropOp43
 70
     1
102
RTVSPost2010Prop44ColorIndex
 90
        5
102
RTVSPost2010Prop44ColorRGB
 90
      255
102
RTVSPost2010PropOp44
 70
     1
102
RTVSPost2010Prop45
280
     0
102
RTVSPost2010PropOp45
 70
     1
102
RTVSPost2010Prop46
 90
       50
102
RTVSPost2010PropOp46
 70
     1
102
RTVSPost2010Prop47
 90
       50
102
RTVSPost2010PropOp47
 70
     1
102
RTVSPost2010Prop48
 90
       50
102
RTVSPost2010PropOp48
 70
     1
102
RTVSPost2010Prop49
280
     0
102
RTVSPost2010PropOp49
 70
     1
102
RTVSPost2010Prop50
 90
       50
102
RTVSPost2010PropOp50
 70
     1
102
RTVSPost2010Prop51ColorIndex
 90
      256
102
RTVSPost2010Prop51ColorRGB
 90
-16777216
102
RTVSPost2010PropOp51
 70
     0
102
RTVSPost2010Prop52
140
1.0
102
RTVSPost2010PropOp52
 70
     0
102
RTVSPost2010Prop53
 90
        2
102
RTVSPost2010PropOp53
 70
     1
102
RTVSPost2010Prop54
  1
strokes_ogs.tif
102
RTVSPost2010PropOp54
 70
     1
102
RTVSPost2010Prop55
280
     0
102
RTVSPost2010PropOp55
 70
     1
102
RTVSPost2010Prop56
140
1.0
102
RTVSPost2010PropOp56
 70
     1
102
RTVSPost2010Prop57
140
1.0
102
RTVSPost2010PropOp57
 70
     1
  0
XRECORD
  5
24D
102
{ACAD_REACTORS
330
24C
102
}
330
24C
100
AcDbXrecord
280
     1
102
RTVSPost2010Prop28
280
     0
102
RTVSPost2010PropOp28
 70
     1
102
RTVSPost2010Prop29
280
     1
102
RTVSPost2010PropOp29
 70
     1
102
RTVSPost2010Prop30
280
     1
102
RTVSPost2010PropOp30
 70
     1
102
RTVSPost2010Prop31
280
     0
102
RTVSPost2010PropOp31
 70
     1
102
RTVSPost2010Prop32
280
     0
102
RTVSPost2010PropOp32
 70
     1
102
RTVSPost2010Prop33
280
     0
102
RTVSPost2010PropOp33
 70
     1
102
RTVSPost2010Prop34
280
     0
102
RTVSPost2010PropOp34
 70
     1
102
RTVSPost2010Prop35
280
     0
102
RTVSPost2010PropOp35
 70
     1
102
RTVSPost2010Prop36
280
     0
102
RTVSPost2010PropOp36
 70
     1
102
RTVSPost2010Prop37
 90
       50
102
RTVSPost2010PropOp37
 70
     1
102
RTVSPost2010Prop38
140
0.0
102
RTVSPost2010PropOp38
 70
     1
102
RTVSPost2010Prop39
140
1.0
102
RTVSPost2010PropOp39
 70
     1
102
RTVSPost2010Prop40
 90
        0
102
RTVSPost2010PropOp40
 70
     1
102
RTVSPost2010Prop41ColorIndex
 90
       18
102
RTVSPost2010Prop41ColorRGB
 90
        0
102
RTVSPost2010PropOp41
 70
     1
102
RTVSPost2010Prop42
 90
       50
102
RTVSPost2010PropOp42
 70
     1
102
RTVSPost2010Prop43
 90
        3
102
RTVSPost2010PropOp43
 70
     1
102
RTVSPost2010Prop44ColorIndex
 90
        5
102
RTVSPost2010Prop44ColorRGB
 90
      255
102
RTVSPost2010PropOp44
 70
     1
102
RTVSPost2010Prop45
280
     0
102
RTVSPost2010PropOp45
 70
     1
102
RTVSPost2010Prop46
 90
       50
102
RTVSPost2010PropOp46
 70
     1
102
RTVSPost2010Prop47
 90
       50
102
RTVSPost2010PropOp47
 70
     1
102
RTVSPost2010Prop48
 90
       50
102
RTVSPost2010PropOp48
 70
     1
102
RTVSPost2010Prop49
280
     0
102
RTVSPost2010PropOp49
 70
     1
102
RTVSPost2010Prop50
 90
       50
102
RTVSPost2010PropOp50
 70
     1
102
RTVSPost2010Prop51ColorIndex
 90
      256
102
RTVSPost2010Prop51ColorRGB
 90
-16777216
102
RTVSPost2010PropOp51
 70
     0
102
RTVSPost2010Prop52
140
1.0
102
RTVSPost2010PropOp52
 70
     0
102
RTVSPost2010Prop53
 90
        2
102
RTVSPost2010PropOp53
 70
     1
102
RTVSPost2010Prop54
  1
strokes_ogs.tif
102
RTVSPost2010PropOp54
 70
     1
102
RTVSPost2010Prop55
280
     0
102
RTVSPost2010PropOp55
 70
     1
102
RTVSPost2010Prop56
140
1.0
102
RTVSPost2010PropOp56
 70
     1
102
RTVSPost2010Prop57
140
1.0
102
RTVSPost2010PropOp57
 70
     1
  0
XRECORD
  5
25D
102
{ACAD_REACTORS
330
25C
102
}
330
25C
100
AcDbXrecord
280
     1
102
RTVSPost2010Prop28
280
     0
102
RTVSPost2010PropOp28
 70
     0
102
RTVSPost2010Prop29
280
     1
102
RTVSPost2010PropOp29
 70
     0
102
RTVSPost2010Prop30
280
     1
102
RTVSPost2010PropOp30
 70
     0
102
RTVSPost2010Prop31
280
     0
102
RTVSPost2010PropOp31
 70
     0
102
RTVSPost2010Prop32
280
     0
102
RTVSPost2010PropOp32
 70
     0
102
RTVSPost2010Prop33
280
     0
102
RTVSPost2010PropOp33
 70
     0
102
RTVSPost2010Prop34
280
     0
102
RTVSPost2010PropOp34
 70
     0
102
RTVSPost2010Prop35
280
     0
102
RTVSPost2010PropOp35
 70
     0
102
RTVSPost2010Prop36
280
     0
102
RTVSPost2010PropOp36
 70
     0
102
RTVSPost2010Prop37
 90
       50
102
RTVSPost2010PropOp37
 70
     0
102
RTVSPost2010Prop38
140
0.0
102
RTVSPost2010PropOp38
 70
     0
102
RTVSPost2010Prop39
140
1.0
102
RTVSPost2010PropOp39
 70
     0
102
RTVSPost2010Prop40
 90
        0
102
RTVSPost2010PropOp40
 70
     0
102
RTVSPost2010Prop41ColorIndex
 90
       18
102
RTVSPost2010Prop41ColorRGB
 90
        0
102
RTVSPost2010PropOp41
 70
     0
102
RTVSPost2010Prop42
 90
       50
102
RTVSPost2010PropOp42
 70
     0
102
RTVSPost2010Prop43
 90
        3
102
RTVSPost2010PropOp43
 70
     0
102
RTVSPost2010Prop44ColorIndex
 90
        5
102
RTVSPost2010Prop44ColorRGB
 90
      255
102
RTVSPost2010PropOp44
 70
     0
102
RTVSPost2010Prop45
280
     0
102
RTVSPost2010PropOp45
 70
     0
102
RTVSPost2010Prop46
 90
       50
102
RTVSPost2010PropOp46
 70
     0
102
RTVSPost2010Prop47
 90
       50
102
RTVSPost2010PropOp47
 70
     0
102
RTVSPost2010Prop48
 90
       50
102
RTVSPost2010PropOp48
 70
     0
102
RTVSPost2010Prop49
280
     0
102
RTVSPost2010PropOp49
 70
     0
102
RTVSPost2010Prop50
 90
       50
102
RTVSPost2010PropOp50
 70
     0
102
RTVSPost2010Prop51ColorIndex
 90
      256
102
RTVSPost2010Prop51ColorRGB
 90
-16777216
102
RTVSPost2010PropOp51
 70
     0
102
RTVSPost2010Prop52
140
1.0
102
RTVSPost2010PropOp52
 70
     0
102
RTVSPost2010Prop53
 90
        2
102
RTVSPost2010PropOp53
 70
     0
102
RTVSPost2010Prop54
  1
strokes_ogs.tif
102
RTVSPost2010PropOp54
 70
     0
102
RTVSPost2010Prop55
280
     0
102
RTVSPost2010PropOp55
 70
     0
102
RTVSPost2010Prop56
140
1.0
102
RTVSPost2010PropOp56
 70
     0
102
RTVSPost2010Prop57
140
1.0
102
RTVSPost2010PropOp57
 70
     0
  0
XRECORD
  5
255
102
{ACAD_REACTORS
330
254
102
}
330
254
100
AcDbXrecord
280
     1
102
RTVSPost2010Prop28
280
     0
102
RTVSPost2010PropOp28
 70
     1
102
RTVSPost2010Prop29
280
     1
102
RTVSPost2010PropOp29
 70
     1
102
RTVSPost2010Prop30
280
     1
102
RTVSPost2010PropOp30
 70
     1
102
RTVSPost2010Prop31
280
     0
102
RTVSPost2010PropOp31
 70
     1
102
RTVSPost2010Prop32
280
     0
102
RTVSPost2010PropOp32
 70
     1
102
RTVSPost2010Prop33
280
     0
102
RTVSPost2010PropOp33
 70
     1
102
RTVSPost2010Prop34
280
     0
102
RTVSPost2010PropOp34
 70
     1
102
RTVSPost2010Prop35
280
     0
102
RTVSPost2010PropOp35
 70
     1
102
RTVSPost2010Prop36
280
     0
102
RTVSPost2010PropOp36
 70
     1
102
RTVSPost2010Prop37
 90
       50
102
RTVSPost2010PropOp37
 70
     1
102
RTVSPost2010Prop38
140
0.0
102
RTVSPost2010PropOp38
 70
     1
102
RTVSPost2010Prop39
140
1.0
102
RTVSPost2010PropOp39
 70
     1
102
RTVSPost2010Prop40
 90
        0
102
RTVSPost2010PropOp40
 70
     1
102
RTVSPost2010Prop41ColorIndex
 90
       18
102
RTVSPost2010Prop41ColorRGB
 90
        0
102
RTVSPost2010PropOp41
 70
     1
102
RTVSPost2010Prop42
 90
       50
102
RTVSPost2010PropOp42
 70
     1
102
RTVSPost2010Prop43
 90
        3
102
RTVSPost2010PropOp43
 70
     1
102
RTVSPost2010Prop44ColorIndex
 90
        5
102
RTVSPost2010Prop44ColorRGB
 90
      255
102
RTVSPost2010PropOp44
 70
     1
102
RTVSPost2010Prop45
280
     0
102
RTVSPost2010PropOp45
 70
     1
102
RTVSPost2010Prop46
 90
       50
102
RTVSPost2010PropOp46
 70
     1
102
RTVSPost2010Prop47
 90
       50
102
RTVSPost2010PropOp47
 70
     1
102
RTVSPost2010Prop48
 90
       50
102
RTVSPost2010PropOp48
 70
     1
102
RTVSPost2010Prop49
280
     0
102
RTVSPost2010PropOp49
 70
     1
102
RTVSPost2010Prop50
 90
       50
102
RTVSPost2010PropOp50
 70
     1
102
RTVSPost2010Prop51ColorIndex
 90
      256
102
RTVSPost2010Prop51ColorRGB
 90
-16777216
102
RTVSPost2010PropOp51
 70
     0
102
RTVSPost2010Prop52
140
1.0
102
RTVSPost2010PropOp52
 70
     0
102
RTVSPost2010Prop53
 90
        2
102
RTVSPost2010PropOp53
 70
     1
102
RTVSPost2010Prop54
  1
strokes_ogs.tif
102
RTVSPost2010PropOp54
 70
     1
102
RTVSPost2010Prop55
280
     0
102
RTVSPost2010PropOp55
 70
     1
102
RTVSPost2010Prop56
140
1.0
102
RTVSPost2010PropOp56
 70
     1
102
RTVSPost2010Prop57
140
1.0
102
RTVSPost2010PropOp57
 70
     1
  0
XRECORD
  5
239
102
{ACAD_REACTORS
330
238
102
}
330
238
100
AcDbXrecord
280
     1
102
RTVSPost2010Prop28
280
     0
102
RTVSPost2010PropOp28
 70
     1
102
RTVSPost2010Prop29
280
     1
102
RTVSPost2010PropOp29
 70
     1
102
RTVSPost2010Prop30
280
     1
102
RTVSPost2010PropOp30
 70
     1
102
RTVSPost2010Prop31
280
     0
102
RTVSPost2010PropOp31
 70
     1
102
RTVSPost2010Prop32
280
     0
102
RTVSPost2010PropOp32
 70
     1
102
RTVSPost2010Prop33
280
     0
102
RTVSPost2010PropOp33
 70
     1
102
RTVSPost2010Prop34
280
     0
102
RTVSPost2010PropOp34
 70
     1
102
RTVSPost2010Prop35
280
     0
102
RTVSPost2010PropOp35
 70
     1
102
RTVSPost2010Prop36
280
     0
102
RTVSPost2010PropOp36
 70
     1
102
RTVSPost2010Prop37
 90
       50
102
RTVSPost2010PropOp37
 70
     1
102
RTVSPost2010Prop38
140
0.0
102
RTVSPost2010PropOp38
 70
     1
102
RTVSPost2010Prop39
140
1.0
102
RTVSPost2010PropOp39
 70
     1
102
RTVSPost2010Prop40
 90
        0
102
RTVSPost2010PropOp40
 70
     1
102
RTVSPost2010Prop41ColorIndex
 90
       18
102
RTVSPost2010Prop41ColorRGB
 90
        0
102
RTVSPost2010PropOp41
 70
     1
102
RTVSPost2010Prop42
 90
       50
102
RTVSPost2010PropOp42
 70
     1
102
RTVSPost2010Prop43
 90
        3
102
RTVSPost2010PropOp43
 70
     1
102
RTVSPost2010Prop44ColorIndex
 90
        5
102
RTVSPost2010Prop44ColorRGB
 90
      255
102
RTVSPost2010PropOp44
 70
     1
102
RTVSPost2010Prop45
280
     0
102
RTVSPost2010PropOp45
 70
     1
102
RTVSPost2010Prop46
 90
       50
102
RTVSPost2010PropOp46
 70
     1
102
RTVSPost2010Prop47
 90
       50
102
RTVSPost2010PropOp47
 70
     1
102
RTVSPost2010Prop48
 90
       50
102
RTVSPost2010PropOp48
 70
     1
102
RTVSPost2010Prop49
280
     0
102
RTVSPost2010PropOp49
 70
     1
102
RTVSPost2010Prop50
 90
       50
102
RTVSPost2010PropOp50
 70
     1
102
RTVSPost2010Prop51ColorIndex
 90
      256
102
RTVSPost2010Prop51ColorRGB
 90
-16777216
102
RTVSPost2010PropOp51
 70
     0
102
RTVSPost2010Prop52
140
1.0
102
RTVSPost2010PropOp52
 70
     0
102
RTVSPost2010Prop53
 90
        2
102
RTVSPost2010PropOp53
 70
     1
102
RTVSPost2010Prop54
  1
strokes_ogs.tif
102
RTVSPost2010PropOp54
 70
     1
102
RTVSPost2010Prop55
280
     0
102
RTVSPost2010PropOp55
 70
     1
102
RTVSPost2010Prop56
140
1.0
102
RTVSPost2010PropOp56
 70
     1
102
RTVSPost2010Prop57
140
1.0
102
RTVSPost2010PropOp57
 70
     1
  0
XRECORD
  5
23B
102
{ACAD_REACTORS
330
23A
102
}
330
23A
100
AcDbXrecord
280
     1
102
RTVSPost2010Prop28
280
     0
102
RTVSPost2010PropOp28
 70
     1
102
RTVSPost2010Prop29
280
     1
102
RTVSPost2010PropOp29
 70
     1
102
RTVSPost2010Prop30
280
     1
102
RTVSPost2010PropOp30
 70
     1
102
RTVSPost2010Prop31
280
     0
102
RTVSPost2010PropOp31
 70
     1
102
RTVSPost2010Prop32
280
     0
102
RTVSPost2010PropOp32
 70
     1
102
RTVSPost2010Prop33
280
     0
102
RTVSPost2010PropOp33
 70
     1
102
RTVSPost2010Prop34
280
     0
102
RTVSPost2010PropOp34
 70
     1
102
RTVSPost2010Prop35
280
     0
102
RTVSPost2010PropOp35
 70
     1
102
RTVSPost2010Prop36
280
     0
102
RTVSPost2010PropOp36
 70
     1
102
RTVSPost2010Prop37
 90
       50
102
RTVSPost2010PropOp37
 70
     1
102
RTVSPost2010Prop38
140
0.0
102
RTVSPost2010PropOp38
 70
     1
102
RTVSPost2010Prop39
140
1.0
102
RTVSPost2010PropOp39
 70
     1
102
RTVSPost2010Prop40
 90
        0
102
RTVSPost2010PropOp40
 70
     1
102
RTVSPost2010Prop41ColorIndex
 90
       18
102
RTVSPost2010Prop41ColorRGB
 90
        0
102
RTVSPost2010PropOp41
 70
     1
102
RTVSPost2010Prop42
 90
       50
102
RTVSPost2010PropOp42
 70
     1
102
RTVSPost2010Prop43
 90
        3
102
RTVSPost2010PropOp43
 70
     1
102
RTVSPost2010Prop44ColorIndex
 90
        5
102
RTVSPost2010Prop44ColorRGB
 90
      255
102
RTVSPost2010PropOp44
 70
     1
102
RTVSPost2010Prop45
280
     0
102
RTVSPost2010PropOp45
 70
     1
102
RTVSPost2010Prop46
 90
       50
102
RTVSPost2010PropOp46
 70
     1
102
RTVSPost2010Prop47
 90
       50
102
RTVSPost2010PropOp47
 70
     1
102
RTVSPost2010Prop48
 90
       50
102
RTVSPost2010PropOp48
 70
     1
102
RTVSPost2010Prop49
280
     0
102
RTVSPost2010PropOp49
 70
     1
102
RTVSPost2010Prop50
 90
       50
102
RTVSPost2010PropOp50
 70
     1
102
RTVSPost2010Prop51ColorIndex
 90
      256
102
RTVSPost2010Prop51ColorRGB
 90
-16777216
102
RTVSPost2010PropOp51
 70
     0
102
RTVSPost2010Prop52
140
1.0
102
RTVSPost2010PropOp52
 70
     0
102
RTVSPost2010Prop53
 90
        2
102
RTVSPost2010PropOp53
 70
     1
102
RTVSPost2010Prop54
  1
strokes_ogs.tif
102
RTVSPost2010PropOp54
 70
     1
102
RTVSPost2010Prop55
280
     0
102
RTVSPost2010PropOp55
 70
     1
102
RTVSPost2010Prop56
140
1.0
102
RTVSPost2010PropOp56
 70
     1
102
RTVSPost2010Prop57
140
1.0
102
RTVSPost2010PropOp57
 70
     1
  0
XRECORD
  5
23D
102
{ACAD_REACTORS
330
23C
102
}
330
23C
100
AcDbXrecord
280
     1
102
RTVSPost2010Prop28
280
     0
102
RTVSPost2010PropOp28
 70
     1
102
RTVSPost2010Prop29
280
     1
102
RTVSPost2010PropOp29
 70
     1
102
RTVSPost2010Prop30
280
     1
102
RTVSPost2010PropOp30
 70
     1
102
RTVSPost2010Prop31
280
     0
102
RTVSPost2010PropOp31
 70
     1
102
RTVSPost2010Prop32
280
     0
102
RTVSPost2010PropOp32
 70
     1
102
RTVSPost2010Prop33
280
     0
102
RTVSPost2010PropOp33
 70
     1
102
RTVSPost2010Prop34
280
     0
102
RTVSPost2010PropOp34
 70
     1
102
RTVSPost2010Prop35
280
     0
102
RTVSPost2010PropOp35
 70
     1
102
RTVSPost2010Prop36
280
     0
102
RTVSPost2010PropOp36
 70
     1
102
RTVSPost2010Prop37
 90
       50
102
RTVSPost2010PropOp37
 70
     1
102
RTVSPost2010Prop38
140
0.0
102
RTVSPost2010PropOp38
 70
     1
102
RTVSPost2010Prop39
140
1.0
102
RTVSPost2010PropOp39
 70
     1
102
RTVSPost2010Prop40
 90
        0
102
RTVSPost2010PropOp40
 70
     1
102
RTVSPost2010Prop41ColorIndex
 90
       18
102
RTVSPost2010Prop41ColorRGB
 90
        0
102
RTVSPost2010PropOp41
 70
     1
102
RTVSPost2010Prop42
 90
       50
102
RTVSPost2010PropOp42
 70
     1
102
RTVSPost2010Prop43
 90
        3
102
RTVSPost2010PropOp43
 70
     1
102
RTVSPost2010Prop44ColorIndex
 90
        5
102
RTVSPost2010Prop44ColorRGB
 90
      255
102
RTVSPost2010PropOp44
 70
     1
102
RTVSPost2010Prop45
280
     0
102
RTVSPost2010PropOp45
 70
     1
102
RTVSPost2010Prop46
 90
       50
102
RTVSPost2010PropOp46
 70
     1
102
RTVSPost2010Prop47
 90
       50
102
RTVSPost2010PropOp47
 70
     1
102
RTVSPost2010Prop48
 90
       50
102
RTVSPost2010PropOp48
 70
     1
102
RTVSPost2010Prop49
280
     0
102
RTVSPost2010PropOp49
 70
     1
102
RTVSPost2010Prop50
 90
       50
102
RTVSPost2010PropOp50
 70
     1
102
RTVSPost2010Prop51ColorIndex
 90
      256
102
RTVSPost2010Prop51ColorRGB
 90
-16777216
102
RTVSPost2010PropOp51
 70
     0
102
RTVSPost2010Prop52
140
1.0
102
RTVSPost2010PropOp52
 70
     0
102
RTVSPost2010Prop53
 90
        2
102
RTVSPost2010PropOp53
 70
     1
102
RTVSPost2010Prop54
  1
strokes_ogs.tif
102
RTVSPost2010PropOp54
 70
     1
102
RTVSPost2010Prop55
280
     0
102
RTVSPost2010PropOp55
 70
     1
102
RTVSPost2010Prop56
140
1.0
102
RTVSPost2010PropOp56
 70
     1
102
RTVSPost2010Prop57
140
1.0
102
RTVSPost2010PropOp57
 70
     1
  0
XRECORD
  5
23F
102
{ACAD_REACTORS
330
23E
102
}
330
23E
100
AcDbXrecord
280
     1
102
RTVSPost2010Prop28
280
     0
102
RTVSPost2010PropOp28
 70
     1
102
RTVSPost2010Prop29
280
     1
102
RTVSPost2010PropOp29
 70
     1
102
RTVSPost2010Prop30
280
     1
102
RTVSPost2010PropOp30
 70
     1
102
RTVSPost2010Prop31
280
     0
102
RTVSPost2010PropOp31
 70
     1
102
RTVSPost2010Prop32
280
     0
102
RTVSPost2010PropOp32
 70
     1
102
RTVSPost2010Prop33
280
     0
102
RTVSPost2010PropOp33
 70
     1
102
RTVSPost2010Prop34
280
     0
102
RTVSPost2010PropOp34
 70
     1
102
RTVSPost2010Prop35
280
     0
102
RTVSPost2010PropOp35
 70
     1
102
RTVSPost2010Prop36
280
     0
102
RTVSPost2010PropOp36
 70
     1
102
RTVSPost2010Prop37
 90
       50
102
RTVSPost2010PropOp37
 70
     1
102
RTVSPost2010Prop38
140
0.0
102
RTVSPost2010PropOp38
 70
     1
102
RTVSPost2010Prop39
140
1.0
102
RTVSPost2010PropOp39
 70
     1
102
RTVSPost2010Prop40
 90
        0
102
RTVSPost2010PropOp40
 70
     1
102
RTVSPost2010Prop41ColorIndex
 90
       18
102
RTVSPost2010Prop41ColorRGB
 90
        0
102
RTVSPost2010PropOp41
 70
     1
102
RTVSPost2010Prop42
 90
       50
102
RTVSPost2010PropOp42
 70
     1
102
RTVSPost2010Prop43
 90
        3
102
RTVSPost2010PropOp43
 70
     1
102
RTVSPost2010Prop44ColorIndex
 90
        5
102
RTVSPost2010Prop44ColorRGB
 90
      255
102
RTVSPost2010PropOp44
 70
     1
102
RTVSPost2010Prop45
280
     0
102
RTVSPost2010PropOp45
 70
     1
102
RTVSPost2010Prop46
 90
       50
102
RTVSPost2010PropOp46
 70
     1
102
RTVSPost2010Prop47
 90
       50
102
RTVSPost2010PropOp47
 70
     1
102
RTVSPost2010Prop48
 90
       50
102
RTVSPost2010PropOp48
 70
     1
102
RTVSPost2010Prop49
280
     0
102
RTVSPost2010PropOp49
 70
     1
102
RTVSPost2010Prop50
 90
       50
102
RTVSPost2010PropOp50
 70
     1
102
RTVSPost2010Prop51ColorIndex
 90
      256
102
RTVSPost2010Prop51ColorRGB
 90
-16777216
102
RTVSPost2010PropOp51
 70
     0
102
RTVSPost2010Prop52
140
1.0
102
RTVSPost2010PropOp52
 70
     0
102
RTVSPost2010Prop53
 90
        2
102
RTVSPost2010PropOp53
 70
     1
102
RTVSPost2010Prop54
  1
strokes_ogs.tif
102
RTVSPost2010PropOp54
 70
     1
102
RTVSPost2010Prop55
280
     0
102
RTVSPost2010PropOp55
 70
     1
102
RTVSPost2010Prop56
140
1.0
102
RTVSPost2010PropOp56
 70
     1
102
RTVSPost2010Prop57
140
1.0
102
RTVSPost2010PropOp57
 70
     1
  0
XRECORD
  5
245
102
{ACAD_REACTORS
330
244
102
}
330
244
100
AcDbXrecord
280
     1
102
RTVSPost2010Prop28
280
     0
102
RTVSPost2010PropOp28
 70
     1
102
RTVSPost2010Prop29
280
     1
102
RTVSPost2010PropOp29
 70
     1
102
RTVSPost2010Prop30
280
     1
102
RTVSPost2010PropOp30
 70
     1
102
RTVSPost2010Prop31
280
     0
102
RTVSPost2010PropOp31
 70
     1
102
RTVSPost2010Prop32
280
     0
102
RTVSPost2010PropOp32
 70
     1
102
RTVSPost2010Prop33
280
     0
102
RTVSPost2010PropOp33
 70
     1
102
RTVSPost2010Prop34
280
     0
102
RTVSPost2010PropOp34
 70
     1
102
RTVSPost2010Prop35
280
     0
102
RTVSPost2010PropOp35
 70
     1
102
RTVSPost2010Prop36
280
     0
102
RTVSPost2010PropOp36
 70
     1
102
RTVSPost2010Prop37
 90
       50
102
RTVSPost2010PropOp37
 70
     1
102
RTVSPost2010Prop38
140
0.0
102
RTVSPost2010PropOp38
 70
     1
102
RTVSPost2010Prop39
140
1.0
102
RTVSPost2010PropOp39
 70
     1
102
RTVSPost2010Prop40
 90
        0
102
RTVSPost2010PropOp40
 70
     1
102
RTVSPost2010Prop41ColorIndex
 90
       18
102
RTVSPost2010Prop41ColorRGB
 90
        0
102
RTVSPost2010PropOp41
 70
     1
102
RTVSPost2010Prop42
 90
       50
102
RTVSPost2010PropOp42
 70
     1
102
RTVSPost2010Prop43
 90
        3
102
RTVSPost2010PropOp43
 70
     1
102
RTVSPost2010Prop44ColorIndex
 90
        5
102
RTVSPost2010Prop44ColorRGB
 90
      255
102
RTVSPost2010PropOp44
 70
     1
102
RTVSPost2010Prop45
280
     0
102
RTVSPost2010PropOp45
 70
     1
102
RTVSPost2010Prop46
 90
       50
102
RTVSPost2010PropOp46
 70
     1
102
RTVSPost2010Prop47
 90
       50
102
RTVSPost2010PropOp47
 70
     1
102
RTVSPost2010Prop48
 90
       50
102
RTVSPost2010PropOp48
 70
     1
102
RTVSPost2010Prop49
280
     0
102
RTVSPost2010PropOp49
 70
     1
102
RTVSPost2010Prop50
 90
       50
102
RTVSPost2010PropOp50
 70
     1
102
RTVSPost2010Prop51ColorIndex
 90
      256
102
RTVSPost2010Prop51ColorRGB
 90
-16777216
102
RTVSPost2010PropOp51
 70
     0
102
RTVSPost2010Prop52
140
1.0
102
RTVSPost2010PropOp52
 70
     0
102
RTVSPost2010Prop53
 90
        2
102
RTVSPost2010PropOp53
 70
     1
102
RTVSPost2010Prop54
  1
strokes_ogs.tif
102
RTVSPost2010PropOp54
 70
     1
102
RTVSPost2010Prop55
280
     0
102
RTVSPost2010PropOp55
 70
     1
102
RTVSPost2010Prop56
140
1.0
102
RTVSPost2010PropOp56
 70
     1
102
RTVSPost2010Prop57
140
1.0
102
RTVSPost2010PropOp57
 70
     1
  0
XRECORD
  5
259
102
{ACAD_REACTORS
330
258
102
}
330
258
100
AcDbXrecord
280
     1
102
RTVSPost2010Prop28
280
     0
102
RTVSPost2010PropOp28
 70
     0
102
RTVSPost2010Prop29
280
     1
102
RTVSPost2010PropOp29
 70
     0
102
RTVSPost2010Prop30
280
     1
102
RTVSPost2010PropOp30
 70
     0
102
RTVSPost2010Prop31
280
     0
102
RTVSPost2010PropOp31
 70
     0
102
RTVSPost2010Prop32
280
     0
102
RTVSPost2010PropOp32
 70
     0
102
RTVSPost2010Prop33
280
     0
102
RTVSPost2010PropOp33
 70
     0
102
RTVSPost2010Prop34
280
     0
102
RTVSPost2010PropOp34
 70
     0
102
RTVSPost2010Prop35
280
     0
102
RTVSPost2010PropOp35
 70
     0
102
RTVSPost2010Prop36
280
     0
102
RTVSPost2010PropOp36
 70
     0
102
RTVSPost2010Prop37
 90
       50
102
RTVSPost2010PropOp37
 70
     0
102
RTVSPost2010Prop38
140
0.0
102
RTVSPost2010PropOp38
 70
     0
102
RTVSPost2010Prop39
140
1.0
102
RTVSPost2010PropOp39
 70
     0
102
RTVSPost2010Prop40
 90
        0
102
RTVSPost2010PropOp40
 70
     0
102
RTVSPost2010Prop41ColorIndex
 90
       18
102
RTVSPost2010Prop41ColorRGB
 90
        0
102
RTVSPost2010PropOp41
 70
     0
102
RTVSPost2010Prop42
 90
       50
102
RTVSPost2010PropOp42
 70
     0
102
RTVSPost2010Prop43
 90
        3
102
RTVSPost2010PropOp43
 70
     0
102
RTVSPost2010Prop44ColorIndex
 90
        5
102
RTVSPost2010Prop44ColorRGB
 90
      255
102
RTVSPost2010PropOp44
 70
     0
102
RTVSPost2010Prop45
280
     0
102
RTVSPost2010PropOp45
 70
     0
102
RTVSPost2010Prop46
 90
       50
102
RTVSPost2010PropOp46
 70
     0
102
RTVSPost2010Prop47
 90
       50
102
RTVSPost2010PropOp47
 70
     0
102
RTVSPost2010Prop48
 90
       50
102
RTVSPost2010PropOp48
 70
     0
102
RTVSPost2010Prop49
280
     0
102
RTVSPost2010PropOp49
 70
     0
102
RTVSPost2010Prop50
 90
       50
102
RTVSPost2010PropOp50
 70
     0
102
RTVSPost2010Prop51ColorIndex
 90
      256
102
RTVSPost2010Prop51ColorRGB
 90
-16777216
102
RTVSPost2010PropOp51
 70
     0
102
RTVSPost2010Prop52
140
1.0
102
RTVSPost2010PropOp52
 70
     0
102
RTVSPost2010Prop53
 90
        2
102
RTVSPost2010PropOp53
 70
     0
102
RTVSPost2010Prop54
  1
strokes_ogs.tif
102
RTVSPost2010PropOp54
 70
     0
102
RTVSPost2010Prop55
280
     0
102
RTVSPost2010PropOp55
 70
     0
102
RTVSPost2010Prop56
140
1.0
102
RTVSPost2010PropOp56
 70
     0
102
RTVSPost2010Prop57
140
1.0
102
RTVSPost2010PropOp57
 70
     0
  0
XRECORD
  5
253
102
{ACAD_REACTORS
330
252
102
}
330
252
100
AcDbXrecord
280
     1
102
RTVSPost2010Prop28
280
     0
102
RTVSPost2010PropOp28
 70
     1
102
RTVSPost2010Prop29
280
     1
102
RTVSPost2010PropOp29
 70
     1
102
RTVSPost2010Prop30
280
     1
102
RTVSPost2010PropOp30
 70
     1
102
RTVSPost2010Prop31
280
     0
102
RTVSPost2010PropOp31
 70
     1
102
RTVSPost2010Prop32
280
     0
102
RTVSPost2010PropOp32
 70
     1
102
RTVSPost2010Prop33
280
     0
102
RTVSPost2010PropOp33
 70
     1
102
RTVSPost2010Prop34
280
     0
102
RTVSPost2010PropOp34
 70
     1
102
RTVSPost2010Prop35
280
     0
102
RTVSPost2010PropOp35
 70
     1
102
RTVSPost2010Prop36
280
     0
102
RTVSPost2010PropOp36
 70
     1
102
RTVSPost2010Prop37
 90
       50
102
RTVSPost2010PropOp37
 70
     1
102
RTVSPost2010Prop38
140
0.0
102
RTVSPost2010PropOp38
 70
     1
102
RTVSPost2010Prop39
140
1.0
102
RTVSPost2010PropOp39
 70
     1
102
RTVSPost2010Prop40
 90
        0
102
RTVSPost2010PropOp40
 70
     1
102
RTVSPost2010Prop41ColorIndex
 90
       18
102
RTVSPost2010Prop41ColorRGB
 90
        0
102
RTVSPost2010PropOp41
 70
     1
102
RTVSPost2010Prop42
 90
       50
102
RTVSPost2010PropOp42
 70
     1
102
RTVSPost2010Prop43
 90
        3
102
RTVSPost2010PropOp43
 70
     1
102
RTVSPost2010Prop44ColorIndex
 90
        5
102
RTVSPost2010Prop44ColorRGB
 90
      255
102
RTVSPost2010PropOp44
 70
     1
102
RTVSPost2010Prop45
280
     0
102
RTVSPost2010PropOp45
 70
     1
102
RTVSPost2010Prop46
 90
       50
102
RTVSPost2010PropOp46
 70
     1
102
RTVSPost2010Prop47
 90
       50
102
RTVSPost2010PropOp47
 70
     1
102
RTVSPost2010Prop48
 90
       50
102
RTVSPost2010PropOp48
 70
     1
102
RTVSPost2010Prop49
280
     0
102
RTVSPost2010PropOp49
 70
     1
102
RTVSPost2010Prop50
 90
       50
102
RTVSPost2010PropOp50
 70
     1
102
RTVSPost2010Prop51ColorIndex
 90
      256
102
RTVSPost2010Prop51ColorRGB
 90
-16777216
102
RTVSPost2010PropOp51
 70
     0
102
RTVSPost2010Prop52
140
1.0
102
RTVSPost2010PropOp52
 70
     0
102
RTVSPost2010Prop53
 90
        2
102
RTVSPost2010PropOp53
 70
     1
102
RTVSPost2010Prop54
  1
strokes_ogs.tif
102
RTVSPost2010PropOp54
 70
     1
102
RTVSPost2010Prop55
280
     0
102
RTVSPost2010PropOp55
 70
     1
102
RTVSPost2010Prop56
140
1.0
102
RTVSPost2010PropOp56
 70
     1
102
RTVSPost2010Prop57
140
1.0
102
RTVSPost2010PropOp57
 70
     1
  0
XRECORD
  5
25B
102
{ACAD_REACTORS
330
25A
102
}
330
25A
100
AcDbXrecord
280
     1
102
RTVSPost2010Prop28
280
     0
102
RTVSPost2010PropOp28
 70
     0
102
RTVSPost2010Prop29
280
     1
102
RTVSPost2010PropOp29
 70
     0
102
RTVSPost2010Prop30
280
     1
102
RTVSPost2010PropOp30
 70
     0
102
RTVSPost2010Prop31
280
     0
102
RTVSPost2010PropOp31
 70
     0
102
RTVSPost2010Prop32
280
     0
102
RTVSPost2010PropOp32
 70
     0
102
RTVSPost2010Prop33
280
     0
102
RTVSPost2010PropOp33
 70
     0
102
RTVSPost2010Prop34
280
     0
102
RTVSPost2010PropOp34
 70
     0
102
RTVSPost2010Prop35
280
     0
102
RTVSPost2010PropOp35
 70
     0
102
RTVSPost2010Prop36
280
     0
102
RTVSPost2010PropOp36
 70
     0
102
RTVSPost2010Prop37
 90
       50
102
RTVSPost2010PropOp37
 70
     0
102
RTVSPost2010Prop38
140
0.0
102
RTVSPost2010PropOp38
 70
     0
102
RTVSPost2010Prop39
140
1.0
102
RTVSPost2010PropOp39
 70
     0
102
RTVSPost2010Prop40
 90
        0
102
RTVSPost2010PropOp40
 70
     0
102
RTVSPost2010Prop41ColorIndex
 90
       18
102
RTVSPost2010Prop41ColorRGB
 90
        0
102
RTVSPost2010PropOp41
 70
     0
102
RTVSPost2010Prop42
 90
       50
102
RTVSPost2010PropOp42
 70
     0
102
RTVSPost2010Prop43
 90
        3
102
RTVSPost2010PropOp43
 70
     0
102
RTVSPost2010Prop44ColorIndex
 90
        5
102
RTVSPost2010Prop44ColorRGB
 90
      255
102
RTVSPost2010PropOp44
 70
     0
102
RTVSPost2010Prop45
280
     0
102
RTVSPost2010PropOp45
 70
     0
102
RTVSPost2010Prop46
 90
       50
102
RTVSPost2010PropOp46
 70
     0
102
RTVSPost2010Prop47
 90
       50
102
RTVSPost2010PropOp47
 70
     0
102
RTVSPost2010Prop48
 90
       50
102
RTVSPost2010PropOp48
 70
     0
102
RTVSPost2010Prop49
280
     0
102
RTVSPost2010PropOp49
 70
     0
102
RTVSPost2010Prop50
 90
       50
102
RTVSPost2010PropOp50
 70
     0
102
RTVSPost2010Prop51ColorIndex
 90
      256
102
RTVSPost2010Prop51ColorRGB
 90
-16777216
102
RTVSPost2010PropOp51
 70
     0
102
RTVSPost2010Prop52
140
1.0
102
RTVSPost2010PropOp52
 70
     0
102
RTVSPost2010Prop53
 90
        2
102
RTVSPost2010PropOp53
 70
     0
102
RTVSPost2010Prop54
  1
strokes_ogs.tif
102
RTVSPost2010PropOp54
 70
     0
102
RTVSPost2010Prop55
280
     0
102
RTVSPost2010PropOp55
 70
     0
102
RTVSPost2010Prop56
140
1.0
102
RTVSPost2010PropOp56
 70
     0
102
RTVSPost2010Prop57
140
1.0
102
RTVSPost2010PropOp57
 70
     0
  0
XRECORD
  5
249
102
{ACAD_REACTORS
330
248
102
}
330
248
100
AcDbXrecord
280
     1
102
RTVSPost2010Prop28
280
     0
102
RTVSPost2010PropOp28
 70
     1
102
RTVSPost2010Prop29
280
     1
102
RTVSPost2010PropOp29
 70
     1
102
RTVSPost2010Prop30
280
     1
102
RTVSPost2010PropOp30
 70
     1
102
RTVSPost2010Prop31
280
     0
102
RTVSPost2010PropOp31
 70
     1
102
RTVSPost2010Prop32
280
     0
102
RTVSPost2010PropOp32
 70
     1
102
RTVSPost2010Prop33
280
     0
102
RTVSPost2010PropOp33
 70
     1
102
RTVSPost2010Prop34
280
     0
102
RTVSPost2010PropOp34
 70
     1
102
RTVSPost2010Prop35
280
     0
102
RTVSPost2010PropOp35
 70
     1
102
RTVSPost2010Prop36
280
     0
102
RTVSPost2010PropOp36
 70
     1
102
RTVSPost2010Prop37
 90
       50
102
RTVSPost2010PropOp37
 70
     1
102
RTVSPost2010Prop38
140
0.0
102
RTVSPost2010PropOp38
 70
     1
102
RTVSPost2010Prop39
140
1.0
102
RTVSPost2010PropOp39
 70
     1
102
RTVSPost2010Prop40
 90
        0
102
RTVSPost2010PropOp40
 70
     1
102
RTVSPost2010Prop41ColorIndex
 90
       18
102
RTVSPost2010Prop41ColorRGB
 90
        0
102
RTVSPost2010PropOp41
 70
     1
102
RTVSPost2010Prop42
 90
       50
102
RTVSPost2010PropOp42
 70
     1
102
RTVSPost2010Prop43
 90
        3
102
RTVSPost2010PropOp43
 70
     1
102
RTVSPost2010Prop44ColorIndex
 90
        5
102
RTVSPost2010Prop44ColorRGB
 90
      255
102
RTVSPost2010PropOp44
 70
     1
102
RTVSPost2010Prop45
280
     0
102
RTVSPost2010PropOp45
 70
     1
102
RTVSPost2010Prop46
 90
       50
102
RTVSPost2010PropOp46
 70
     1
102
RTVSPost2010Prop47
 90
       50
102
RTVSPost2010PropOp47
 70
     1
102
RTVSPost2010Prop48
 90
       50
102
RTVSPost2010PropOp48
 70
     1
102
RTVSPost2010Prop49
280
     0
102
RTVSPost2010PropOp49
 70
     1
102
RTVSPost2010Prop50
 90
       50
102
RTVSPost2010PropOp50
 70
     1
102
RTVSPost2010Prop51ColorIndex
 90
      256
102
RTVSPost2010Prop51ColorRGB
 90
-16777216
102
RTVSPost2010PropOp51
 70
     0
102
RTVSPost2010Prop52
140
1.0
102
RTVSPost2010PropOp52
 70
     0
102
RTVSPost2010Prop53
 90
        2
102
RTVSPost2010PropOp53
 70
     1
102
RTVSPost2010Prop54
  1
strokes_ogs.tif
102
RTVSPost2010PropOp54
 70
     1
102
RTVSPost2010Prop55
280
     0
102
RTVSPost2010PropOp55
 70
     1
102
RTVSPost2010Prop56
140
1.0
102
RTVSPost2010PropOp56
 70
     1
102
RTVSPost2010Prop57
140
1.0
102
RTVSPost2010PropOp57
 70
     1
  0
XRECORD
  5
267
102
{ACAD_REACTORS
330
266
102
}
330
266
100
AcDbXrecord
280
     1
102
RTVSPost2010Prop28
280
     0
102
RTVSPost2010PropOp28
 70
     1
102
RTVSPost2010Prop29
280
     1
102
RTVSPost2010PropOp29
 70
     1
102
RTVSPost2010Prop30
280
     1
102
RTVSPost2010PropOp30
 70
     1
102
RTVSPost2010Prop31
280
     0
102
RTVSPost2010PropOp31
 70
     1
102
RTVSPost2010Prop32
280
     0
102
RTVSPost2010PropOp32
 70
     1
102
RTVSPost2010Prop33
280
     0
102
RTVSPost2010PropOp33
 70
     1
102
RTVSPost2010Prop34
280
     0
102
RTVSPost2010PropOp34
 70
     1
102
RTVSPost2010Prop35
280
     0
102
RTVSPost2010PropOp35
 70
     1
102
RTVSPost2010Prop36
280
     0
102
RTVSPost2010PropOp36
 70
     1
102
RTVSPost2010Prop37
 90
       50
102
RTVSPost2010PropOp37
 70
     1
102
RTVSPost2010Prop38
140
0.0
102
RTVSPost2010PropOp38
 70
     1
102
RTVSPost2010Prop39
140
1.0
102
RTVSPost2010PropOp39
 70
     1
102
RTVSPost2010Prop40
 90
        0
102
RTVSPost2010PropOp40
 70
     1
102
RTVSPost2010Prop41ColorIndex
 90
       18
102
RTVSPost2010Prop41ColorRGB
 90
        0
102
RTVSPost2010PropOp41
 70
     1
102
RTVSPost2010Prop42
 90
       50
102
RTVSPost2010PropOp42
 70
     1
102
RTVSPost2010Prop43
 90
        3
102
RTVSPost2010PropOp43
 70
     1
102
RTVSPost2010Prop44ColorIndex
 90
        5
102
RTVSPost2010Prop44ColorRGB
 90
      255
102
RTVSPost2010PropOp44
 70
     1
102
RTVSPost2010Prop45
280
     0
102
RTVSPost2010PropOp45
 70
     1
102
RTVSPost2010Prop46
 90
       50
102
RTVSPost2010PropOp46
 70
     1
102
RTVSPost2010Prop47
 90
       50
102
RTVSPost2010PropOp47
 70
     1
102
RTVSPost2010Prop48
 90
       50
102
RTVSPost2010PropOp48
 70
     1
102
RTVSPost2010Prop49
280
     0
102
RTVSPost2010PropOp49
 70
     1
102
RTVSPost2010Prop50
 90
       50
102
RTVSPost2010PropOp50
 70
     1
102
RTVSPost2010Prop51ColorIndex
 90
      256
102
RTVSPost2010Prop51ColorRGB
 90
-16777216
102
RTVSPost2010PropOp51
 70
     0
102
RTVSPost2010Prop52
140
1.0
102
RTVSPost2010PropOp52
 70
     0
102
RTVSPost2010Prop53
 90
        2
102
RTVSPost2010PropOp53
 70
     1
102
RTVSPost2010Prop54
  1
strokes_ogs.tif
102
RTVSPost2010PropOp54
 70
     1
102
RTVSPost2010Prop55
280
     0
102
RTVSPost2010PropOp55
 70
     1
102
RTVSPost2010Prop56
140
1.0
102
RTVSPost2010PropOp56
 70
     1
102
RTVSPost2010Prop57
140
1.0
102
RTVSPost2010PropOp57
 70
     1
  0
XRECORD
  5
265
102
{ACAD_REACTORS
330
264
102
}
330
264
100
AcDbXrecord
280
     1
102
RTVSPost2010Prop28
280
     0
102
RTVSPost2010PropOp28
 70
     1
102
RTVSPost2010Prop29
280
     1
102
RTVSPost2010PropOp29
 70
     1
102
RTVSPost2010Prop30
280
     1
102
RTVSPost2010PropOp30
 70
     1
102
RTVSPost2010Prop31
280
     0
102
RTVSPost2010PropOp31
 70
     1
102
RTVSPost2010Prop32
280
     0
102
RTVSPost2010PropOp32
 70
     1
102
RTVSPost2010Prop33
280
     0
102
RTVSPost2010PropOp33
 70
     1
102
RTVSPost2010Prop34
280
     0
102
RTVSPost2010PropOp34
 70
     1
102
RTVSPost2010Prop35
280
     0
102
RTVSPost2010PropOp35
 70
     1
102
RTVSPost2010Prop36
280
     0
102
RTVSPost2010PropOp36
 70
     1
102
RTVSPost2010Prop37
 90
       50
102
RTVSPost2010PropOp37
 70
     1
102
RTVSPost2010Prop38
140
0.0
102
RTVSPost2010PropOp38
 70
     1
102
RTVSPost2010Prop39
140
1.0
102
RTVSPost2010PropOp39
 70
     1
102
RTVSPost2010Prop40
 90
        0
102
RTVSPost2010PropOp40
 70
     1
102
RTVSPost2010Prop41ColorIndex
 90
       18
102
RTVSPost2010Prop41ColorRGB
 90
        0
102
RTVSPost2010PropOp41
 70
     1
102
RTVSPost2010Prop42
 90
       50
102
RTVSPost2010PropOp42
 70
     1
102
RTVSPost2010Prop43
 90
        3
102
RTVSPost2010PropOp43
 70
     1
102
RTVSPost2010Prop44ColorIndex
 90
        5
102
RTVSPost2010Prop44ColorRGB
 90
      255
102
RTVSPost2010PropOp44
 70
     1
102
RTVSPost2010Prop45
280
     0
102
RTVSPost2010PropOp45
 70
     1
102
RTVSPost2010Prop46
 90
       50
102
RTVSPost2010PropOp46
 70
     1
102
RTVSPost2010Prop47
 90
       50
102
RTVSPost2010PropOp47
 70
     1
102
RTVSPost2010Prop48
 90
       50
102
RTVSPost2010PropOp48
 70
     1
102
RTVSPost2010Prop49
280
     0
102
RTVSPost2010PropOp49
 70
     1
102
RTVSPost2010Prop50
 90
       50
102
RTVSPost2010PropOp50
 70
     1
102
RTVSPost2010Prop51ColorIndex
 90
      256
102
RTVSPost2010Prop51ColorRGB
 90
-16777216
102
RTVSPost2010PropOp51
 70
     0
102
RTVSPost2010Prop52
140
1.0
102
RTVSPost2010PropOp52
 70
     0
102
RTVSPost2010Prop53
 90
        2
102
RTVSPost2010PropOp53
 70
     1
102
RTVSPost2010Prop54
  1
strokes_ogs.tif
102
RTVSPost2010PropOp54
 70
     1
102
RTVSPost2010Prop55
280
     0
102
RTVSPost2010PropOp55
 70
     1
102
RTVSPost2010Prop56
140
1.0
102
RTVSPost2010PropOp56
 70
     1
102
RTVSPost2010Prop57
140
1.0
102
RTVSPost2010PropOp57
 70
     1
  0
XRECORD
  5
25F
102
{ACAD_REACTORS
330
25E
102
}
330
25E
100
AcDbXrecord
280
     1
102
RTVSPost2010Prop28
280
     0
102
RTVSPost2010PropOp28
 70
     1
102
RTVSPost2010Prop29
280
     1
102
RTVSPost2010PropOp29
 70
     1
102
RTVSPost2010Prop30
280
     1
102
RTVSPost2010PropOp30
 70
     1
102
RTVSPost2010Prop31
280
     0
102
RTVSPost2010PropOp31
 70
     1
102
RTVSPost2010Prop32
280
     0
102
RTVSPost2010PropOp32
 70
     1
102
RTVSPost2010Prop33
280
     0
102
RTVSPost2010PropOp33
 70
     1
102
RTVSPost2010Prop34
280
     0
102
RTVSPost2010PropOp34
 70
     1
102
RTVSPost2010Prop35
280
     0
102
RTVSPost2010PropOp35
 70
     1
102
RTVSPost2010Prop36
280
     0
102
RTVSPost2010PropOp36
 70
     1
102
RTVSPost2010Prop37
 90
       50
102
RTVSPost2010PropOp37
 70
     1
102
RTVSPost2010Prop38
140
0.0
102
RTVSPost2010PropOp38
 70
     1
102
RTVSPost2010Prop39
140
1.0
102
RTVSPost2010PropOp39
 70
     1
102
RTVSPost2010Prop40
 90
        0
102
RTVSPost2010PropOp40
 70
     1
102
RTVSPost2010Prop41ColorIndex
 90
       18
102
RTVSPost2010Prop41ColorRGB
 90
        0
102
RTVSPost2010PropOp41
 70
     1
102
RTVSPost2010Prop42
 90
       50
102
RTVSPost2010PropOp42
 70
     1
102
RTVSPost2010Prop43
 90
        3
102
RTVSPost2010PropOp43
 70
     1
102
RTVSPost2010Prop44ColorIndex
 90
        5
102
RTVSPost2010Prop44ColorRGB
 90
      255
102
RTVSPost2010PropOp44
 70
     1
102
RTVSPost2010Prop45
280
     0
102
RTVSPost2010PropOp45
 70
     1
102
RTVSPost2010Prop46
 90
       50
102
RTVSPost2010PropOp46
 70
     1
102
RTVSPost2010Prop47
 90
       50
102
RTVSPost2010PropOp47
 70
     1
102
RTVSPost2010Prop48
 90
       50
102
RTVSPost2010PropOp48
 70
     1
102
RTVSPost2010Prop49
280
     0
102
RTVSPost2010PropOp49
 70
     1
102
RTVSPost2010Prop50
 90
       50
102
RTVSPost2010PropOp50
 70
     1
102
RTVSPost2010Prop51ColorIndex
 90
      256
102
RTVSPost2010Prop51ColorRGB
 90
-16777216
102
RTVSPost2010PropOp51
 70
     0
102
RTVSPost2010Prop52
140
1.0
102
RTVSPost2010PropOp52
 70
     0
102
RTVSPost2010Prop53
 90
        2
102
RTVSPost2010PropOp53
 70
     1
102
RTVSPost2010Prop54
  1
strokes_ogs.tif
102
RTVSPost2010PropOp54
 70
     1
102
RTVSPost2010Prop55
280
     0
102
RTVSPost2010PropOp55
 70
     1
102
RTVSPost2010Prop56
140
1.0
102
RTVSPost2010PropOp56
 70
     1
102
RTVSPost2010Prop57
140
1.0
102
RTVSPost2010PropOp57
 70
     1
  0
XRECORD
  5
261
102
{ACAD_REACTORS
330
260
102
}
330
260
100
AcDbXrecord
280
     1
102
RTVSPost2010Prop28
280
     0
102
RTVSPost2010PropOp28
 70
     1
102
RTVSPost2010Prop29
280
     1
102
RTVSPost2010PropOp29
 70
     1
102
RTVSPost2010Prop30
280
     1
102
RTVSPost2010PropOp30
 70
     1
102
RTVSPost2010Prop31
280
     0
102
RTVSPost2010PropOp31
 70
     1
102
RTVSPost2010Prop32
280
     0
102
RTVSPost2010PropOp32
 70
     1
102
RTVSPost2010Prop33
280
     0
102
RTVSPost2010PropOp33
 70
     1
102
RTVSPost2010Prop34
280
     0
102
RTVSPost2010PropOp34
 70
     1
102
RTVSPost2010Prop35
280
     0
102
RTVSPost2010PropOp35
 70
     1
102
RTVSPost2010Prop36
280
     0
102
RTVSPost2010PropOp36
 70
     1
102
RTVSPost2010Prop37
 90
       50
102
RTVSPost2010PropOp37
 70
     1
102
RTVSPost2010Prop38
140
0.0
102
RTVSPost2010PropOp38
 70
     1
102
RTVSPost2010Prop39
140
1.0
102
RTVSPost2010PropOp39
 70
     1
102
RTVSPost2010Prop40
 90
        0
102
RTVSPost2010PropOp40
 70
     1
102
RTVSPost2010Prop41ColorIndex
 90
       18
102
RTVSPost2010Prop41ColorRGB
 90
        0
102
RTVSPost2010PropOp41
 70
     1
102
RTVSPost2010Prop42
 90
       50
102
RTVSPost2010PropOp42
 70
     1
102
RTVSPost2010Prop43
 90
        3
102
RTVSPost2010PropOp43
 70
     1
102
RTVSPost2010Prop44ColorIndex
 90
        5
102
RTVSPost2010Prop44ColorRGB
 90
      255
102
RTVSPost2010PropOp44
 70
     1
102
RTVSPost2010Prop45
280
     0
102
RTVSPost2010PropOp45
 70
     1
102
RTVSPost2010Prop46
 90
       50
102
RTVSPost2010PropOp46
 70
     1
102
RTVSPost2010Prop47
 90
       50
102
RTVSPost2010PropOp47
 70
     1
102
RTVSPost2010Prop48
 90
       50
102
RTVSPost2010PropOp48
 70
     1
102
RTVSPost2010Prop49
280
     0
102
RTVSPost2010PropOp49
 70
     1
102
RTVSPost2010Prop50
 90
       50
102
RTVSPost2010PropOp50
 70
     1
102
RTVSPost2010Prop51ColorIndex
 90
      256
102
RTVSPost2010Prop51ColorRGB
 90
-16777216
102
RTVSPost2010PropOp51
 70
     0
102
RTVSPost2010Prop52
140
1.0
102
RTVSPost2010PropOp52
 70
     0
102
RTVSPost2010Prop53
 90
        2
102
RTVSPost2010PropOp53
 70
     1
102
RTVSPost2010Prop54
  1
strokes_ogs.tif
102
RTVSPost2010PropOp54
 70
     1
102
RTVSPost2010Prop55
280
     0
102
RTVSPost2010PropOp55
 70
     1
102
RTVSPost2010Prop56
140
1.0
102
RTVSPost2010PropOp56
 70
     1
102
RTVSPost2010Prop57
140
1.0
102
RTVSPost2010PropOp57
 70
     1
  0
XRECORD
  5
251
102
{ACAD_REACTORS
330
250
102
}
330
250
100
AcDbXrecord
280
     1
102
RTVSPost2010Prop28
280
     0
102
RTVSPost2010PropOp28
 70
     1
102
RTVSPost2010Prop29
280
     1
102
RTVSPost2010PropOp29
 70
     1
102
RTVSPost2010Prop30
280
     1
102
RTVSPost2010PropOp30
 70
     1
102
RTVSPost2010Prop31
280
     0
102
RTVSPost2010PropOp31
 70
     1
102
RTVSPost2010Prop32
280
     0
102
RTVSPost2010PropOp32
 70
     1
102
RTVSPost2010Prop33
280
     0
102
RTVSPost2010PropOp33
 70
     1
102
RTVSPost2010Prop34
280
     0
102
RTVSPost2010PropOp34
 70
     1
102
RTVSPost2010Prop35
280
     0
102
RTVSPost2010PropOp35
 70
     1
102
RTVSPost2010Prop36
280
     0
102
RTVSPost2010PropOp36
 70
     1
102
RTVSPost2010Prop37
 90
       50
102
RTVSPost2010PropOp37
 70
     1
102
RTVSPost2010Prop38
140
0.0
102
RTVSPost2010PropOp38
 70
     1
102
RTVSPost2010Prop39
140
1.0
102
RTVSPost2010PropOp39
 70
     1
102
RTVSPost2010Prop40
 90
        0
102
RTVSPost2010PropOp40
 70
     1
102
RTVSPost2010Prop41ColorIndex
 90
       18
102
RTVSPost2010Prop41ColorRGB
 90
        0
102
RTVSPost2010PropOp41
 70
     1
102
RTVSPost2010Prop42
 90
       50
102
RTVSPost2010PropOp42
 70
     1
102
RTVSPost2010Prop43
 90
        3
102
RTVSPost2010PropOp43
 70
     1
102
RTVSPost2010Prop44ColorIndex
 90
        5
102
RTVSPost2010Prop44ColorRGB
 90
      255
102
RTVSPost2010PropOp44
 70
     1
102
RTVSPost2010Prop45
280
     0
102
RTVSPost2010PropOp45
 70
     1
102
RTVSPost2010Prop46
 90
       50
102
RTVSPost2010PropOp46
 70
     1
102
RTVSPost2010Prop47
 90
       50
102
RTVSPost2010PropOp47
 70
     1
102
RTVSPost2010Prop48
 90
       50
102
RTVSPost2010PropOp48
 70
     1
102
RTVSPost2010Prop49
280
     0
102
RTVSPost2010PropOp49
 70
     1
102
RTVSPost2010Prop50
 90
       50
102
RTVSPost2010PropOp50
 70
     1
102
RTVSPost2010Prop51ColorIndex
 90
      256
102
RTVSPost2010Prop51ColorRGB
 90
-16777216
102
RTVSPost2010PropOp51
 70
     0
102
RTVSPost2010Prop52
140
1.0
102
RTVSPost2010PropOp52
 70
     0
102
RTVSPost2010Prop53
 90
        2
102
RTVSPost2010PropOp53
 70
     1
102
RTVSPost2010Prop54
  1
strokes_ogs.tif
102
RTVSPost2010PropOp54
 70
     1
102
RTVSPost2010Prop55
280
     0
102
RTVSPost2010PropOp55
 70
     1
102
RTVSPost2010Prop56
140
1.0
102
RTVSPost2010PropOp56
 70
     1
102
RTVSPost2010Prop57
140
1.0
102
RTVSPost2010PropOp57
 70
     1
  0
XRECORD
  5
243
102
{ACAD_REACTORS
330
242
102
}
330
242
100
AcDbXrecord
280
     1
102
RTVSPost2010Prop28
280
     0
102
RTVSPost2010PropOp28
 70
     1
102
RTVSPost2010Prop29
280
     1
102
RTVSPost2010PropOp29
 70
     1
102
RTVSPost2010Prop30
280
     1
102
RTVSPost2010PropOp30
 70
     1
102
RTVSPost2010Prop31
280
     0
102
RTVSPost2010PropOp31
 70
     1
102
RTVSPost2010Prop32
280
     0
102
RTVSPost2010PropOp32
 70
     1
102
RTVSPost2010Prop33
280
     0
102
RTVSPost2010PropOp33
 70
     1
102
RTVSPost2010Prop34
280
     0
102
RTVSPost2010PropOp34
 70
     1
102
RTVSPost2010Prop35
280
     0
102
RTVSPost2010PropOp35
 70
     1
102
RTVSPost2010Prop36
280
     0
102
RTVSPost2010PropOp36
 70
     1
102
RTVSPost2010Prop37
 90
       50
102
RTVSPost2010PropOp37
 70
     1
102
RTVSPost2010Prop38
140
0.0
102
RTVSPost2010PropOp38
 70
     1
102
RTVSPost2010Prop39
140
1.0
102
RTVSPost2010PropOp39
 70
     1
102
RTVSPost2010Prop40
 90
        0
102
RTVSPost2010PropOp40
 70
     1
102
RTVSPost2010Prop41ColorIndex
 90
       18
102
RTVSPost2010Prop41ColorRGB
 90
        0
102
RTVSPost2010PropOp41
 70
     1
102
RTVSPost2010Prop42
 90
       50
102
RTVSPost2010PropOp42
 70
     1
102
RTVSPost2010Prop43
 90
        3
102
RTVSPost2010PropOp43
 70
     1
102
RTVSPost2010Prop44ColorIndex
 90
        5
102
RTVSPost2010Prop44ColorRGB
 90
      255
102
RTVSPost2010PropOp44
 70
     1
102
RTVSPost2010Prop45
280
     0
102
RTVSPost2010PropOp45
 70
     1
102
RTVSPost2010Prop46
 90
       50
102
RTVSPost2010PropOp46
 70
     1
102
RTVSPost2010Prop47
 90
       50
102
RTVSPost2010PropOp47
 70
     1
102
RTVSPost2010Prop48
 90
       50
102
RTVSPost2010PropOp48
 70
     1
102
RTVSPost2010Prop49
280
     0
102
RTVSPost2010PropOp49
 70
     1
102
RTVSPost2010Prop50
 90
       50
102
RTVSPost2010PropOp50
 70
     1
102
RTVSPost2010Prop51ColorIndex
 90
      256
102
RTVSPost2010Prop51ColorRGB
 90
-16777216
102
RTVSPost2010PropOp51
 70
     0
102
RTVSPost2010Prop52
140
1.0
102
RTVSPost2010PropOp52
 70
     0
102
RTVSPost2010Prop53
 90
        2
102
RTVSPost2010PropOp53
 70
     1
102
RTVSPost2010Prop54
  1
strokes_ogs.tif
102
RTVSPost2010PropOp54
 70
     1
102
RTVSPost2010Prop55
280
     0
102
RTVSPost2010PropOp55
 70
     1
102
RTVSPost2010Prop56
140
1.0
102
RTVSPost2010PropOp56
 70
     1
102
RTVSPost2010Prop57
140
1.0
102
RTVSPost2010PropOp57
 70
     1
  0
XRECORD
  5
263
102
{ACAD_REACTORS
330
262
102
}
330
262
100
AcDbXrecord
280
     1
102
RTVSPost2010Prop28
280
     0
102
RTVSPost2010PropOp28
 70
     1
102
RTVSPost2010Prop29
280
     1
102
RTVSPost2010PropOp29
 70
     1
102
RTVSPost2010Prop30
280
     1
102
RTVSPost2010PropOp30
 70
     1
102
RTVSPost2010Prop31
280
     0
102
RTVSPost2010PropOp31
 70
     1
102
RTVSPost2010Prop32
280
     0
102
RTVSPost2010PropOp32
 70
     1
102
RTVSPost2010Prop33
280
     0
102
RTVSPost2010PropOp33
 70
     1
102
RTVSPost2010Prop34
280
     0
102
RTVSPost2010PropOp34
 70
     1
102
RTVSPost2010Prop35
280
     0
102
RTVSPost2010PropOp35
 70
     1
102
RTVSPost2010Prop36
280
     0
102
RTVSPost2010PropOp36
 70
     1
102
RTVSPost2010Prop37
 90
       50
102
RTVSPost2010PropOp37
 70
     1
102
RTVSPost2010Prop38
140
0.0
102
RTVSPost2010PropOp38
 70
     1
102
RTVSPost2010Prop39
140
1.0
102
RTVSPost2010PropOp39
 70
     1
102
RTVSPost2010Prop40
 90
        0
102
RTVSPost2010PropOp40
 70
     1
102
RTVSPost2010Prop41ColorIndex
 90
       18
102
RTVSPost2010Prop41ColorRGB
 90
        0
102
RTVSPost2010PropOp41
 70
     1
102
RTVSPost2010Prop42
 90
       50
102
RTVSPost2010PropOp42
 70
     1
102
RTVSPost2010Prop43
 90
        3
102
RTVSPost2010PropOp43
 70
     1
102
RTVSPost2010Prop44ColorIndex
 90
        5
102
RTVSPost2010Prop44ColorRGB
 90
      255
102
RTVSPost2010PropOp44
 70
     1
102
RTVSPost2010Prop45
280
     0
102
RTVSPost2010PropOp45
 70
     1
102
RTVSPost2010Prop46
 90
       50
102
RTVSPost2010PropOp46
 70
     1
102
RTVSPost2010Prop47
 90
       50
102
RTVSPost2010PropOp47
 70
     1
102
RTVSPost2010Prop48
 90
       50
102
RTVSPost2010PropOp48
 70
     1
102
RTVSPost2010Prop49
280
     0
102
RTVSPost2010PropOp49
 70
     1
102
RTVSPost2010Prop50
 90
       50
102
RTVSPost2010PropOp50
 70
     1
102
RTVSPost2010Prop51ColorIndex
 90
      256
102
RTVSPost2010Prop51ColorRGB
 90
-16777216
102
RTVSPost2010PropOp51
 70
     0
102
RTVSPost2010Prop52
140
1.0
102
RTVSPost2010PropOp52
 70
     0
102
RTVSPost2010Prop53
 90
        2
102
RTVSPost2010PropOp53
 70
     1
102
RTVSPost2010Prop54
  1
strokes_ogs.tif
102
RTVSPost2010PropOp54
 70
     1
102
RTVSPost2010Prop55
280
     0
102
RTVSPost2010PropOp55
 70
     1
102
RTVSPost2010Prop56
140
1.0
102
RTVSPost2010PropOp56
 70
     1
102
RTVSPost2010Prop57
140
1.0
102
RTVSPost2010PropOp57
 70
     1
  0
ENDSEC
  0
EOF
