  0
SECTION
  2
HEADER
  9
$ACADVER
  1
AC1024
  9
$ACADMAINTVER
 70
     6
  9
$DWGCODEPAGE
  3
ANSI_1252
  9
$INSBASE
 10
0.0
 20
0.0
 30
0.0
  9
$EXTMIN
 10
-314.326250525373
 20
17.00088970765
 30
0.0
  9
$EXTMAX
 10
435.648043987683
 20
332.463162614749
 30
0.0
  9
$LIMMIN
 10
0.0
 20
0.0
  9
$LIMMAX
 10
420.0
 20
297.0
  9
$ORTHOMODE
 70
     0
  9
$REGENMODE
 70
     1
  9
$FILLMODE
 70
     1
  9
$QTEXTMODE
 70
     0
  9
$MIRRTEXT
 70
     1
  9
$LTSCALE
 40
5.0
  9
$ATTMODE
 70
     1
  9
$TEXTSIZE
 40
2.5
  9
$TRACEWID
 40
1.0
  9
$TEXTSTYLE
  7
Standard
  9
$CLAYER
  8
0
  9
$CELTYPE
  6
ByLayer
  9
$CECOLOR
 62
   256
  9
$CELTSCALE
 40
1.0
  9
$DISPSILH
 70
     0
  9
$DIMSCALE
 40
1.0
  9
$DIMASZ
 40
2.5
  9
$DIMEXO
 40
0.625
  9
$DIMDLI
 40
3.75
  9
$DIMRND
 40
0.0
  9
$DIMDLE
 40
0.0
  9
$DIMEXE
 40
1.25
  9
$DIMTP
 40
0.0
  9
$DIMTM
 40
0.0
  9
$DIMTXT
 40
2.5
  9
$DIMCEN
 40
2.5
  9
$DIMTSZ
 40
0.0
  9
$DIMTOL
 70
     0
  9
$DIMLIM
 70
     0
  9
$DIMTIH
 70
     0
  9
$DIMTOH
 70
     0
  9
$DIMSE1
 70
     0
  9
$DIMSE2
 70
     0
  9
$DIMTAD
 70
     1
  9
$DIMZIN
 70
     8
  9
$DIMBLK
  1

  9
$DIMASO
 70
     1
  9
$DIMSHO
 70
     1
  9
$DIMPOST
  1

  9
$DIMAPOST
  1

  9
$DIMALT
 70
     0
  9
$DIMALTD
 70
     3
  9
$DIMALTF
 40
0.03937007874
  9
$DIMLFAC
 40
1.0
  9
$DIMTOFL
 70
     1
  9
$DIMTVP
 40
0.0
  9
$DIMTIX
 70
     0
  9
$DIMSOXD
 70
     0
  9
$DIMSAH
 70
     0
  9
$DIMBLK1
  1

  9
$DIMBLK2
  1

  9
$DIMSTYLE
  2
ISO-25
  9
$DIMCLRD
 70
     0
  9
$DIMCLRE
 70
     0
  9
$DIMCLRT
 70
     0
  9
$DIMTFAC
 40
1.0
  9
$DIMGAP
 40
0.625
  9
$DIMJUST
 70
     0
  9
$DIMSD1
 70
     0
  9
$DIMSD2
 70
     0
  9
$DIMTOLJ
 70
     0
  9
$DIMTZIN
 70
     8
  9
$DIMALTZ
 70
     0
  9
$DIMALTTZ
 70
     0
  9
$DIMUPT
 70
     0
  9
$DIMDEC
 70
     2
  9
$DIMTDEC
 70
     2
  9
$DIMALTU
 70
     2
  9
$DIMALTTD
 70
     3
  9
$DIMTXSTY
  7
Standard
  9
$DIMAUNIT
 70
     0
  9
$DIMADEC
 70
     0
  9
$DIMALTRND
 40
0.0
  9
$DIMAZIN
 70
     0
  9
$DIMDSEP
 70
    44
  9
$DIMATFIT
 70
     3
  9
$DIMFRAC
 70
     0
  9
$DIMLDRBLK
  1

  9
$DIMLUNIT
 70
     2
  9
$DIMLWD
 70
    -2
  9
$DIMLWE
 70
    -2
  9
$DIMTMOVE
 70
     0
  9
$DIMFXL
 40
1.0
  9
$DIMFXLON
 70
     0
  9
$DIMJOGANG
 40
0.785398163397
  9
$DIMTFILL
 70
     0
  9
$DIMTFILLCLR
 70
     0
  9
$DIMARCSYM
 70
     0
  9
$DIMLTYPE
  6

  9
$DIMLTEX1
  6

  9
$DIMLTEX2
  6

  9
$DIMTXTDIRECTION
 70
     0
  9
$LUNITS
 70
     2
  9
$LUPREC
 70
     4
  9
$SKETCHINC
 40
1.0
  9
$FILLETRAD
 40
10.0
  9
$AUNITS
 70
     0
  9
$AUPREC
 70
     0
  9
$MENU
  1
.
  9
$ELEVATION
 40
0.0
  9
$PELEVATION
 40
0.0
  9
$THICKNESS
 40
0.0
  9
$LIMCHECK
 70
     0
  9
$CHAMFERA
 40
0.0
  9
$CHAMFERB
 40
0.0
  9
$CHAMFERC
 40
0.0
  9
$CHAMFERD
 40
0.0
  9
$SKPOLY
 70
     0
  9
$TDCREATE
 40
2457955.566904537
  9
$TDUCREATE
 40
2457955.483571204
  9
$TDUPDATE
 40
2457955.566914282
  9
$TDUUPDATE
 40
2457955.483580949
  9
$TDINDWG
 40
0.0000000116
  9
$TDUSRTIMER
 40
0.0000000116
  9
$USRTIMER
 70
     1
  9
$ANGBASE
 50
0.0
  9
$ANGDIR
 70
     0
  9
$PDMODE
 70
     2
  9
$PDSIZE
 40
1.0
  9
$PLINEWID
 40
0.0
  9
$SPLFRAME
 70
     0
  9
$SPLINETYPE
 70
     6
  9
$SPLINESEGS
 70
     8
  9
$HANDSEED
  5
27B
  9
$SURFTAB1
 70
     6
  9
$SURFTAB2
 70
     6
  9
$SURFTYPE
 70
     6
  9
$SURFU
 70
     6
  9
$SURFV
 70
     6
  9
$UCSBASE
  2

  9
$UCSNAME
  2

  9
$UCSORG
 10
0.0
 20
0.0
 30
0.0
  9
$UCSXDIR
 10
1.0
 20
0.0
 30
0.0
  9
$UCSYDIR
 10
0.0
 20
1.0
 30
0.0
  9
$UCSORTHOREF
  2

  9
$UCSORTHOVIEW
 70
     0
  9
$UCSORGTOP
 10
0.0
 20
0.0
 30
0.0
  9
$UCSORGBOTTOM
 10
0.0
 20
0.0
 30
0.0
  9
$UCSORGLEFT
 10
0.0
 20
0.0
 30
0.0
  9
$UCSORGRIGHT
 10
0.0
 20
0.0
 30
0.0
  9
$UCSORGFRONT
 10
0.0
 20
0.0
 30
0.0
  9
$UCSORGBACK
 10
0.0
 20
0.0
 30
0.0
  9
$PUCSBASE
  2

  9
$PUCSNAME
  2

  9
$PUCSORG
 10
0.0
 20
0.0
 30
0.0
  9
$PUCSXDIR
 10
1.0
 20
0.0
 30
0.0
  9
$PUCSYDIR
 10
0.0
 20
1.0
 30
0.0
  9
$PUCSORTHOREF
  2

  9
$PUCSORTHOVIEW
 70
     0
  9
$PUCSORGTOP
 10
0.0
 20
0.0
 30
0.0
  9
$PUCSORGBOTTOM
 10
0.0
 20
0.0
 30
0.0
  9
$PUCSORGLEFT
 10
0.0
 20
0.0
 30
0.0
  9
$PUCSORGRIGHT
 10
0.0
 20
0.0
 30
0.0
  9
$PUCSORGFRONT
 10
0.0
 20
0.0
 30
0.0
  9
$PUCSORGBACK
 10
0.0
 20
0.0
 30
0.0
  9
$USERI1
 70
     0
  9
$USERI2
 70
     0
  9
$USERI3
 70
     0
  9
$USERI4
 70
     0
  9
$USERI5
 70
     0
  9
$USERR1
 40
0.0
  9
$USERR2
 40
0.0
  9
$USERR3
 40
0.0
  9
$USERR4
 40
0.0
  9
$USERR5
 40
0.0
  9
$WORLDVIEW
 70
     1
  9
$SHADEDGE
 70
     3
  9
$SHADEDIF
 70
    70
  9
$TILEMODE
 70
     1
  9
$MAXACTVP
 70
    64
  9
$PINSBASE
 10
0.0
 20
0.0
 30
0.0
  9
$PLIMCHECK
 70
     0
  9
$PEXTMIN
 10
1.000000000000E+20
 20
1.000000000000E+20
 30
1.000000000000E+20
  9
$PEXTMAX
 10
-1.000000000000E+20
 20
-1.000000000000E+20
 30
-1.000000000000E+20
  9
$PLIMMIN
 10
0.0
 20
0.0
  9
$PLIMMAX
 10
420.0
 20
297.0
  9
$UNITMODE
 70
     0
  9
$VISRETAIN
 70
     1
  9
$PLINEGEN
 70
     0
  9
$PSLTSCALE
 70
     1
  9
$TREEDEPTH
 70
  3020
  9
$CMLSTYLE
  2
Standard
  9
$CMLJUST
 70
     0
  9
$CMLSCALE
 40
20.0
  9
$PROXYGRAPHICS
 70
     1
  9
$MEASUREMENT
 70
     1
  9
$CELWEIGHT
370
    -1
  9
$ENDCAPS
280
     0
  9
$JOINSTYLE
280
     0
  9
$LWDISPLAY
290
     0
  9
$INSUNITS
 70
     4
  9
$HYPERLINKBASE
  1

  9
$STYLESHEET
  1

  9
$XEDIT
290
     1
  9
$CEPSNTYPE
380
     0
  9
$PSTYLEMODE
290
     1
  9
$FINGERPRINTGUID
  2
{D6365E74-7016-4F7A-B9B4-8A9A2A5A5A58}
  9
$VERSIONGUID
  2
{FAEB1C32-E019-11D5-929B-00C0DF256EC4}
  9
$EXTNAMES
290
     1
  9
$PSVPSCALE
 40
0.0
  9
$OLESTARTUP
290
     0
  9
$SORTENTS
280
   127
  9
$INDEXCTL
280
     0
  9
$HIDETEXT
280
     1
  9
$XCLIPFRAME
280
     2
  9
$HALOGAP
280
     0
  9
$OBSCOLOR
 70
   257
  9
$OBSLTYPE
280
     0
  9
$INTERSECTIONDISPLAY
280
     0
  9
$INTERSECTIONCOLOR
 70
   257
  9
$DIMASSOC
280
     2
  9
$PROJECTNAME
  1

  9
$CAMERADISPLAY
290
     0
  9
$LENSLENGTH
 40
50.0
  9
$CAMERAHEIGHT
 40
0.0
  9
$STEPSPERSEC
 40
2.0
  9
$STEPSIZE
 40
6.0
  9
$3DDWFPREC
 40
2.0
  9
$PSOLWIDTH
 40
5.0
  9
$PSOLHEIGHT
 40
80.0
  9
$LOFTANG1
 40
1.570796326795
  9
$LOFTANG2
 40
1.570796326795
  9
$LOFTMAG1
 40
0.0
  9
$LOFTMAG2
 40
0.0
  9
$LOFTPARAM
 70
     7
  9
$LOFTNORMALS
280
     1
  9
$LATITUDE
 40
37.795
  9
$LONGITUDE
 40
-122.394
  9
$NORTHDIRECTION
 40
0.0
  9
$TIMEZONE
 70
 -8000
  9
$LIGHTGLYPHDISPLAY
280
     1
  9
$TILEMODELIGHTSYNCH
280
     1
  9
$CMATERIAL
347
44
  9
$SOLIDHIST
280
     0
  9
$SHOWHIST
280
     1
  9
$DWFFRAME
280
     2
  9
$DGNFRAME
280
     2
  9
$REALWORLDSCALE
290
     1
  9
$INTERFERECOLOR
 62
   256
  9
$CSHADOW
280
     0
  9
$SHADOWPLANELOCATION
 40
0.0
  0
ENDSEC
  0
SECTION
  2
CLASSES
  0
CLASS
  1
ACDBDICTIONARYWDFLT
  2
AcDbDictionaryWithDefault
  3
ObjectDBX Classes
 90
        0
 91
        4
280
     0
281
     0
  0
CLASS
  1
VISUALSTYLE
  2
AcDbVisualStyle
  3
ObjectDBX Classes
 90
     4095
 91
        4
280
     0
281
     0
  0
CLASS
  1
MATERIAL
  2
AcDbMaterial
  3
ObjectDBX Classes
 90
     1153
 91
        4
280
     0
281
     0
  0
CLASS
  1
SCALE
  2
AcDbScale
  3
ObjectDBX Classes
 90
     1153
 91
        4
280
     0
281
     0
  0
CLASS
  1
TABLESTYLE
  2
AcDbTableStyle
  3
ObjectDBX Classes
 90
     4095
 91
        4
280
     0
281
     0
  0
CLASS
  1
MLEADERSTYLE
  2
AcDbMLeaderStyle
  3
ACDB_MLEADERSTYLE_CLASS
 90
     4095
 91
        4
280
     0
281
     0
  0
CLASS
  1
SUN
  2
AcDbSun
  3
SCENEOE
 90
     1153
 91
        4
280
     0
281
     0
  0
CLASS
  1
WIPEOUT
  2
AcDbWipeout
  3
WipeOut|AutoCAD Express Tool|expresstools@autodesk.com
 90
      127
 91
        4
280
     0
281
     1
  0
CLASS
  1
DICTIONARYVAR
  2
AcDbDictionaryVar
  3
ObjectDBX Classes
 90
        0
 91
        4
280
     0
281
     0
  0
CLASS
  1
CELLSTYLEMAP
  2
AcDbCellStyleMap
  3
ObjectDBX Classes
 90
     1152
 91
        4
280
     0
281
     0
  0
CLASS
  1
WIPEOUTVARIABLES
  2
AcDbWipeoutVariables
  3
WipeOut|AutoCAD Express Tool|expresstools@autodesk.com
 90
        0
 91
        4
280
     0
281
     0
  0
ENDSEC
  0
SECTION
  2
TABLES
  0
TABLE
  2
VPORT
  5
8
330
0
100
AcDbSymbolTable
 70
     1
  0
VPORT
  5
29
330
8
100
AcDbSymbolTableRecord
100
AcDbViewportTableRecord
  2
*Active
 70
     0
 10
0.0
 20
0.0
 11
1.0
 21
1.0
 12
60.660896731155
 22
174.732026161199
 13
0.0
 23
0.0
 14
10.0
 24
10.0
 15
10.0
 25
10.0
 16
0.0
 26
0.0
 36
1.0
 17
0.0
 27
0.0
 37
0.0
 40
315.462272907099
 41
2.377381889764
 42
50.0
 43
0.0
 44
0.0
 50
0.0
 51
0.0
 71
     0
 72
   100
 73
     1
 74
     3
 75
     0
 76
     0
 77
     0
 78
     0
281
     0
 65
     1
110
0.0
120
0.0
130
0.0
111
1.0
121
0.0
131
0.0
112
0.0
122
1.0
132
0.0
 79
     0
146
0.0
348
2F
 60
     3
 61
     5
292
     1
282
     1
141
0.0
142
0.0
 63
   250
361
6D
  0
ENDTAB
  0
TABLE
  2
LTYPE
  5
5
330
0
100
AcDbSymbolTable
 70
     3
  0
LTYPE
  5
14
330
5
100
AcDbSymbolTableRecord
100
AcDbLinetypeTableRecord
  2
ByBlock
 70
     0
  3

 72
    65
 73
     0
 40
0.0
  0
LTYPE
  5
15
330
5
100
AcDbSymbolTableRecord
100
AcDbLinetypeTableRecord
  2
ByLayer
 70
     0
  3

 72
    65
 73
     0
 40
0.0
  0
LTYPE
  5
16
330
5
100
AcDbSymbolTableRecord
100
AcDbLinetypeTableRecord
  2
Continuous
 70
     0
  3
Solid line
 72
    65
 73
     0
 40
0.0
  0
LTYPE
  5
6E
330
5
100
AcDbSymbolTableRecord
100
AcDbLinetypeTableRecord
  2
AUSGEZOGEN
 70
     0
  3

 72
    65
 73
     0
 40
0.0
  0
LTYPE
  5
70
330
5
100
AcDbSymbolTableRecord
100
AcDbLinetypeTableRecord
  2
DASHDOT
 70
     0
  3

 72
    65
 73
     4
 40
1.0
 49
0.5
 74
     0
 49
-0.25
 74
     0
 49
0.0
 74
     0
 49
-0.25
 74
     0
  0
ENDTAB
  0
TABLE
  2
LAYER
  5
2
330
0
100
AcDbSymbolTable
 70
     7
  0
LAYER
  5
10
330
2
100
AcDbSymbolTableRecord
100
AcDbLayerTableRecord
  2
0
 70
     0
 62
     7
  6
Continuous
370
    -3
390
F
347
46
  0
LAYER
  5
73
330
2
100
AcDbSymbolTableRecord
100
AcDbLayerTableRecord
  2
Layer0
 70
     0
 62
     9
420
 12632256
  6
Continuous
370
    -3
390
F
347
46
  0
LAYER
  5
74
330
2
100
AcDbSymbolTableRecord
100
AcDbLayerTableRecord
  2
Layer1
 70
     0
 62
    18
420
        0
  6
Continuous
370
    -3
390
F
347
46
  0
LAYER
  5
75
330
2
100
AcDbSymbolTableRecord
100
AcDbLayerTableRecord
  2
Layer5
 70
     0
 62
     8
420
  8421504
  6
Continuous
370
    -3
390
F
347
46
  0
LAYER
  5
76
330
2
100
AcDbSymbolTableRecord
100
AcDbLayerTableRecord
  2
Layer6
 70
     0
 62
    18
420
        0
  6
Continuous
370
    -3
390
F
347
46
  0
LAYER
  5
77
330
2
100
AcDbSymbolTableRecord
100
AcDbLayerTableRecord
  2
Layer7
 70
     0
 62
   140
420
    49407
  6
Continuous
370
    -3
390
F
347
46
  0
LAYER
  5
78
330
2
100
AcDbSymbolTableRecord
100
AcDbLayerTableRecord
  2
Layer100
 70
     0
 62
    18
420
        0
  6
Continuous
370
    -3
390
F
347
46
  0
ENDTAB
  0
TABLE
  2
STYLE
  5
3
330
0
100
AcDbSymbolTable
 70
     4
  0
STYLE
  5
11
330
3
100
AcDbSymbolTableRecord
100
AcDbTextStyleTableRecord
  2
Standard
 70
     0
 40
0.0
 41
1.0
 50
0.0
 71
     0
 42
2.5
  3
txt
  4

  0
STYLE
  5
6F
330
3
100
AcDbSymbolTableRecord
100
AcDbTextStyleTableRecord
  2
Arial
 70
     0
 40
0.0
 41
1.0
 50
0.0
 71
     0
 42
2.5
  3
arial.ttf
  4

1001
ACAD
1000
Arial
1071
       34
  0
STYLE
  5
71
330
3
100
AcDbSymbolTableRecord
100
AcDbTextStyleTableRecord
  2
Verdana
 70
     0
 40
0.0
 41
1.0
 50
0.0
 71
     0
 42
2.5
  3
verdana.ttf
  4

1001
ACAD
1000
Verdana
1071
       34
  0
STYLE
  5
72
330
3
100
AcDbSymbolTableRecord
100
AcDbTextStyleTableRecord
  2
Toleranzfont
 70
     0
 40
0.0
 41
1.0
 50
0.0
 71
     0
 42
2.5
  3
IGES1003.SHX
  4

  0
ENDTAB
  0
TABLE
  2
VIEW
  5
6
330
0
100
AcDbSymbolTable
 70
     0
  0
ENDTAB
  0
TABLE
  2
UCS
  5
7
330
0
100
AcDbSymbolTable
 70
     0
  0
ENDTAB
  0
TABLE
  2
APPID
  5
9
330
0
100
AcDbSymbolTable
 70
     1
  0
APPID
  5
12
330
9
100
AcDbSymbolTableRecord
100
AcDbRegAppTableRecord
  2
ACAD
 70
     0
  0
ENDTAB
  0
TABLE
  2
DIMSTYLE
  5
A
330
0
100
AcDbSymbolTable
 70
     1
100
AcDbDimStyleTable
  0
DIMSTYLE
105
27
102
{ACAD_REACTORS
330
1C7
330
1D2
330
1E4
330
1F1
330
1FF
330
20C
330
219
330
22F
102
}
330
A
100
AcDbSymbolTableRecord
100
AcDbDimStyleTableRecord
  2
ISO-25
 70
     0
 41
2.5
 42
0.625
 43
3.75
 44
1.25
 73
     0
 74
     0
 77
     1
 78
     8
140
2.5
141
2.5
143
0.03937007874
147
0.625
171
     3
172
     1
178
     0
271
     2
272
     2
274
     3
278
    44
283
     0
284
     8
340
11
  0
ENDTAB
  0
TABLE
  2
BLOCK_RECORD
  5
1
330
0
100
AcDbSymbolTable
 70
    19
  0
BLOCK_RECORD
  5
1F
330
1
100
AcDbSymbolTableRecord
100
AcDbBlockTableRecord
  2
*Model_Space
340
22
 70
     0
280
     1
281
     0
  0
BLOCK_RECORD
  5
1B
330
1
100
AcDbSymbolTableRecord
100
AcDbBlockTableRecord
  2
*Paper_Space
340
1E
 70
     0
280
     1
281
     0
  0
BLOCK_RECORD
  5
23
330
1
100
AcDbSymbolTableRecord
100
AcDbBlockTableRecord
  2
*Paper_Space0
340
26
 70
     0
280
     1
281
     0
  0
BLOCK_RECORD
  5
79
330
1
100
AcDbSymbolTableRecord
100
AcDbBlockTableRecord
  2
Zeichnungskoordinaten_nNn00
340
0
102
{BLKREFS
331
90
102
}
 70
     0
280
     1
281
     0
  0
BLOCK_RECORD
  5
91
330
1
100
AcDbSymbolTableRecord
100
AcDbBlockTableRecord
  2
Zeichnungsrahmen_nNn01
340
0
102
{BLKREFS
331
A1
102
}
 70
     0
280
     1
281
     0
  0
BLOCK_RECORD
  5
A2
330
1
100
AcDbSymbolTableRecord
100
AcDbBlockTableRecord
  2
Schriftfeld_nNn02
340
0
102
{BLKREFS
331
F1
102
}
 70
     0
280
     1
281
     0
  0
BLOCK_RECORD
  5
F2
330
1
100
AcDbSymbolTableRecord
100
AcDbBlockTableRecord
  2
Beschriftung_nNn03
340
0
102
{BLKREFS
331
103
102
}
 70
     0
280
     1
281
     0
  0
BLOCK_RECORD
  5
175
330
1
100
AcDbSymbolTableRecord
100
AcDbBlockTableRecord
  2
_Dot_nNn04
340
0
102
{BLKREFS
331
17A
102
}
 70
     0
280
     1
281
     0
  0
BLOCK_RECORD
  5
17D
330
1
100
AcDbSymbolTableRecord
100
AcDbBlockTableRecord
  2
SW_CENTERMARKSYMBOL_0_nNn05
340
0
102
{BLKREFS
331
188
102
}
 70
     0
280
     1
281
     0
  0
BLOCK_RECORD
  5
199
330
1
100
AcDbSymbolTableRecord
100
AcDbBlockTableRecord
  2
AnonymMegaMac_nNn06
340
0
102
{BLKREFS
331
1A2
102
}
 70
     0
280
     1
281
     0
  0
BLOCK_RECORD
  5
1A3
330
1
100
AcDbSymbolTableRecord
100
AcDbBlockTableRecord
  2
SW_CENTERMARKSYMBOL_1_nNn07
340
0
102
{BLKREFS
331
1AE
102
}
 70
     0
280
     1
281
     0
  0
BLOCK_RECORD
  5
1AF
330
1
100
AcDbSymbolTableRecord
100
AcDbBlockTableRecord
  2
SW_CENTERMARKSYMBOL_2_nNn08
340
0
102
{BLKREFS
331
1BA
102
}
 70
     0
280
     1
281
     0
  0
BLOCK_RECORD
  5
1BB
330
1
100
AcDbSymbolTableRecord
100
AcDbBlockTableRecord
  2
*D10
340
0
 70
     0
280
     1
281
     0
  0
BLOCK_RECORD
  5
1C8
330
1
100
AcDbSymbolTableRecord
100
AcDbBlockTableRecord
  2
*D11
340
0
 70
     0
280
     1
281
     0
  0
BLOCK_RECORD
  5
1D3
330
1
100
AcDbSymbolTableRecord
100
AcDbBlockTableRecord
  2
*D12
340
0
 70
     0
280
     1
281
     0
  0
BLOCK_RECORD
  5
1E5
330
1
100
AcDbSymbolTableRecord
100
AcDbBlockTableRecord
  2
*D13
340
0
 70
     0
280
     1
281
     0
  0
BLOCK_RECORD
  5
1F2
330
1
100
AcDbSymbolTableRecord
100
AcDbBlockTableRecord
  2
*D14
340
0
 70
     0
280
     1
281
     0
  0
BLOCK_RECORD
  5
200
330
1
100
AcDbSymbolTableRecord
100
AcDbBlockTableRecord
  2
*D15
340
0
 70
     0
280
     1
281
     0
  0
BLOCK_RECORD
  5
20D
330
1
100
AcDbSymbolTableRecord
100
AcDbBlockTableRecord
  2
*D16
340
0
 70
     0
280
     1
281
     0
  0
BLOCK_RECORD
  5
21E
330
1
100
AcDbSymbolTableRecord
100
AcDbBlockTableRecord
  2
*D17
340
0
 70
     0
280
     1
281
     0
  0
BLOCK_RECORD
  5
230
330
1
100
AcDbSymbolTableRecord
100
AcDbBlockTableRecord
  2
SW_NOTE_0_nNn017
340
0
102
{BLKREFS
331
237
102
}
 70
     0
280
     1
281
     0
  0
ENDTAB
  0
ENDSEC
  0
SECTION
  2
BLOCKS
  0
BLOCK
  5
20
330
1F
100
AcDbEntity
  8
0
100
AcDbBlockBegin
  2
*Model_Space
 70
     0
 10
0.0
 20
0.0
 30
0.0
  3
*Model_Space
  1

  0
ENDBLK
  5
21
330
1F
100
AcDbEntity
  8
0
100
AcDbBlockEnd
  0
BLOCK
  5
1C
330
1B
100
AcDbEntity
 67
     1
  8
0
100
AcDbBlockBegin
  2
*Paper_Space
 70
     0
 10
0.0
 20
0.0
 30
0.0
  3
*Paper_Space
  1

  0
ENDBLK
  5
1D
330
1B
100
AcDbEntity
 67
     1
  8
0
100
AcDbBlockEnd
  0
BLOCK
  5
24
330
23
100
AcDbEntity
  8
0
100
AcDbBlockBegin
  2
*Paper_Space0
 70
     0
 10
0.0
 20
0.0
 30
0.0
  3
*Paper_Space0
  1

  0
ENDBLK
  5
25
330
23
100
AcDbEntity
  8
0
100
AcDbBlockEnd
  0
BLOCK
  5
7A
330
79
100
AcDbEntity
  8
0
100
AcDbBlockBegin
  2
Zeichnungskoordinaten_nNn00
 70
     0
 10
0.0
 20
0.0
 30
0.0
  3
Zeichnungskoordinaten_nNn00
  1

  0
LINE
  5
7C
330
79
100
AcDbEntity
  8
Layer100
  6
AUSGEZOGEN
 62
    18
420
        0
370
    18
100
AcDbLine
 10
-21.839103270081
 20
312.711083917825
 30
0.0
 11
163.160896729919
 21
312.711083917825
 31
0.0
  0
LINE
  5
7D
330
79
100
AcDbEntity
  8
Layer100
  6
AUSGEZOGEN
 62
    18
420
        0
370
    18
100
AcDbLine
 10
-26.839103270081
 20
87.061642065255
 30
0.0
 11
-26.839103270081
 21
317.711083917825
 31
0.0
  0
LINE
  5
7E
330
79
100
AcDbEntity
  8
Layer100
  6
AUSGEZOGEN
 62
    18
420
        0
370
    18
100
AcDbLine
 10
-26.839103270081
 20
317.711083917825
 30
0.0
 11
-21.839103270081
 21
317.711083917825
 31
0.0
  0
LINE
  5
7F
330
79
100
AcDbEntity
  8
Layer100
  6
AUSGEZOGEN
 62
    18
420
        0
370
    18
100
AcDbLine
 10
-21.839103270081
 20
87.061627377165
 30
0.0
 11
-26.839103270081
 21
87.061642065255
 31
0.0
  0
LINE
  5
80
330
79
100
AcDbEntity
  8
Layer100
  6
AUSGEZOGEN
 62
    18
420
        0
370
    18
100
AcDbLine
 10
-26.839103270081
 20
133.191530435769
 30
0.0
 11
-21.839103270081
 21
133.191530435769
 31
0.0
  0
LINE
  5
81
330
79
100
AcDbEntity
  8
Layer100
  6
AUSGEZOGEN
 62
    18
420
        0
370
    18
100
AcDbLine
 10
-26.839103270081
 20
179.321418806283
 30
0.0
 11
-21.839103270081
 21
179.321418806283
 31
0.0
  0
LINE
  5
82
330
79
100
AcDbEntity
  8
Layer100
  6
AUSGEZOGEN
 62
    18
420
        0
370
    18
100
AcDbLine
 10
-26.839103270081
 20
225.451307176797
 30
0.0
 11
-21.839103270081
 21
225.451307176797
 31
0.0
  0
LINE
  5
83
330
79
100
AcDbEntity
  8
Layer100
  6
AUSGEZOGEN
 62
    18
420
        0
370
    18
100
AcDbLine
 10
-26.839103270081
 20
271.581195547311
 30
0.0
 11
-21.839103270081
 21
271.581195547311
 31
0.0
  0
LINE
  5
84
330
79
100
AcDbEntity
  8
Layer100
  6
AUSGEZOGEN
 62
    18
420
        0
370
    18
100
AcDbLine
 10
24.410896729919
 20
312.711083917825
 30
0.0
 11
24.410896729919
 21
317.711083917825
 31
0.0
  0
LINE
  5
85
330
79
100
AcDbEntity
  8
Layer100
  6
AUSGEZOGEN
 62
    18
420
        0
370
    18
100
AcDbLine
 10
116.910896729919
 20
312.711083917825
 30
0.0
 11
116.910896729919
 21
317.711083917825
 31
0.0
  0
LINE
  5
86
330
79
100
AcDbEntity
  8
Layer100
  6
AUSGEZOGEN
 62
    18
420
        0
370
    18
100
AcDbLine
 10
70.660896729919
 20
312.711083917825
 30
0.0
 11
70.660896729919
 21
317.711083917825
 31
0.0
  0
TEXT
  5
87
330
79
100
AcDbEntity
  8
Layer100
  6
AUSGEZOGEN
 62
    18
420
        0
370
    18
100
AcDbText
 10
-25.527200968648
 20
293.757231820298
 30
0.0
 40
2.5
  1
A
 41
1.112781954887
  7
Arial
 72
     5
 11
-22.937200968648
 21
293.757231820298
 31
0.0
100
AcDbText
  0
TEXT
  5
88
330
79
100
AcDbEntity
  8
Layer100
  6
AUSGEZOGEN
 62
    18
420
        0
370
    18
100
AcDbText
 10
0.281430825783
 20
314.058907767538
 30
0.0
 40
2.5
  1
1
 41
1.028350515464
  7
Arial
 72
     5
 11
2.276430825783
 21
314.058907767538
 31
0.0
100
AcDbText
  0
TEXT
  5
89
330
79
100
AcDbEntity
  8
Layer100
  6
AUSGEZOGEN
 62
    18
420
        0
370
    18
100
AcDbText
 10
46.531430825783
 20
314.058907767538
 30
0.0
 40
2.5
  1
2
 41
1.028350515464
  7
Arial
 72
     5
 11
48.526430825783
 21
314.058907767538
 31
0.0
100
AcDbText
  0
TEXT
  5
8A
330
79
100
AcDbEntity
  8
Layer100
  6
AUSGEZOGEN
 62
    18
420
        0
370
    18
100
AcDbText
 10
92.781430825783
 20
314.058907767538
 30
0.0
 40
2.5
  1
3
 41
1.028350515464
  7
Arial
 72
     5
 11
94.776430825783
 21
314.058907767538
 31
0.0
100
AcDbText
  0
TEXT
  5
8B
330
79
100
AcDbEntity
  8
Layer100
  6
AUSGEZOGEN
 62
    18
420
        0
370
    18
100
AcDbText
 10
139.031430825783
 20
314.058907767538
 30
0.0
 40
2.5
  1
4
 41
1.028350515464
  7
Arial
 72
     5
 11
141.026430825783
 21
314.058907767538
 31
0.0
100
AcDbText
  0
TEXT
  5
8C
330
79
100
AcDbEntity
  8
Layer100
  6
AUSGEZOGEN
 62
    18
420
        0
370
    18
100
AcDbText
 10
-25.527200968648
 20
247.627343449784
 30
0.0
 40
2.5
  1
B
 41
1.112781954887
  7
Arial
 72
     5
 11
-22.937200968648
 21
247.627343449784
 31
0.0
100
AcDbText
  0
TEXT
  5
8D
330
79
100
AcDbEntity
  8
Layer100
  6
AUSGEZOGEN
 62
    18
420
        0
370
    18
100
AcDbText
 10
-25.527200968648
 20
201.49745507927
 30
0.0
 40
2.5
  1
C
 41
1.027777777778
  7
Arial
 72
     5
 11
-22.937200968648
 21
201.49745507927
 31
0.0
100
AcDbText
  0
TEXT
  5
8E
330
79
100
AcDbEntity
  8
Layer100
  6
AUSGEZOGEN
 62
    18
420
        0
370
    18
100
AcDbText
 10
-25.527200968648
 20
155.367566708756
 30
0.0
 40
2.5
  1
D
 41
1.027777777778
  7
Arial
 72
     5
 11
-22.937200968648
 21
155.367566708756
 31
0.0
100
AcDbText
  0
TEXT
  5
8F
330
79
100
AcDbEntity
  8
Layer100
  6
AUSGEZOGEN
 62
    18
420
        0
370
    18
100
AcDbText
 10
-25.527200968648
 20
109.237678338242
 30
0.0
 40
2.5
  1
E
 41
1.022556390977
  7
Arial
 72
     5
 11
-23.147200968648
 21
109.237678338242
 31
0.0
100
AcDbText
  0
ENDBLK
  5
7B
330
79
100
AcDbEntity
  8
0
100
AcDbBlockEnd
  0
BLOCK
  5
92
330
91
100
AcDbEntity
  8
0
100
AcDbBlockBegin
  2
Zeichnungsrahmen_nNn01
 70
     0
 10
0.0
 20
0.0
 30
0.0
  3
Zeichnungsrahmen_nNn01
  1

  0
LINE
  5
94
330
91
100
AcDbEntity
  8
Layer100
  6
AUSGEZOGEN
 62
    18
420
        0
370
    18
100
AcDbLine
 10
-19.719103270081
 20
31.811083917825
 30
0.0
 11
-19.719103270081
 21
87.061621163545
 31
0.0
  0
LINE
  5
95
330
91
100
AcDbEntity
  8
Layer100
  6
AUSGEZOGEN
 62
    18
420
        0
370
    18
100
AcDbLine
 10
-41.839103267609
 20
174.810194175393
 30
0.0
 11
-26.839103270081
 21
174.810205179736
 31
0.0
  0
TEXT
  5
96
330
91
100
AcDbEntity
  8
Layer100
  6
AUSGEZOGEN
 62
    18
420
        0
370
    18
100
AcDbText
 10
-34.592116513934
 20
264.662318139266
 30
0.0
 40
1.65
  1
Copying of this document and giving it to others,
 50
90.000002504478
 41
1.086902524168
  7
Arial
 72
     5
 11
-34.592118849374
 21
318.090968139266
 31
0.0
100
AcDbText
  0
TEXT
  5
97
330
91
100
AcDbEntity
  8
Layer100
  6
AUSGEZOGEN
 62
    18
420
        0
370
    18
100
AcDbText
 10
-31.952116236257
 20
258.309818254664
 30
0.0
 40
1.65
  1
and the use or communication of the contents thereof,
 50
90.000002504478
 41
1.085996043403
  7
Arial
 72
     5
 11
-31.952118849374
 21
318.090968254664
 31
0.0
100
AcDbText
  0
TEXT
  5
98
330
91
100
AcDbEntity
  8
Layer100
  6
AUSGEZOGEN
 62
    18
420
        0
370
    18
100
AcDbText
 10
-29.312115996878
 20
252.833468370062
 30
0.0
 40
1.65
  1
are forbidden without express authority. All rights reserved.
 50
90.000002504478
 41
1.087016270888
  7
Arial
 72
     5
 11
-29.312118849374
 21
318.090968370062
 31
0.0
100
AcDbText
  0
TEXT
  5
99
330
91
100
AcDbEntity
  8
Layer100
  6
AUSGEZOGEN
 62
    18
420
        0
370
    18
100
AcDbText
 10
-34.495500471568
 20
31.809399782296
 30
0.0
 40
1.65
  1
Weitergabe und Vervielfältigung dieser Unterlage, sowie
 50
90.000002504478
 41
1.085512875845
  7
Arial
 72
     5
 11
-34.495503192583
 21
94.058949782296
 31
0.0
100
AcDbText
  0
TEXT
  5
9A
330
91
100
AcDbEntity
  8
Layer100
  6
AUSGEZOGEN
 62
    18
420
        0
370
    18
100
AcDbText
 10
-31.855500471568
 20
31.809399897694
 30
0.0
 40
1.65
  1
Verwertung und Mitteilung ihres Inhalts nicht gestattet,
 50
90.000002504478
 41
1.087280088114
  7
Arial
 72
     5
 11
-31.85550310589
 21
92.075649897694
 31
0.0
100
AcDbText
  0
TEXT
  5
9B
330
91
100
AcDbEntity
  8
Layer100
  6
AUSGEZOGEN
 62
    18
420
        0
370
    18
100
AcDbText
 10
-29.215500471568
 20
31.809400013092
 30
0.0
 40
1.65
  1
soweit nicht ausdrücklich zugestanden. Alle Rechte vorbehalten
 50
90.000002504478
 41
1.085344193246
  7
Arial
 72
     5
 11
-29.215503556627
 21
102.387325013092
 31
0.0
100
AcDbText
  0
LINE
  5
9C
330
91
100
AcDbEntity
  8
Layer100
  6
AUSGEZOGEN
 62
    18
420
        0
370
    18
100
AcDbLine
 10
163.160896729919
 20
31.811083917825
 30
0.0
 11
163.160896729919
 21
317.711083917825
 31
0.0
  0
LINE
  5
9D
330
91
100
AcDbEntity
  8
Layer100
  6
AUSGEZOGEN
 62
    18
420
        0
370
    18
100
AcDbLine
 10
-21.839103270081
 20
31.811083917825
 30
0.0
 11
163.160896729919
 21
31.811083917825
 31
0.0
  0
LINE
  5
9E
330
91
100
AcDbEntity
  8
Layer100
  6
AUSGEZOGEN
 62
    18
420
        0
370
    18
100
AcDbLine
 10
163.160896729919
 20
87.061083917825
 30
0.0
 11
-19.721509553085
 21
87.061621156483
 31
0.0
  0
LINE
  5
9F
330
91
100
AcDbEntity
  8
Layer100
  6
AUSGEZOGEN
 62
    18
420
        0
370
    18
100
AcDbLine
 10
-21.839103270081
 20
31.811083917825
 30
0.0
 11
-21.839103270081
 21
317.711083917825
 31
0.0
  0
LINE
  5
A0
330
91
100
AcDbEntity
  8
Layer100
  6
AUSGEZOGEN
 62
    18
420
        0
370
    18
100
AcDbLine
 10
-21.839103270081
 20
317.711083917825
 30
0.0
 11
163.160896729919
 21
317.711083917825
 31
0.0
  0
ENDBLK
  5
93
330
91
100
AcDbEntity
  8
0
100
AcDbBlockEnd
  0
BLOCK
  5
A3
330
A2
100
AcDbEntity
  8
0
100
AcDbBlockBegin
  2
Schriftfeld_nNn02
 70
     0
 10
0.0
 20
0.0
 30
0.0
  3
Schriftfeld_nNn02
  1

  0
LINE
  5
A5
330
A2
100
AcDbEntity
  8
Layer100
  6
AUSGEZOGEN
 62
    18
420
        0
370
    18
100
AcDbLine
 10
34.880896729919
 20
87.061071228463
 30
0.0
 11
34.880896729919
 21
31.811071228463
 31
0.0
  0
LINE
  5
A6
330
A2
100
AcDbEntity
  8
Layer100
  6
AUSGEZOGEN
 62
    18
420
        0
370
    18
100
AcDbLine
 10
79.080896729919
 20
87.061077101404
 30
0.0
 11
79.080896729919
 21
31.811077101404
 31
0.0
  0
LINE
  5
A7
330
A2
100
AcDbEntity
  8
Layer100
  6
AUSGEZOGEN
 62
    18
420
        0
370
    18
100
AcDbLine
 10
152.760896729918
 20
48.811083917825
 30
0.0
 11
152.760896729918
 21
36.061083917825
 31
0.0
  0
LINE
  5
A8
330
A2
100
AcDbEntity
  8
Layer100
  6
AUSGEZOGEN
 62
    18
420
        0
370
    18
100
AcDbLine
 10
-11.919103270081
 20
70.061069779334
 30
0.0
 11
-11.919103270081
 21
31.811069779334
 31
0.0
  0
LINE
  5
A9
330
A2
100
AcDbEntity
  8
Layer100
  6
AUSGEZOGEN
 62
    18
420
        0
370
    18
100
AcDbLine
 10
27.080896729919
 20
70.06104040502
 30
0.0
 11
27.080896729919
 21
31.81104040502
 31
0.0
  0
LINE
  5
AA
330
A2
100
AcDbEntity
  8
Layer100
  6
AUSGEZOGEN
 62
    18
420
        0
370
    18
100
AcDbLine
 10
14.080896729919
 20
31.81104040502
 30
0.0
 11
14.080896729919
 21
87.06104040502
 31
0.0
  0
TEXT
  5
AB
330
A2
100
AcDbEntity
  8
Layer100
  6
AUSGEZOGEN
 62
    18
420
        0
370
    18
100
AcDbText
 10
79.960896729918
 20
78.073083913534
 30
0.0
 40
1.65
  1
Rohstoff/Raw material
 41
1.084377276038
  7
Arial
 72
     5
 11
104.526921729918
 21
78.073083913534
 31
0.0
100
AcDbText
  0
TEXT
  5
AC
330
A2
100
AcDbEntity
  8
Layer100
  6
AUSGEZOGEN
 62
    18
420
        0
370
    18
100
AcDbText
 10
79.960896729918
 20
74.248083913534
 30
0.0
 40
1.65
  1
Rohteil-Nr./Raw piece No.
 41
1.08488285608
  7
Arial
 72
     5
 11
108.841671729918
 21
74.248083913534
 31
0.0
100
AcDbText
  0
TEXT
  5
AD
330
A2
100
AcDbEntity
  8
Layer100
  6
AUSGEZOGEN
 62
    18
420
        0
370
    18
100
AcDbText
 10
80.090896729918
 20
70.635583913534
 30
0.0
 40
1.65
  1
Werkzeug-Nr./Tool No.
 41
1.082364069507
  7
Arial
 72
     5
 11
105.579271729918
 21
70.635583913534
 31
0.0
100
AcDbText
  0
TEXT
  5
AE
330
A2
100
AcDbEntity
  8
Layer100
  6
AUSGEZOGEN
 62
    18
420
        0
370
    18
100
AcDbText
 10
79.960896729918
 20
67.448083913534
 30
0.0
 40
1.65
  1
Benennung/Designation
 41
1.081895683695
  7
Arial
 72
     5
 11
106.553946729918
 21
67.448083913534
 31
0.0
100
AcDbText
  0
TEXT
  5
AF
330
A2
100
AcDbEntity
  8
Layer100
  6
AUSGEZOGEN
 62
    18
420
        0
370
    18
100
AcDbText
 10
79.830896729918
 20
46.410583913534
 30
0.0
 40
1.65
  1
Sachnummer/Part-No.
 41
1.080626575441
  7
Arial
 72
     5
 11
104.588321729918
 21
46.410583913534
 31
0.0
100
AcDbText
  0
TEXT
  5
B0
330
A2
100
AcDbEntity
  8
Layer100
  6
AUSGEZOGEN
 62
    18
420
        0
370
    18
100
AcDbText
 10
153.150896729919
 20
45.6675839307
 30
0.0
 40
1.65
  1
Blatt
 41
1.082885785893
  7
Arial
 72
     5
 11
158.141321729919
 21
45.6675839307
 31
0.0
100
AcDbText
  0
TEXT
  5
B1
330
A2
100
AcDbEntity
  8
Layer100
  6
AUSGEZOGEN
 62
    18
420
        0
370
    18
100
AcDbText
 10
153.150896729919
 20
43.5225839307
 30
0.0
 40
1.65
  1
Sheet
 41
1.077049629833
  7
Arial
 72
     5
 11
159.632096729919
 21
43.5225839307
 31
0.0
100
AcDbText
  0
TEXT
  5
B2
330
A2
100
AcDbEntity
  8
Layer100
  6
AUSGEZOGEN
 62
    18
420
        0
370
    18
100
AcDbText
 10
36.540896729919
 20
84.706083917825
 30
0.0
 40
1.65
  1
Zul. Abw. f. Maße
 41
1.08406472847
  7
Arial
 72
     5
 11
56.105771729918
 21
84.706083917825
 31
0.0
100
AcDbText
  0
TEXT
  5
B3
330
A2
100
AcDbEntity
  8
Layer100
  6
AUSGEZOGEN
 62
    18
420
        0
370
    18
100
AcDbText
 10
36.540896729919
 20
82.561083917825
 30
0.0
 40
1.65
  1
ohne Toleranzang.
 41
1.081972847568
  7
Arial
 72
     5
 11
57.317696729918
 21
82.561083917825
 31
0.0
100
AcDbText
  0
TEXT
  5
B4
330
A2
100
AcDbEntity
  8
Layer100
  6
AUSGEZOGEN
 62
    18
420
        0
370
    18
100
AcDbText
 10
36.540896729919
 20
80.416083917825
 30
0.0
 40
1.65
  1
General tolerances
 41
1.08276797829
  7
Arial
 72
     5
 11
57.608096729918
 21
80.416083917825
 31
0.0
100
AcDbText
  0
LINE
  5
B5
330
A2
100
AcDbEntity
  8
Layer100
  6
AUSGEZOGEN
 62
    18
420
        0
370
    18
100
AcDbLine
 10
163.160896729919
 20
42.436083917825
 30
0.0
 11
152.760896729918
 21
42.436083917825
 31
0.0
  0
TEXT
  5
B6
330
A2
100
AcDbEntity
  8
Layer100
  6
AUSGEZOGEN
 62
    18
420
        0
370
    18
100
AcDbText
 10
153.150896729919
 20
39.5050839307
 30
0.0
 40
1.65
  1
von
 41
1.072222222222
  7
Arial
 72
     5
 11
157.131521729919
 21
39.5050839307
 31
0.0
100
AcDbText
  0
TEXT
  5
B7
330
A2
100
AcDbEntity
  8
Layer100
  6
AUSGEZOGEN
 62
    18
420
        0
370
    18
100
AcDbText
 10
153.150896729919
 20
37.3600839307
 30
0.0
 40
1.65
  1
of
 41
1.072594501718
  7
Arial
 72
     5
 11
155.210921729919
 21
37.3600839307
 31
0.0
100
AcDbText
  0
LINE
  5
B8
330
A2
100
AcDbEntity
  8
Layer100
  6
AUSGEZOGEN
 62
    18
420
        0
370
    18
100
AcDbLine
 10
45.280896729919
 20
70.061083917825
 30
0.0
 11
45.280896729919
 21
53.061083917825
 31
0.0
  0
TEXT
  5
B9
330
A2
100
AcDbEntity
  8
Layer100
  6
AUSGEZOGEN
 62
    18
420
        0
370
    18
100
AcDbText
 10
35.630864988001
 20
55.229219694286
 30
0.0
 40
1.65
  1
Norm
 41
1.072977725674
  7
Arial
 72
     5
 11
41.671514988001
 21
55.229219694286
 31
0.0
100
AcDbText
  0
TEXT
  5
BA
330
A2
100
AcDbEntity
  8
Layer100
  6
AUSGEZOGEN
 62
    18
420
        0
370
    18
100
AcDbText
 10
35.630864988001
 20
53.084219694286
 30
0.0
 40
1.65
  1
Appr.
 41
1.078087529976
  7
Arial
 72
     5
 11
41.565089988001
 21
53.084219694286
 31
0.0
100
AcDbText
  0
TEXT
  5
BB
330
A2
100
AcDbEntity
  8
Layer100
  6
AUSGEZOGEN
 62
    18
420
        0
370
    18
100
AcDbText
 10
35.630553216768
 20
59.479793862885
 30
0.0
 40
1.65
  1
Gepr.
 41
1.076768834145
  7
Arial
 72
     5
 11
41.832903216768
 21
59.479793862885
 31
0.0
100
AcDbText
  0
TEXT
  5
BC
330
A2
100
AcDbEntity
  8
Layer100
  6
AUSGEZOGEN
 62
    18
420
        0
370
    18
100
AcDbText
 10
35.630553216768
 20
57.334793862885
 30
0.0
 40
1.65
  1
Check.
 41
1.077923572744
  7
Arial
 72
     5
 11
43.356678216768
 21
57.334793862885
 31
0.0
100
AcDbText
  0
TEXT
  5
BD
330
A2
100
AcDbEntity
  8
Layer100
  6
AUSGEZOGEN
 62
    18
420
        0
370
    18
100
AcDbText
 10
46.030543199762
 20
67.980645995131
 30
0.0
 40
1.65
  1
Datum
 41
1.075650693262
  7
Arial
 72
     5
 11
53.326843199762
 21
67.980645995131
 31
0.0
100
AcDbText
  0
TEXT
  5
BE
330
A2
100
AcDbEntity
  8
Layer100
  6
AUSGEZOGEN
 62
    18
420
        0
370
    18
100
AcDbText
 10
46.030543199762
 20
65.835645995131
 30
0.0
 40
1.65
  1
Date
 41
1.076492537313
  7
Arial
 72
     5
 11
51.266818199762
 21
65.835645995131
 31
0.0
100
AcDbText
  0
TEXT
  5
BF
330
A2
100
AcDbEntity
  8
Layer100
  6
AUSGEZOGEN
 62
    18
420
        0
370
    18
100
AcDbText
 10
61.630896729918
 20
67.9800839307
 30
0.0
 40
1.65
  1
Name
 41
1.072387859253
  7
Arial
 72
     5
 11
68.218521729918
 21
67.9800839307
 31
0.0
100
AcDbText
  0
TEXT
  5
C0
330
A2
100
AcDbEntity
  8
Layer100
  6
AUSGEZOGEN
 62
    18
420
        0
370
    18
100
AcDbText
 10
61.630896729918
 20
65.8350839307
 30
0.0
 40
1.65
  1
Name
 41
1.072387859253
  7
Arial
 72
     5
 11
68.218521729918
 21
65.8350839307
 31
0.0
100
AcDbText
  0
TEXT
  5
C1
330
A2
100
AcDbEntity
  8
Layer100
  6
AUSGEZOGEN
 62
    18
420
        0
370
    18
100
AcDbText
 10
35.628373551427
 20
63.731254476187
 30
0.0
 40
1.65
  1
Bearb.
 41
1.078672178988
  7
Arial
 72
     5
 11
42.946948551427
 21
63.731254476187
 31
0.0
100
AcDbText
  0
TEXT
  5
C2
330
A2
100
AcDbEntity
  8
Layer100
  6
AUSGEZOGEN
 62
    18
420
        0
370
    18
100
AcDbText
 10
35.628373551427
 20
61.586254476187
 30
0.0
 40
1.65
  1
Drawn
 41
1.075502107612
  7
Arial
 72
     5
 11
42.785248551427
 21
61.586254476187
 31
0.0
100
AcDbText
  0
TEXT
  5
C3
330
A2
100
AcDbEntity
  8
Layer100
  6
AUSGEZOGEN
 62
    18
420
        0
370
    18
100
AcDbText
 10
-18.839103270082
 20
33.9800839307
 30
0.0
 40
1.65
  1
Ausg.
 41
1.076912300364
  7
Arial
 72
     5
 11
-12.497328270082
 21
33.9800839307
 31
0.0
100
AcDbText
  0
TEXT
  5
C4
330
A2
100
AcDbEntity
  8
Layer100
  6
AUSGEZOGEN
 62
    18
420
        0
370
    18
100
AcDbText
 10
-18.839103270082
 20
31.8350839307
 30
0.0
 40
1.65
  1
Issue
 41
1.078087529976
  7
Arial
 72
     5
 11
-12.904878270082
 21
31.8350839307
 31
0.0
100
AcDbText
  0
TEXT
  5
C5
330
A2
100
AcDbEntity
  8
Layer100
  6
AUSGEZOGEN
 62
    18
420
        0
370
    18
100
AcDbText
 10
-11.039103270082
 20
33.9800839307
 30
0.0
 40
1.65
  1
Änderung
 41
1.077825512227
  7
Arial
 72
     5
 11
-0.276153270082
 21
33.9800839307
 31
0.0
100
AcDbText
  0
TEXT
  5
C6
330
A2
100
AcDbEntity
  8
Layer100
  6
AUSGEZOGEN
 62
    18
420
        0
370
    18
100
AcDbText
 10
-11.039103270082
 20
31.8350839307
 30
0.0
 40
1.65
  1
Modification
 41
1.083926413321
  7
Arial
 72
     5
 11
2.279696729918
 21
31.8350839307
 31
0.0
100
AcDbText
  0
TEXT
  5
C7
330
A2
100
AcDbEntity
  8
Layer100
  6
AUSGEZOGEN
 62
    18
420
        0
370
    18
100
AcDbText
 10
14.830896729918
 20
33.9800839307
 30
0.0
 40
1.65
  1
Datum
 41
1.075650693262
  7
Arial
 72
     5
 11
22.127196729918
 21
33.9800839307
 31
0.0
100
AcDbText
  0
TEXT
  5
C8
330
A2
100
AcDbEntity
  8
Layer100
  6
AUSGEZOGEN
 62
    18
420
        0
370
    18
100
AcDbText
 10
14.830896729918
 20
31.8350839307
 30
0.0
 40
1.65
  1
Date
 41
1.076492537313
  7
Arial
 72
     5
 11
20.067171729918
 21
31.8350839307
 31
0.0
100
AcDbText
  0
TEXT
  5
C9
330
A2
100
AcDbEntity
  8
Layer100
  6
AUSGEZOGEN
 62
    18
420
        0
370
    18
100
AcDbText
 10
27.830896729918
 20
33.9800839307
 30
0.0
 40
1.65
  1
Name
 41
1.072387859253
  7
Arial
 72
     5
 11
34.418521729918
 21
33.9800839307
 31
0.0
100
AcDbText
  0
TEXT
  5
CA
330
A2
100
AcDbEntity
  8
Layer100
  6
AUSGEZOGEN
 62
    18
420
        0
370
    18
100
AcDbText
 10
27.830896729918
 20
31.8350839307
 30
0.0
 40
1.65
  1
Name
 41
1.072387859253
  7
Arial
 72
     5
 11
34.418521729918
 21
31.8350839307
 31
0.0
100
AcDbText
  0
LINE
  5
CB
330
A2
100
AcDbEntity
  8
Layer100
  6
AUSGEZOGEN
 62
    18
420
        0
370
    18
100
AcDbLine
 10
60.880896729919
 20
70.061083917825
 30
0.0
 11
60.880896729919
 21
48.811083917825
 31
0.0
  0
LINE
  5
CC
330
A2
100
AcDbEntity
  8
Layer100
  6
AUSGEZOGEN
 62
    18
420
        0
370
    18
100
AcDbLine
 10
60.880896729919
 20
87.061084542956
 30
0.0
 11
60.880896729919
 21
70.061083917825
 31
0.0
  0
TEXT
  5
CD
330
A2
100
AcDbEntity
  8
Layer100
  6
AUSGEZOGEN
 62
    18
420
        0
370
    18
100
AcDbText
 10
131.830896729918
 20
84.531083917825
 30
0.0
 40
1.65
  1
Menge
 41
1.074408249356
  7
Arial
 72
     5
 11
139.395321729918
 21
84.531083917825
 31
0.0
100
AcDbText
  0
TEXT
  5
CE
330
A2
100
AcDbEntity
  8
Layer100
  6
AUSGEZOGEN
 62
    18
420
        0
370
    18
100
AcDbText
 10
131.830896729918
 20
82.386083917825
 30
0.0
 40
1.65
  1
Quantity
 41
1.081088880339
  7
Arial
 72
     5
 11
141.103071729918
 21
82.386083917825
 31
0.0
100
AcDbText
  0
TEXT
  5
CF
330
A2
100
AcDbEntity
  8
Layer100
  6
AUSGEZOGEN
 62
    18
420
        0
370
    18
100
AcDbText
 10
80.090896729918
 20
84.5550839307
 30
0.0
 40
1.65
  1
Maßstab
 41
1.076703499079
  7
Arial
 72
     5
 11
89.737621729918
 21
84.5550839307
 31
0.0
100
AcDbText
  0
TEXT
  5
D0
330
A2
100
AcDbEntity
  8
Layer100
  6
AUSGEZOGEN
 62
    18
420
        0
370
    18
100
AcDbText
 10
80.090896729918
 20
82.4100839307
 30
0.0
 40
1.65
  1
Scale
 41
1.076768834145
  7
Arial
 72
     5
 11
86.293246729918
 21
82.4100839307
 31
0.0
100
AcDbText
  0
TEXT
  5
D1
330
A2
100
AcDbEntity
  8
Layer100
  6
AUSGEZOGEN
 62
    18
420
        0
370
    18
100
AcDbText
 10
35.630896729918
 20
33.9800839307
 30
0.0
 40
1.65
  1
Dateiname
 41
1.079271003112
  7
Arial
 72
     5
 11
47.649496729918
 21
33.9800839307
 31
0.0
100
AcDbText
  0
TEXT
  5
D2
330
A2
100
AcDbEntity
  8
Layer100
  6
AUSGEZOGEN
 62
    18
420
        0
370
    18
100
AcDbText
 10
35.630896729918
 20
31.8350839307
 30
0.0
 40
1.65
  1
Filename
 41
1.078658536585
  7
Arial
 72
     5
 11
45.846871729918
 21
31.8350839307
 31
0.0
100
AcDbText
  0
TEXT
  5
D3
330
A2
100
AcDbEntity
  8
Layer100
  6
AUSGEZOGEN
 62
    18
420
        0
370
    18
100
AcDbText
 10
15.480896729918
 20
84.706083917825
 30
0.0
 40
1.65
  1
 Maße in mm
 41
1.079690569745
  7
Arial
 72
     5
 11
29.989346729918
 21
84.706083917825
 31
0.0
100
AcDbText
  0
TEXT
  5
D4
330
A2
100
AcDbEntity
  8
Layer100
  6
AUSGEZOGEN
 62
    18
420
        0
370
    18
100
AcDbText
 10
15.480896729918
 20
82.561083917825
 30
0.0
 40
1.65
  1
Dimensions in
 41
1.081916714204
  7
Arial
 72
     5
 11
31.127846729918
 21
82.561083917825
 31
0.0
100
AcDbText
  0
TEXT
  5
D5
330
A2
100
AcDbEntity
  8
Layer100
  6
AUSGEZOGEN
 62
    18
420
        0
370
    18
100
AcDbText
 10
15.480896729918
 20
80.416083917825
 30
0.0
 40
1.65
  1
 millimeters
 41
1.084880260734
  7
Arial
 72
     5
 11
28.113296729918
 21
80.416083917825
 31
0.0
100
AcDbText
  0
CIRCLE
  5
D6
330
A2
100
AcDbEntity
  8
Layer100
  6
AUSGEZOGEN
 62
    18
420
        0
370
    18
100
AcDbCircle
 10
27.716701675591
 20
74.330329747753
 30
0.0
 40
2.805868040801767
  0
CIRCLE
  5
D7
330
A2
100
AcDbEntity
  8
Layer100
  6
AUSGEZOGEN
 62
    18
420
        0
370
    18
100
AcDbCircle
 10
27.716701675591
 20
74.330329747753
 30
0.0
 40
1.882233502538071
  0
LINE
  5
D8
330
A2
100
AcDbEntity
  8
Layer100
  6
AUSGEZOGEN
 62
    18
420
        0
370
    18
100
AcDbLine
 10
17.050711827875
 20
72.448096245215
 30
0.0
 11
17.050711827875
 21
76.212563250291
 31
0.0
  0
LINE
  5
D9
330
A2
100
AcDbEntity
  8
Layer100
  6
AUSGEZOGEN
 62
    18
420
        0
370
    18
100
AcDbLine
 10
23.011117919246
 20
71.524461706951
 30
0.0
 11
23.011117919246
 21
77.136197788554
 31
0.0
  0
LINE
  5
DA
330
A2
100
AcDbEntity
  8
Layer100
  6
AUSGEZOGEN
 62
    18
420
        0
370
    18
100
AcDbLine
 10
17.050711827875
 20
76.212563250291
 30
0.0
 11
23.011117919246
 21
77.136197788554
 31
0.0
  0
LINE
  5
DB
330
A2
100
AcDbEntity
  8
Layer100
  6
AUSGEZOGEN
 62
    18
420
        0
370
    18
100
AcDbLine
 10
23.011117919246
 20
71.524461706951
 30
0.0
 11
17.050711827875
 21
72.448096245215
 31
0.0
  0
LINE
  5
DC
330
A2
100
AcDbEntity
  8
Layer100
  6
DASHDOT
 62
    18
420
        0
370
    18
100
AcDbLine
 10
27.716701675591
 20
70.879568330863
 30
0.0
 11
27.716701675591
 21
77.426105175631
 31
0.0
  0
LINE
  5
DD
330
A2
100
AcDbEntity
  8
Layer100
  6
DASHDOT
 62
    18
420
        0
370
    18
100
AcDbLine
 10
24.592737388741
 20
74.330329747753
 30
0.0
 11
30.855267241983
 21
74.330329747753
 31
0.0
  0
LINE
  5
DE
330
A2
100
AcDbEntity
  8
Layer100
  6
DASHDOT
 62
    18
420
        0
370
    18
100
AcDbLine
 10
16.763905016708
 20
74.330329747753
 30
0.0
 11
23.27934774738
 21
74.330329747753
 31
0.0
  0
TEXT
  5
DF
330
A2
100
AcDbEntity
  8
Layer100
  6
AUSGEZOGEN
 62
    18
420
        0
370
    18
100
AcDbText
 10
62.290321729919
 20
84.743583917825
 30
0.0
 40
1.65
  1
Fertigzustand
 41
1.082249290445
  7
Arial
 72
     5
 11
77.390296729919
 21
84.743583917825
 31
0.0
100
AcDbText
  0
TEXT
  5
E0
330
A2
100
AcDbEntity
  8
Layer100
  6
AUSGEZOGEN
 62
    18
420
        0
370
    18
100
AcDbText
 10
62.134396729919
 20
82.598583917825
 30
0.0
 40
1.65
  1
finished cond.
 41
1.084591267998
  7
Arial
 72
     5
 11
77.546221729919
 21
82.598583917825
 31
0.0
100
AcDbText
  0
TEXT
  5
E1
330
A2
100
AcDbEntity
  8
Layer100
  6
AUSGEZOGEN
 62
    18
420
        0
370
    18
100
AcDbText
 10
79.830896729918
 20
33.9800839307
 30
0.0
 40
1.65
  1
Ursprung
 41
1.078658536585
  7
Arial
 72
     5
 11
90.046871729918
 21
33.9800839307
 31
0.0
100
AcDbText
  0
TEXT
  5
E2
330
A2
100
AcDbEntity
  8
Layer100
  6
AUSGEZOGEN
 62
    18
420
        0
370
    18
100
AcDbText
 10
79.830896729918
 20
31.8350839307
 30
0.0
 40
1.65
  1
Source
 41
1.076549072818
  7
Arial
 72
     5
 11
87.685721729918
 21
31.8350839307
 31
0.0
100
AcDbText
  0
TEXT
  5
E3
330
A2
100
AcDbEntity
  8
Layer100
  6
AUSGEZOGEN
 62
    18
420
        0
370
    18
100
AcDbText
 10
140.800896729918
 20
32.793383917825
 30
0.0
 40
2.116666666667
  1
MegaCAD
 41
1.074712643678
  7
Arial
 72
     5
 11
155.446113396585
 21
32.793383917825
 31
0.0
100
AcDbText
  0
LINE
  5
E4
330
A2
100
AcDbEntity
  8
Layer100
  6
AUSGEZOGEN
 62
    18
420
        0
370
    18
100
AcDbLine
 10
131.080896729919
 20
36.061083917825
 30
0.0
 11
131.080896729919
 21
31.811083917825
 31
0.0
  0
LINE
  5
E5
330
A2
100
AcDbEntity
  8
Layer100
  6
AUSGEZOGEN
 62
    18
420
        0
370
    18
100
AcDbLine
 10
-19.719103270081
 20
36.061083917825
 30
0.0
 11
163.160896729919
 21
36.061083917825
 31
0.0
  0
LINE
  5
E6
330
A2
100
AcDbEntity
  8
Layer100
  6
AUSGEZOGEN
 62
    18
420
        0
370
    18
100
AcDbLine
 10
-19.719103270081
 20
40.311083917825
 30
0.0
 11
34.880896729919
 21
40.311083917825
 31
0.0
  0
LINE
  5
E7
330
A2
100
AcDbEntity
  8
Layer100
  6
AUSGEZOGEN
 62
    18
420
        0
370
    18
100
AcDbLine
 10
-19.719103270081
 20
44.561083917825
 30
0.0
 11
34.880896729919
 21
44.561083917825
 31
0.0
  0
LINE
  5
E8
330
A2
100
AcDbEntity
  8
Layer100
  6
AUSGEZOGEN
 62
    18
420
        0
370
    18
100
AcDbLine
 10
34.880896729919
 20
48.811083917825
 30
0.0
 11
163.160896729919
 21
48.811083917825
 31
0.0
  0
LINE
  5
E9
330
A2
100
AcDbEntity
  8
Layer100
  6
AUSGEZOGEN
 62
    18
420
        0
370
    18
100
AcDbLine
 10
-19.719103270081
 20
48.811083917825
 30
0.0
 11
34.880896729919
 21
48.811083917825
 31
0.0
  0
LINE
  5
EA
330
A2
100
AcDbEntity
  8
Layer100
  6
AUSGEZOGEN
 62
    18
420
        0
370
    18
100
AcDbLine
 10
-19.719103270081
 20
53.061083917825
 30
0.0
 11
79.080896729919
 21
53.061083917825
 31
0.0
  0
LINE
  5
EB
330
A2
100
AcDbEntity
  8
Layer100
  6
AUSGEZOGEN
 62
    18
420
        0
370
    18
100
AcDbLine
 10
-19.719103270081
 20
57.311083917825
 30
0.0
 11
79.080896729919
 21
57.311083917825
 31
0.0
  0
LINE
  5
EC
330
A2
100
AcDbEntity
  8
Layer100
  6
AUSGEZOGEN
 62
    18
420
        0
370
    18
100
AcDbLine
 10
-19.719103270081
 20
61.561083917825
 30
0.0
 11
79.080896729919
 21
61.561083917825
 31
0.0
  0
LINE
  5
ED
330
A2
100
AcDbEntity
  8
Layer100
  6
AUSGEZOGEN
 62
    18
420
        0
370
    18
100
AcDbLine
 10
-19.719103270081
 20
65.811083917825
 30
0.0
 11
79.080896729919
 21
65.811083917825
 31
0.0
  0
LINE
  5
EE
330
A2
100
AcDbEntity
  8
Layer100
  6
AUSGEZOGEN
 62
    18
420
        0
370
    18
100
AcDbLine
 10
-19.719103270081
 20
70.061083917825
 30
0.0
 11
163.160896729919
 21
70.061083917825
 31
0.0
  0
LINE
  5
EF
330
A2
100
AcDbEntity
  8
Layer100
  6
AUSGEZOGEN
 62
    18
420
        0
370
    18
100
AcDbLine
 10
131.080896729919
 20
87.061077101404
 30
0.0
 11
131.080896729919
 21
80.686178156585
 31
0.0
  0
LINE
  5
F0
330
A2
100
AcDbEntity
  8
Layer100
  6
AUSGEZOGEN
 62
    18
420
        0
370
    18
100
AcDbLine
 10
163.160878002603
 20
80.686083917853
 30
0.0
 11
79.080896729919
 21
80.686330912724
 31
0.0
  0
ENDBLK
  5
A4
330
A2
100
AcDbEntity
  8
0
100
AcDbBlockEnd
  0
BLOCK
  5
F3
330
F2
100
AcDbEntity
  8
0
100
AcDbBlockBegin
  2
Beschriftung_nNn03
 70
     0
 10
0.0
 20
0.0
 30
0.0
  3
Beschriftung_nNn03
  1

  0
TEXT
  5
F5
330
F2
100
AcDbEntity
  8
Layer100
  6
AUSGEZOGEN
 62
    18
420
        0
370
    18
100
AcDbText
 10
40.180896729918
 20
74.523583917825
 30
0.0
 40
2.116666555405
  1
ISO 2768-Km
 41
1.029179337346
  7
Arial
 72
     5
 11
58.601696437093
 21
74.523583917825
 31
0.0
100
AcDbText
  0
TEXT
  5
F6
330
F2
100
AcDbEntity
  8
Layer100
  6
AUSGEZOGEN
 62
    18
420
        0
370
    18
100
AcDbText
 10
110.510896729918
 20
77.711083917825
 30
0.0
 40
2.116666555405
  1
-
 41
0.967741971819
  7
Arial
 72
     5
 11
111.463396715613
 21
77.711083917825
 31
0.0
100
AcDbText
  0
TEXT
  5
F7
330
F2
100
AcDbEntity
  8
Layer100
  6
AUSGEZOGEN
 62
    18
420
        0
370
    18
100
AcDbText
 10
110.510896729918
 20
74.311083917825
 30
0.0
 40
2.116666555405
  1
-
 41
0.967741971819
  7
Arial
 72
     5
 11
111.463396715613
 21
74.311083917825
 31
0.0
100
AcDbText
  0
TEXT
  5
F8
330
F2
100
AcDbEntity
  8
Layer100
  6
AUSGEZOGEN
 62
    18
420
        0
370
    18
100
AcDbText
 10
110.510896729918
 20
70.698583917825
 30
0.0
 40
2.116666555405
  1
-
 41
0.967741971819
  7
Arial
 72
     5
 11
111.463396715613
 21
70.698583917825
 31
0.0
100
AcDbText
  0
TEXT
  5
F9
330
F2
100
AcDbEntity
  8
Layer100
  6
AUSGEZOGEN
 62
    18
420
        0
370
    18
100
AcDbText
 10
159.780896729919
 20
38.186083917825
 30
0.0
 40
2.116666555405
  1
1
 41
0.974226840702
  7
Arial
 72
     5
 11
161.381096705886
 21
38.186083917825
 31
0.0
100
AcDbText
  0
TEXT
  5
FA
330
F2
100
AcDbEntity
  8
Layer100
  6
AUSGEZOGEN
 62
    18
420
        0
370
    18
100
AcDbText
 10
159.910896729919
 20
44.348583917825
 30
0.0
 40
2.116666555405
  1
1
 41
0.974226840702
  7
Arial
 72
     5
 11
161.511096705886
 21
44.348583917825
 31
0.0
100
AcDbText
  0
TEXT
  5
FB
330
F2
100
AcDbEntity
  8
Layer100
  6
AUSGEZOGEN
 62
    18
420
        0
370
    18
100
AcDbText
 10
92.310896729918
 20
82.811083917825
 30
0.0
 40
2.116666555405
  1
1:1
 41
1.022756754879
  7
Arial
 72
     5
 11
96.51067666361
 21
82.811083917825
 31
0.0
100
AcDbText
  0
TEXT
  5
FC
330
F2
100
AcDbEntity
  8
Layer100
  6
AUSGEZOGEN
 62
    18
420
        0
370
    18
100
AcDbText
 10
145.870896729919
 20
83.023583917825
 30
0.0
 40
2.116666555405
  1
1
 41
0.974226840702
  7
Arial
 72
     5
 11
147.471096705886
 21
83.023583917825
 31
0.0
100
AcDbText
  0
TEXT
  5
FD
330
F2
100
AcDbEntity
  8
Layer100
  6
AUSGEZOGEN
 62
    18
420
        0
370
    18
100
AcDbText
 10
80.160896729919
 20
59.811083917825
 30
0.0
 40
4.25
  1
PE- Magnet
 41
0.907739485449
  7
Arial
 72
     5
 11
108.593566762897
 21
59.811083917825
 31
0.0
100
AcDbText
  0
TEXT
  5
FE
330
F2
100
AcDbEntity
  8
Layer100
  6
AUSGEZOGEN
 62
    18
420
        0
370
    18
100
AcDbText
 10
80.160896729919
 20
52.811083917825
 30
0.0
 40
4.25
  1
%%c35x29
 41
0.89818330682
  7
Arial
 72
     5
 11
98.819756745788
 21
52.811083917825
 31
0.0
100
AcDbText
  0
TEXT
  5
FF
330
F2
100
AcDbEntity
  8
Layer100
  6
AUSGEZOGEN
 62
    18
420
        0
370
    18
100
AcDbText
 10
45.900896729919
 20
62.411083917825
 30
0.0
 40
2.116666555405
  1
21.04.08
 41
1.034889233423
  7
Arial
 72
     5
 11
57.799776539894
 21
62.411083917825
 31
0.0
100
AcDbText
  0
TEXT
  5
100
330
F2
100
AcDbEntity
  8
Layer100
  6
AUSGEZOGEN
 62
    18
420
        0
370
    18
100
AcDbText
 10
61.760896729918
 20
62.411083917825
 30
0.0
 40
2.116666555405
  1
C. Franke
 41
1.034691964415
  7
Arial
 72
     5
 11
75.181816515418
 21
62.411083917825
 31
0.0
100
AcDbText
  0
TEXT
  5
101
330
F2
100
AcDbEntity
  8
Layer100
  6
AUSGEZOGEN
 62
    18
420
        0
370
    18
100
AcDbText
 10
45.900896729919
 20
58.161083917825
 30
0.0
 40
2.116666555405
  1
21.04.08
 41
1.034889233423
  7
Arial
 72
     5
 11
57.799776539894
 21
58.161083917825
 31
0.0
100
AcDbText
  0
TEXT
  5
102
330
F2
100
AcDbEntity
  8
Layer100
  6
AUSGEZOGEN
 62
    18
420
        0
370
    18
100
AcDbText
 10
61.760896729918
 20
58.161083917825
 30
0.0
 40
2.116666555405
  1
R. Mannel
 41
1.033578425833
  7
Arial
 72
     5
 11
75.677116507979
 21
58.161083917825
 31
0.0
100
AcDbText
  0
ENDBLK
  5
F4
330
F2
100
AcDbEntity
  8
0
100
AcDbBlockEnd
  0
BLOCK
  5
176
330
175
100
AcDbEntity
  8
0
100
AcDbBlockBegin
  2
_Dot_nNn04
 70
     0
 10
0.0
 20
0.0
 30
0.0
  3
_Dot_nNn04
  1

  0
LWPOLYLINE
  5
178
330
175
100
AcDbEntity
  8
Layer0
  6
AUSGEZOGEN
 62
    18
420
        0
370
    18
100
AcDbPolyline
 90
        2
 70
     1
 43
0.0
 10
58.271913861283
 20
280.013226296704
 42
1.0
 10
58.34610525414
 20
279.975277888696
 42
1.0
  0
LINE
  5
179
330
175
100
AcDbEntity
  8
Layer0
  6
AUSGEZOGEN
 62
    18
420
        0
370
    18
100
AcDbLine
 10
58.234818164855
 20
280.032200500709
 30
0.0
 11
58.160626771998
 21
280.070148908717
 31
0.0
  0
ENDBLK
  5
177
330
175
100
AcDbEntity
  8
0
100
AcDbBlockEnd
  0
BLOCK
  5
17E
330
17D
100
AcDbEntity
  8
0
100
AcDbBlockBegin
  2
SW_CENTERMARKSYMBOL_0_nNn05
 70
     0
 10
0.0
 20
0.0
 30
0.0
  3
SW_CENTERMARKSYMBOL_0_nNn05
  1

  0
LINE
  5
180
330
17D
100
AcDbEntity
  8
Layer0
  6
AUSGEZOGEN
 62
    18
420
        0
370
    18
100
AcDbLine
 10
67.027272334277
 20
273.227463584882
 30
0.0
 11
64.527272334277
 21
273.227463584882
 31
0.0
  0
LINE
  5
181
330
17D
100
AcDbEntity
  8
Layer0
  6
AUSGEZOGEN
 62
    18
420
        0
370
    18
100
AcDbLine
 10
67.027272334277
 20
273.227463584882
 30
0.0
 11
67.027272334277
 21
270.727463584882
 31
0.0
  0
LINE
  5
182
330
17D
100
AcDbEntity
  8
Layer0
  6
AUSGEZOGEN
 62
    18
420
        0
370
    18
100
AcDbLine
 10
67.027272334277
 20
273.227463584882
 30
0.0
 11
69.527272334277
 21
273.227463584882
 31
0.0
  0
LINE
  5
183
330
17D
100
AcDbEntity
  8
Layer0
  6
AUSGEZOGEN
 62
    18
420
        0
370
    18
100
AcDbLine
 10
67.027272334277
 20
273.227463584882
 30
0.0
 11
67.027272334277
 21
275.727463584882
 31
0.0
  0
LINE
  5
184
330
17D
100
AcDbEntity
  8
Layer0
  6
AUSGEZOGEN
 62
    18
420
        0
370
    18
100
AcDbLine
 10
62.027272334277
 20
273.227463584882
 30
0.0
 11
47.327272334277
 21
273.227463584882
 31
0.0
  0
LINE
  5
185
330
17D
100
AcDbEntity
  8
Layer0
  6
AUSGEZOGEN
 62
    18
420
        0
370
    18
100
AcDbLine
 10
67.027272334277
 20
268.227463584882
 30
0.0
 11
67.027272334277
 21
253.527463584882
 31
0.0
  0
LINE
  5
186
330
17D
100
AcDbEntity
  8
Layer0
  6
AUSGEZOGEN
 62
    18
420
        0
370
    18
100
AcDbLine
 10
72.027272334277
 20
273.227463584882
 30
0.0
 11
86.727272334277
 21
273.227463584882
 31
0.0
  0
LINE
  5
187
330
17D
100
AcDbEntity
  8
Layer0
  6
AUSGEZOGEN
 62
    18
420
        0
370
    18
100
AcDbLine
 10
67.027272334277
 20
278.227463584882
 30
0.0
 11
67.027272334277
 21
293.01674342967
 31
0.0
  0
ENDBLK
  5
17F
330
17D
100
AcDbEntity
  8
0
100
AcDbBlockEnd
  0
BLOCK
  5
19A
330
199
100
AcDbEntity
  8
0
100
AcDbBlockBegin
  2
AnonymMegaMac_nNn06
 70
     0
 10
0.0
 20
0.0
 30
0.0
  3
AnonymMegaMac_nNn06
  1

  0
HATCH
  5
19C
330
199
100
AcDbEntity
  8
Layer0
  6
AUSGEZOGEN
 62
    18
420
        0
370
    18
100
AcDbHatch
 10
0.0
 20
0.0
 30
0.0
210
0.0
220
0.0
230
1.0
  2
SOLID
 70
     1
 71
     0
 91
        1
 92
        2
 72
     0
 73
     1
 93
        3
 10
80.77889873616456
 20
143.1264444995998
 10
81.39583155387217
 20
143.6938014405421
 10
80.96300681566524
 20
143.9441267209197
 97
        0
 75
     0
 76
     1
 98
        0
  0
LINE
  5
19D
330
199
100
AcDbEntity
  8
Layer0
  6
AUSGEZOGEN
 62
    18
420
        0
370
    18
100
AcDbLine
 10
80.778898736165
 20
143.1264444996
 30
0.0
 11
86.95213711794
 21
153.80027769156
 31
0.0
  0
LINE
  5
19E
330
199
100
AcDbEntity
  8
Layer0
  6
AUSGEZOGEN
 62
    18
420
        0
370
    18
100
AcDbLine
 10
78.275645932389
 20
138.79819711753
 30
0.0
 11
80.778898736165
 21
143.1264444996
 31
0.0
  0
LINE
  5
19F
330
199
100
AcDbEntity
  8
Layer0
  6
AUSGEZOGEN
 62
    18
420
        0
370
    18
100
AcDbLine
 10
86.95213711794
 20
153.80027769156
 30
0.0
 11
86.95213711794
 21
160.111150108657
 31
0.0
  0
TEXT
  5
1A0
330
199
100
AcDbEntity
  8
Layer0
  6
AUSGEZOGEN
 62
    18
420
        0
370
    18
100
AcDbText
 10
86.09178555544
 20
155.38777769156
 30
0.0
 40
3.0
  1
%%c
 50
90.0
 41
0.902495372097
  7
Verdana
 72
     5
 11
86.09178555544
 21
158.317277669387
 31
0.0
100
AcDbText
  0
TEXT
  5
1A1
330
199
100
AcDbEntity
  8
Layer0
  6
AUSGEZOGEN
 62
    18
420
        0
370
    18
100
AcDbText
 10
86.091785642751
 20
158.024761155665
 30
0.0
 40
3.0
  1
5
 50
90.0
 41
0.901029741464
  7
Verdana
 72
     5
 11
86.091785642751
 21
160.387261137783
 31
0.0
100
AcDbText
  0
ENDBLK
  5
19B
330
199
100
AcDbEntity
  8
0
100
AcDbBlockEnd
  0
BLOCK
  5
1A4
330
1A3
100
AcDbEntity
  8
0
100
AcDbBlockBegin
  2
SW_CENTERMARKSYMBOL_1_nNn07
 70
     0
 10
0.0
 20
0.0
 30
0.0
  3
SW_CENTERMARKSYMBOL_1_nNn07
  1

  0
LINE
  5
1A6
330
1A3
100
AcDbEntity
  8
Layer0
  6
AUSGEZOGEN
 62
    18
420
        0
370
    18
100
AcDbLine
 10
67.027272334277
 20
140.962320808565
 30
0.0
 11
64.527272334277
 21
140.962320808565
 31
0.0
  0
LINE
  5
1A7
330
1A3
100
AcDbEntity
  8
Layer0
  6
AUSGEZOGEN
 62
    18
420
        0
370
    18
100
AcDbLine
 10
67.027272334277
 20
140.962320808565
 30
0.0
 11
67.027272334277
 21
138.462320808565
 31
0.0
  0
LINE
  5
1A8
330
1A3
100
AcDbEntity
  8
Layer0
  6
AUSGEZOGEN
 62
    18
420
        0
370
    18
100
AcDbLine
 10
67.027272334277
 20
140.962320808565
 30
0.0
 11
69.527272334277
 21
140.962320808565
 31
0.0
  0
LINE
  5
1A9
330
1A3
100
AcDbEntity
  8
Layer0
  6
AUSGEZOGEN
 62
    18
420
        0
370
    18
100
AcDbLine
 10
67.027272334277
 20
140.962320808565
 30
0.0
 11
67.027272334277
 21
143.462320808565
 31
0.0
  0
LINE
  5
1AA
330
1A3
100
AcDbEntity
  8
Layer0
  6
AUSGEZOGEN
 62
    18
420
        0
370
    18
100
AcDbLine
 10
62.027272334277
 20
140.962320808565
 30
0.0
 11
47.027272334277
 21
140.962320808565
 31
0.0
  0
LINE
  5
1AB
330
1A3
100
AcDbEntity
  8
Layer0
  6
AUSGEZOGEN
 62
    18
420
        0
370
    18
100
AcDbLine
 10
67.027272334277
 20
135.962320808565
 30
0.0
 11
67.027272334277
 21
120.962320808565
 31
0.0
  0
LINE
  5
1AC
330
1A3
100
AcDbEntity
  8
Layer0
  6
AUSGEZOGEN
 62
    18
420
        0
370
    18
100
AcDbLine
 10
72.027272334277
 20
140.962320808565
 30
0.0
 11
87.027272334277
 21
140.962320808565
 31
0.0
  0
LINE
  5
1AD
330
1A3
100
AcDbEntity
  8
Layer0
  6
AUSGEZOGEN
 62
    18
420
        0
370
    18
100
AcDbLine
 10
67.027272334277
 20
145.962320808565
 30
0.0
 11
67.027272334277
 21
160.962320808565
 31
0.0
  0
ENDBLK
  5
1A5
330
1A3
100
AcDbEntity
  8
0
100
AcDbBlockEnd
  0
BLOCK
  5
1B0
330
1AF
100
AcDbEntity
  8
0
100
AcDbBlockBegin
  2
SW_CENTERMARKSYMBOL_2_nNn08
 70
     0
 10
0.0
 20
0.0
 30
0.0
  3
SW_CENTERMARKSYMBOL_2_nNn08
  1

  0
LINE
  5
1B2
330
1AF
100
AcDbEntity
  8
Layer0
  6
AUSGEZOGEN
 62
    18
420
        0
370
    18
100
AcDbLine
 10
79.527272334277
 20
140.962320808565
 30
0.0
 11
77.027272334277
 21
140.962320808565
 31
0.0
  0
LINE
  5
1B3
330
1AF
100
AcDbEntity
  8
Layer0
  6
AUSGEZOGEN
 62
    18
420
        0
370
    18
100
AcDbLine
 10
79.527272334277
 20
140.962320808565
 30
0.0
 11
79.527272334277
 21
138.462320808565
 31
0.0
  0
LINE
  5
1B4
330
1AF
100
AcDbEntity
  8
Layer0
  6
AUSGEZOGEN
 62
    18
420
        0
370
    18
100
AcDbLine
 10
79.527272334277
 20
140.962320808565
 30
0.0
 11
82.027272334277
 21
140.962320808565
 31
0.0
  0
LINE
  5
1B5
330
1AF
100
AcDbEntity
  8
Layer0
  6
AUSGEZOGEN
 62
    18
420
        0
370
    18
100
AcDbLine
 10
79.527272334277
 20
140.962320808565
 30
0.0
 11
79.527272334277
 21
143.462320808565
 31
0.0
  0
LINE
  5
1B6
330
1AF
100
AcDbEntity
  8
Layer0
  6
AUSGEZOGEN
 62
    18
420
        0
370
    18
100
AcDbLine
 10
77.027272334277
 20
140.962320808565
 30
0.0
 11
74.527272334277
 21
140.962320808565
 31
0.0
  0
LINE
  5
1B7
330
1AF
100
AcDbEntity
  8
Layer0
  6
AUSGEZOGEN
 62
    18
420
        0
370
    18
100
AcDbLine
 10
79.527272334277
 20
138.462320808565
 30
0.0
 11
79.527272334277
 21
135.962320808565
 31
0.0
  0
LINE
  5
1B8
330
1AF
100
AcDbEntity
  8
Layer0
  6
AUSGEZOGEN
 62
    18
420
        0
370
    18
100
AcDbLine
 10
82.027272334277
 20
140.962320808565
 30
0.0
 11
84.527272334277
 21
140.962320808565
 31
0.0
  0
LINE
  5
1B9
330
1AF
100
AcDbEntity
  8
Layer0
  6
AUSGEZOGEN
 62
    18
420
        0
370
    18
100
AcDbLine
 10
79.527272334277
 20
143.462320808565
 30
0.0
 11
79.527272334277
 21
145.962320808565
 31
0.0
  0
ENDBLK
  5
1B1
330
1AF
100
AcDbEntity
  8
0
100
AcDbBlockEnd
  0
BLOCK
  5
1BC
330
1BB
100
AcDbEntity
  8
0
100
AcDbBlockBegin
  2
*D10
 70
     1
 10
0.0
 20
0.0
 30
0.0
  3
*D10
  1

  0
HATCH
  5
1BE
330
1BB
100
AcDbEntity
  8
Layer6
  6
AUSGEZOGEN
 62
    18
420
        0
370
    18
100
AcDbHatch
 10
0.0
 20
0.0
 30
0.0
210
0.0
220
0.0
230
1.0
  2
SOLID
 70
     1
 71
     0
 91
        1
 92
        2
 72
     0
 73
     1
 93
        3
 10
79.52727233427677
 20
166.4810525112373
 10
76.02727233427677
 20
167.0060525112373
 10
76.02727233427677
 20
165.9560525112373
 97
        0
 75
     0
 76
     1
 98
        0
  0
HATCH
  5
1BF
330
1BB
100
AcDbEntity
  8
Layer6
  6
AUSGEZOGEN
 62
    18
420
        0
370
    18
100
AcDbHatch
 10
0.0
 20
0.0
 30
0.0
210
0.0
220
0.0
230
1.0
  2
SOLID
 70
     1
 71
     0
 91
        1
 92
        2
 72
     0
 73
     1
 93
        3
 10
67.02727233427677
 20
166.4810525112373
 10
70.52727233427677
 20
165.9560525112373
 10
70.52727233427677
 20
167.0060525112373
 97
        0
 75
     0
 76
     1
 98
        0
  0
LINE
  5
1C0
330
1BB
100
AcDbEntity
  8
Layer6
  6
AUSGEZOGEN
 62
    18
420
        0
370
    18
100
AcDbLine
 10
70.527272334277
 20
166.481052511237
 30
0.0
 11
76.027272334277
 21
166.481052511237
 31
0.0
  0
LINE
  5
1C1
330
1BB
100
AcDbEntity
  8
Layer6
  6
AUSGEZOGEN
 62
    18
420
        0
370
    18
100
AcDbLine
 10
67.027272334277
 20
160.962320808565
 30
0.0
 11
67.027272334277
 21
168.195338225523
 31
0.0
  0
LINE
  5
1C2
330
1BB
100
AcDbEntity
  8
Layer6
  6
AUSGEZOGEN
 62
    18
420
        0
370
    18
100
AcDbLine
 10
79.527272334277
 20
145.962320808565
 30
0.0
 11
79.527272334277
 21
151.232650422834
 31
0.0
  0
LINE
  5
1C3
330
1BB
100
AcDbEntity
  8
Layer6
  6
AUSGEZOGEN
 62
    18
420
        0
370
    18
100
AcDbLine
 10
79.527272334277
 20
152.232650422834
 30
0.0
 11
79.527272334277
 21
152.709769522481
 31
0.0
  0
LINE
  5
1C4
330
1BB
100
AcDbEntity
  8
Layer6
  6
AUSGEZOGEN
 62
    18
420
        0
370
    18
100
AcDbLine
 10
79.527272334277
 20
153.709769522481
 30
0.0
 11
79.527272334277
 21
168.195338225523
 31
0.0
  0
WIPEOUT
  5
1C5
330
1BB
100
AcDbEntity
  8
Layer6
  6
AUSGEZOGEN
 62
    18
420
        0
370
    18
160
               128
310
80000000020000000C00000014000000010000006C00000007000000040000005C6E5A5B66435140EFD3A22ECBC5644000000000000000009878914D17605340EFD3A22ECBC5644000000000000000009878914D17605340896D3CC8645F654000000000000000005C6E5A5B66435140896D3CC8645F654000000000000000
310
00
100
AcDbWipeout
 90
        0
 10
69.053122366249
 20
166.181052511237
 30
0.0
 11
8.448299936056131
 21
0.0
 31
0.0
 12
0.0
 22
8.448299936056131
 32
0.0
 13
1.0
 23
1.0
340
0
 70
     7
280
     1
281
    50
282
    50
283
     0
360
0
 71
     2
 91
        5
 14
-0.5
 24
0.5
 14
0.5
 24
0.5
 14
0.5
 24
-0.068161646287
 14
-0.5
 24
-0.068161646287
 14
-0.5
 24
0.5
290
     0
  0
TEXT
  5
1C6
330
1BB
100
AcDbEntity
  8
Layer6
  6
AUSGEZOGEN
 62
    18
420
        0
370
    18
100
AcDbText
 10
69.053122366249
 20
167.081052511237
 30
0.0
 40
3.0
  1
12.5
 41
0.902017930392
  7
Verdana
 72
     5
 11
77.501422302305
 21
167.081052511237
 31
0.0
100
AcDbText
  0
ENDBLK
  5
1BD
330
1BB
100
AcDbEntity
  8
0
100
AcDbBlockEnd
  0
BLOCK
  5
1C9
330
1C8
100
AcDbEntity
  8
0
100
AcDbBlockBegin
  2
*D11
 70
     1
 10
0.0
 20
0.0
 30
0.0
  3
*D11
  1

  0
HATCH
  5
1CB
330
1C8
100
AcDbEntity
  8
Layer6
  6
AUSGEZOGEN
 62
    18
420
        0
370
    18
100
AcDbHatch
 10
0.0
 20
0.0
 30
0.0
210
0.0
220
0.0
230
1.0
  2
SOLID
 70
     1
 71
     0
 91
        1
 92
        2
 72
     0
 73
     1
 93
        3
 10
84.52727233427689
 20
180.8072673020852
 10
81.02727233427689
 20
181.3322673020852
 10
81.02727233427689
 20
180.2822673020852
 97
        0
 75
     0
 76
     1
 98
        0
  0
HATCH
  5
1CC
330
1C8
100
AcDbEntity
  8
Layer6
  6
AUSGEZOGEN
 62
    18
420
        0
370
    18
100
AcDbHatch
 10
0.0
 20
0.0
 30
0.0
210
0.0
220
0.0
230
1.0
  2
SOLID
 70
     1
 71
     0
 91
        1
 92
        2
 72
     0
 73
     1
 93
        3
 10
49.52727233427683
 20
180.8072673020852
 10
53.02727233427683
 20
180.2822673020852
 10
53.02727233427683
 20
181.3322673020852
 97
        0
 75
     0
 76
     1
 98
        0
  0
LINE
  5
1CD
330
1C8
100
AcDbEntity
  8
Layer6
  6
AUSGEZOGEN
 62
    18
420
        0
370
    18
100
AcDbLine
 10
53.027272334277
 20
180.807267302085
 30
0.0
 11
81.027272334277
 21
180.807267302085
 31
0.0
  0
LINE
  5
1CE
330
1C8
100
AcDbEntity
  8
Layer6
  6
AUSGEZOGEN
 62
    18
420
        0
370
    18
100
AcDbLine
 10
49.527272334277
 20
191.748881259585
 30
0.0
 11
49.527272334277
 21
179.092981587799
 31
0.0
  0
LINE
  5
1CF
330
1C8
100
AcDbEntity
  8
Layer6
  6
AUSGEZOGEN
 62
    18
420
        0
370
    18
100
AcDbLine
 10
84.527272334277
 20
191.748881259585
 30
0.0
 11
84.527272334277
 21
179.092981587799
 31
0.0
  0
WIPEOUT
  5
1D0
330
1C8
100
AcDbEntity
  8
Layer6
  6
AUSGEZOGEN
 62
    18
420
        0
370
    18
160
               128
310
80000000020000000C00000014000000010000006C0000000700000004000000664D32559A994F402819A3883B90664000000000000000004DC0527EB0B651402819A3883B90664000000000000000004DC0527EB0B65140C2B23C22D52967400000000000000000664D32559A994F40C2B23C22D529674000000000000000
310
00
100
AcDbWipeout
 90
        0
 10
63.200022363245
 20
180.507267302085
 30
0.0
 11
7.654499942064291
 21
0.0
 31
0.0
 12
0.0
 22
7.654499942064291
 32
0.0
 13
1.0
 23
1.0
340
0
 70
     7
280
     1
281
    50
282
    50
283
     0
360
0
 71
     2
 91
        5
 14
-0.5
 24
0.5
 14
0.5
 24
0.5
 14
0.5
 24
-0.12708211331
 14
-0.5
 24
-0.12708211331
 14
-0.5
 24
0.5
290
     0
  0
TEXT
  5
1D1
330
1C8
100
AcDbEntity
  8
Layer6
  6
AUSGEZOGEN
 62
    18
420
        0
370
    18
100
AcDbText
 10
63.200022363245
 20
181.407267302085
 30
0.0
 40
3.0
  1
%%c35
 41
0.901590099183
  7
Verdana
 72
     5
 11
70.854522305309
 21
181.407267302085
 31
0.0
100
AcDbText
  0
ENDBLK
  5
1CA
330
1C8
100
AcDbEntity
  8
0
100
AcDbBlockEnd
  0
BLOCK
  5
1D4
330
1D3
100
AcDbEntity
  8
0
100
AcDbBlockBegin
  2
*D12
 70
     1
 10
0.0
 20
0.0
 30
0.0
  3
*D12
  1

  0
HATCH
  5
1D6
330
1D3
100
AcDbEntity
  8
Layer6
  6
AUSGEZOGEN
 62
    18
420
        0
370
    18
100
AcDbHatch
 10
0.0
 20
0.0
 30
0.0
210
0.0
220
0.0
230
1.0
  2
SOLID
 70
     1
 71
     0
 91
        1
 92
        2
 72
     0
 73
     1
 93
        3
 10
69.52727287733708
 20
230.2083602097939
 10
73.02727287733708
 20
229.6833602097939
 10
73.02727287733708
 20
230.7333602097939
 97
        0
 75
     0
 76
     1
 98
        0
  0
HATCH
  5
1D7
330
1D3
100
AcDbEntity
  8
Layer6
  6
AUSGEZOGEN
 62
    18
420
        0
370
    18
100
AcDbHatch
 10
0.0
 20
0.0
 30
0.0
210
0.0
220
0.0
230
1.0
  2
SOLID
 70
     1
 71
     0
 91
        1
 92
        2
 72
     0
 73
     1
 93
        3
 10
64.52727205777322
 20
230.2083602097939
 10
61.02727205777322
 20
230.7333602097939
 10
61.02727205777322
 20
229.6833602097939
 97
        0
 75
     0
 76
     1
 98
        0
  0
LINE
  5
1D8
330
1D3
100
AcDbEntity
  8
Layer6
  6
AUSGEZOGEN
 62
    18
420
        0
370
    18
100
AcDbLine
 10
64.527272057773
 20
230.208360209794
 30
0.0
 11
69.527272877337
 21
230.208360209794
 31
0.0
  0
LINE
  5
1D9
330
1D3
100
AcDbEntity
  8
Layer6
  6
AUSGEZOGEN
 62
    18
420
        0
370
    18
100
AcDbLine
 10
73.027272877337
 20
230.208360209794
 30
0.0
 11
76.527272877337
 21
230.208360209794
 31
0.0
  0
LINE
  5
1DA
330
1D3
100
AcDbEntity
  8
Layer6
  6
AUSGEZOGEN
 62
    18
420
        0
370
    18
100
AcDbLine
 10
61.027272057773
 20
230.208360209794
 30
0.0
 11
57.527272057773
 21
230.208360209794
 31
0.0
  0
LINE
  5
1DB
330
1D3
100
AcDbEntity
  8
Layer6
  6
AUSGEZOGEN
 62
    18
420
        0
370
    18
100
AcDbLine
 10
73.027272877337
 20
230.208360209794
 30
0.0
 11
80.499899958372
 21
230.208360209794
 31
0.0
  0
LINE
  5
1DC
330
1D3
100
AcDbEntity
  8
Layer6
  6
AUSGEZOGEN
 62
    18
420
        0
370
    18
100
AcDbLine
 10
64.527272057773
 20
211.448881647015
 30
0.0
 11
64.527272057773
 21
214.948881259585
 31
0.0
  0
LINE
  5
1DD
330
1D3
100
AcDbEntity
  8
Layer6
  6
AUSGEZOGEN
 62
    18
420
        0
370
    18
100
AcDbLine
 10
64.527272057773
 20
215.948881259585
 30
0.0
 11
64.527272057773
 21
219.948881259585
 31
0.0
  0
LINE
  5
1DE
330
1D3
100
AcDbEntity
  8
Layer6
  6
AUSGEZOGEN
 62
    18
420
        0
370
    18
100
AcDbLine
 10
64.527272057773
 20
220.948881259585
 30
0.0
 11
64.527272057773
 21
231.92264592408
 31
0.0
  0
LINE
  5
1DF
330
1D3
100
AcDbEntity
  8
Layer6
  6
AUSGEZOGEN
 62
    18
420
        0
370
    18
100
AcDbLine
 10
69.527272877337
 20
211.448881647015
 30
0.0
 11
69.527272877337
 21
214.948881259585
 31
0.0
  0
LINE
  5
1E0
330
1D3
100
AcDbEntity
  8
Layer6
  6
AUSGEZOGEN
 62
    18
420
        0
370
    18
100
AcDbLine
 10
69.527272877337
 20
215.948881259585
 30
0.0
 11
69.527272877337
 21
219.948881259585
 31
0.0
  0
LINE
  5
1E1
330
1D3
100
AcDbEntity
  8
Layer6
  6
AUSGEZOGEN
 62
    18
420
        0
370
    18
100
AcDbLine
 10
69.527272877337
 20
220.948881259585
 30
0.0
 11
69.527272877337
 21
231.92264592408
 31
0.0
  0
WIPEOUT
  5
1E2
330
1D3
100
AcDbEntity
  8
Layer6
  6
AUSGEZOGEN
 62
    18
420
        0
370
    18
160
               128
310
80000000020000000C00000014000000010000006C00000007000000040000000000000000C05240AE416E4911BD6C400000000000000000B81E655CFE1F5440AE416E4911BD6C400000000000000000B81E655CFE1F544048DB07E3AA566D4000000000000000000000000000C0524048DB07E3AA566D4000000000000000
310
00
100
AcDbWipeout
 90
        0
 10
75.0
 20
229.908360209794
 30
0.0
 11
5.499899958372112
 21
0.0
 31
0.0
 12
0.0
 22
5.499899958372112
 32
0.0
 13
1.0
 23
1.0
340
0
 70
     7
280
     1
281
    50
282
    50
283
     0
360
0
 71
     2
 91
        5
 14
-0.5
 24
0.5
 14
0.5
 24
0.5
 14
0.5
 24
-0.37274314739
 14
-0.5
 24
-0.37274314739
 14
-0.5
 24
0.5
290
     0
  0
TEXT
  5
1E3
330
1D3
100
AcDbEntity
  8
Layer6
  6
AUSGEZOGEN
 62
    18
420
        0
370
    18
100
AcDbText
 10
75.0
 20
230.808360209794
 30
0.0
 40
3.0
  1
M5
 41
0.90177077527
  7
Verdana
 72
     5
 11
80.499899958372
 21
230.808360209794
 31
0.0
100
AcDbText
  0
ENDBLK
  5
1D5
330
1D3
100
AcDbEntity
  8
0
100
AcDbBlockEnd
  0
BLOCK
  5
1E6
330
1E5
100
AcDbEntity
  8
0
100
AcDbBlockBegin
  2
*D13
 70
     1
 10
0.0
 20
0.0
 30
0.0
  3
*D13
  1

  0
HATCH
  5
1E8
330
1E5
100
AcDbEntity
  8
Layer6
  6
AUSGEZOGEN
 62
    18
420
        0
370
    18
100
AcDbHatch
 10
0.0
 20
0.0
 30
0.0
210
0.0
220
0.0
230
1.0
  2
SOLID
 70
     1
 71
     0
 91
        1
 92
        2
 72
     0
 73
     1
 93
        3
 10
70.02727233427677
 20
240.2266922313659
 10
73.52727233427677
 20
239.7016922313659
 10
73.52727233427677
 20
240.7516922313659
 97
        0
 75
     0
 76
     1
 98
        0
  0
HATCH
  5
1E9
330
1E5
100
AcDbEntity
  8
Layer6
  6
AUSGEZOGEN
 62
    18
420
        0
370
    18
100
AcDbHatch
 10
0.0
 20
0.0
 30
0.0
210
0.0
220
0.0
230
1.0
  2
SOLID
 70
     1
 71
     0
 91
        1
 92
        2
 72
     0
 73
     1
 93
        3
 10
64.02727233427677
 20
240.2266922313659
 10
60.52727233427677
 20
240.7516922313659
 10
60.52727233427677
 20
239.7016922313659
 97
        0
 75
     0
 76
     1
 98
        0
  0
LINE
  5
1EA
330
1E5
100
AcDbEntity
  8
Layer6
  6
AUSGEZOGEN
 62
    18
420
        0
370
    18
100
AcDbLine
 10
64.027272334277
 20
240.226692231366
 30
0.0
 11
70.027272334277
 21
240.226692231366
 31
0.0
  0
LINE
  5
1EB
330
1E5
100
AcDbEntity
  8
Layer6
  6
AUSGEZOGEN
 62
    18
420
        0
370
    18
100
AcDbLine
 10
73.527272334277
 20
240.226692231366
 30
0.0
 11
77.027272334277
 21
240.226692231366
 31
0.0
  0
LINE
  5
1EC
330
1E5
100
AcDbEntity
  8
Layer6
  6
AUSGEZOGEN
 62
    18
420
        0
370
    18
100
AcDbLine
 10
60.527272334277
 20
240.226692231366
 30
0.0
 11
57.027272334277
 21
240.226692231366
 31
0.0
  0
LINE
  5
1ED
330
1E5
100
AcDbEntity
  8
Layer6
  6
AUSGEZOGEN
 62
    18
420
        0
370
    18
100
AcDbLine
 10
64.027272334277
 20
220.448881259585
 30
0.0
 11
64.027272334277
 21
241.940977945652
 31
0.0
  0
LINE
  5
1EE
330
1E5
100
AcDbEntity
  8
Layer6
  6
AUSGEZOGEN
 62
    18
420
        0
370
    18
100
AcDbLine
 10
70.027272334277
 20
220.448881259585
 30
0.0
 11
70.027272334277
 21
241.940977945652
 31
0.0
  0
WIPEOUT
  5
1EF
330
1E5
100
AcDbEntity
  8
Layer6
  6
AUSGEZOGEN
 62
    18
420
        0
370
    18
160
               128
310
80000000020000000C00000014000000010000006C0000000700000004000000AD2629C46618504090657776A7FD6D40000000000000000047C0C2E4166B514090657776A7FD6D40000000000000000047C0C2E4166B51402AFF101041976E400000000000000000AD2629C4661850402AFF101041976E4000000000000000
310
00
100
AcDbWipeout
 90
        0
 10
64.381272354304
 20
239.926692231366
 30
0.0
 11
5.291999959945684
 21
0.0
 31
0.0
 12
0.0
 22
5.291999959945684
 32
0.0
 13
1.0
 23
1.0
340
0
 70
     7
280
     1
281
    50
282
    50
283
     0
360
0
 71
     2
 91
        5
 14
-0.5
 24
0.5
 14
0.5
 24
0.5
 14
0.5
 24
-0.407029485323
 14
-0.5
 24
-0.407029485323
 14
-0.5
 24
0.5
290
     0
  0
TEXT
  5
1F0
330
1E5
100
AcDbEntity
  8
Layer6
  6
AUSGEZOGEN
 62
    18
420
        0
370
    18
100
AcDbText
 10
64.381272354304
 20
240.826692231366
 30
0.0
 40
3.0
  1
%%c6
 41
0.901840483972
  7
Verdana
 72
     5
 11
69.67327231425
 21
240.826692231366
 31
0.0
100
AcDbText
  0
ENDBLK
  5
1E7
330
1E5
100
AcDbEntity
  8
0
100
AcDbBlockEnd
  0
BLOCK
  5
1F3
330
1F2
100
AcDbEntity
  8
0
100
AcDbBlockBegin
  2
*D14
 70
     1
 10
0.0
 20
0.0
 30
0.0
  3
*D14
  1

  0
HATCH
  5
1F5
330
1F2
100
AcDbEntity
  8
Layer6
  6
AUSGEZOGEN
 62
    18
420
        0
370
    18
100
AcDbHatch
 10
0.0
 20
0.0
 30
0.0
210
0.0
220
0.0
230
1.0
  2
SOLID
 70
     1
 71
     0
 91
        1
 92
        2
 72
     0
 73
     1
 93
        3
 10
37.92298467621049
 20
220.4488812595848
 10
38.44798467621049
 20
223.9488812595848
 10
37.39798467621049
 20
223.9488812595848
 97
        0
 75
     0
 76
     1
 98
        0
  0
HATCH
  5
1F6
330
1F2
100
AcDbEntity
  8
Layer6
  6
AUSGEZOGEN
 62
    18
420
        0
370
    18
100
AcDbHatch
 10
0.0
 20
0.0
 30
0.0
210
0.0
220
0.0
230
1.0
  2
SOLID
 70
     1
 71
     0
 91
        1
 92
        2
 72
     0
 73
     1
 93
        3
 10
37.92298467621049
 20
211.4488812595625
 10
37.39798467621049
 20
207.9488812595625
 10
38.44798467621049
 20
207.9488812595625
 97
        0
 75
     0
 76
     1
 98
        0
  0
LINE
  5
1F7
330
1F2
100
AcDbEntity
  8
Layer6
  6
AUSGEZOGEN
 62
    18
420
        0
370
    18
100
AcDbLine
 10
37.92298467621
 20
211.448881259562
 30
0.0
 11
37.92298467621
 21
220.448881259585
 31
0.0
  0
LINE
  5
1F8
330
1F2
100
AcDbEntity
  8
Layer6
  6
AUSGEZOGEN
 62
    18
420
        0
370
    18
100
AcDbLine
 10
37.92298467621
 20
223.948881259585
 30
0.0
 11
37.92298467621
 21
227.448881259585
 31
0.0
  0
LINE
  5
1F9
330
1F2
100
AcDbEntity
  8
Layer6
  6
AUSGEZOGEN
 62
    18
420
        0
370
    18
100
AcDbLine
 10
37.92298467621
 20
207.948881259562
 30
0.0
 11
37.92298467621
 21
204.448881259562
 31
0.0
  0
LINE
  5
1FA
330
1F2
100
AcDbEntity
  8
Layer6
  6
AUSGEZOGEN
 62
    18
420
        0
370
    18
100
AcDbLine
 10
62.581738004268
 20
211.448881259562
 30
0.0
 11
50.027272334277
 21
211.448881259562
 31
0.0
  0
LINE
  5
1FB
330
1F2
100
AcDbEntity
  8
Layer6
  6
AUSGEZOGEN
 62
    18
420
        0
370
    18
100
AcDbLine
 10
49.027272334277
 20
211.448881259562
 30
0.0
 11
36.208698961925
 21
211.448881259562
 31
0.0
  0
LINE
  5
1FC
330
1F2
100
AcDbEntity
  8
Layer6
  6
AUSGEZOGEN
 62
    18
420
        0
370
    18
100
AcDbLine
 10
50.527272334277
 20
220.448881259585
 30
0.0
 11
36.208698961925
 21
220.448881259585
 31
0.0
  0
WIPEOUT
  5
1FD
330
1F2
100
AcDbEntity
  8
Layer6
  6
AUSGEZOGEN
 62
    18
420
        0
370
    18
160
               128
310
80000000020000000C00000014000000010000006C0000000700000004000000A6EA09C38A1C4340FE34736F90D86A400000000000000000A6EA09C38A1C4340FE3403092A246B4000000000000000004084A35C24B64040FE3403092A246B4000000000000000004084A35C24B64040FE34736F90D86A4000000000000000
310
00
100
AcDbWipeout
 90
        0
 10
33.42298467621
 20
214.767631268514
 30
0.0
 11
4.799999999999997
 21
0.0
 31
0.0
 12
0.0
 22
4.799999999999997
 32
0.0
 13
1.0
 23
1.0
340
0
 70
     7
280
     1
281
    50
282
    50
283
     0
360
0
 71
     2
 91
        5
 14
0.5
 24
0.5
 14
0.5
 24
0.007812503725
 14
-0.5
 24
0.007812503725
 14
-0.5
 24
0.5
 14
0.5
 24
0.5
290
     0
  0
TEXT
  5
1FE
330
1F2
100
AcDbEntity
  8
Layer6
  6
AUSGEZOGEN
 62
    18
420
        0
370
    18
100
AcDbText
 10
37.32298467621
 20
214.767631268514
 30
0.0
 40
3.0
  1
9
 50
90.0
 41
0.901029741464
  7
Verdana
 72
     5
 11
37.32298467621
 21
217.130131250633
 31
0.0
100
AcDbText
  0
ENDBLK
  5
1F4
330
1F2
100
AcDbEntity
  8
0
100
AcDbBlockEnd
  0
BLOCK
  5
201
330
200
100
AcDbEntity
  8
0
100
AcDbBlockBegin
  2
*D15
 70
     1
 10
0.0
 20
0.0
 30
0.0
  3
*D15
  1

  0
HATCH
  5
203
330
200
100
AcDbEntity
  8
Layer6
  6
AUSGEZOGEN
 62
    18
420
        0
370
    18
100
AcDbHatch
 10
0.0
 20
0.0
 30
0.0
210
0.0
220
0.0
230
1.0
  2
SOLID
 70
     1
 71
     0
 91
        1
 92
        2
 72
     0
 73
     1
 93
        3
 10
26.94183034086896
 20
201.4488818705325
 10
27.46683034086896
 20
204.9488818705325
 10
26.41683034086897
 20
204.9488818705325
 97
        0
 75
     0
 76
     1
 98
        0
  0
HATCH
  5
204
330
200
100
AcDbEntity
  8
Layer6
  6
AUSGEZOGEN
 62
    18
420
        0
370
    18
100
AcDbHatch
 10
0.0
 20
0.0
 30
0.0
210
0.0
220
0.0
230
1.0
  2
SOLID
 70
     1
 71
     0
 91
        1
 92
        2
 72
     0
 73
     1
 93
        3
 10
26.94183034086897
 20
220.4488812595848
 10
26.41683034086897
 20
216.9488812595848
 10
27.46683034086897
 20
216.9488812595848
 97
        0
 75
     0
 76
     1
 98
        0
  0
LINE
  5
205
330
200
100
AcDbEntity
  8
Layer6
  6
AUSGEZOGEN
 62
    18
420
        0
370
    18
100
AcDbLine
 10
26.941830340869
 20
216.948881259585
 30
0.0
 11
26.941830340869
 21
204.948881870532
 31
0.0
  0
LINE
  5
206
330
200
100
AcDbEntity
  8
Layer6
  6
AUSGEZOGEN
 62
    18
420
        0
370
    18
100
AcDbLine
 10
50.527272334277
 20
220.448881259585
 30
0.0
 11
38.42298467621
 21
220.448881259585
 31
0.0
  0
LINE
  5
207
330
200
100
AcDbEntity
  8
Layer6
  6
AUSGEZOGEN
 62
    18
420
        0
370
    18
100
AcDbLine
 10
37.42298467621
 20
220.448881259585
 30
0.0
 11
25.227544626583
 21
220.448881259585
 31
0.0
  0
LINE
  5
208
330
200
100
AcDbEntity
  8
Layer6
  6
AUSGEZOGEN
 62
    18
420
        0
370
    18
100
AcDbLine
 10
64.927273240925
 20
201.448881870532
 30
0.0
 11
50.027272334277
 21
201.448881870532
 31
0.0
  0
LINE
  5
209
330
200
100
AcDbEntity
  8
Layer6
  6
AUSGEZOGEN
 62
    18
420
        0
370
    18
100
AcDbLine
 10
49.027272334277
 20
201.448881870532
 30
0.0
 11
25.227544626583
 21
201.448881870532
 31
0.0
  0
WIPEOUT
  5
20A
330
200
100
AcDbEntity
  8
Layer6
  6
AUSGEZOGEN
 62
    18
420
        0
370
    18
160
               128
310
80000000020000000C00000014000000010000006C00000007000000040000007636DD97E83D3B4089364FA3C3126A4000000000000000007636DD97E83D3B4089366FD6F6A96A400000000000000000AA6910CB1B71364089366FD6F6A96A400000000000000000AA6910CB1B71364089364FA3C3126A4000000000000000
310
00
100
AcDbWipeout
 90
        0
 10
22.441830340869
 20
208.58638158294
 30
0.0
 11
4.800000000000001
 21
0.0
 31
0.0
 12
0.0
 22
4.800000000000001
 32
0.0
 13
1.0
 23
1.0
340
0
 70
     7
280
     1
281
    50
282
    50
283
     0
360
0
 71
     2
 91
        5
 14
0.5
 24
0.5
 14
0.5
 24
-0.484374992549
 14
-0.5
 24
-0.484374992549
 14
-0.5
 24
0.5
 14
0.5
 24
0.5
290
     0
  0
TEXT
  5
20B
330
200
100
AcDbEntity
  8
Layer6
  6
AUSGEZOGEN
 62
    18
420
        0
370
    18
100
AcDbText
 10
26.341830340869
 20
208.58638158294
 30
0.0
 40
3.0
  1
19
 50
90.0
 41
0.901029741464
  7
Verdana
 72
     5
 11
26.341830340869
 21
213.311381547177
 31
0.0
100
AcDbText
  0
ENDBLK
  5
202
330
200
100
AcDbEntity
  8
0
100
AcDbBlockEnd
  0
BLOCK
  5
20E
330
20D
100
AcDbEntity
  8
0
100
AcDbBlockBegin
  2
*D16
 70
     1
 10
0.0
 20
0.0
 30
0.0
  3
*D16
  1

  0
HATCH
  5
210
330
20D
100
AcDbEntity
  8
Layer6
  6
AUSGEZOGEN
 62
    18
420
        0
370
    18
100
AcDbHatch
 10
0.0
 20
0.0
 30
0.0
210
0.0
220
0.0
230
1.0
  2
SOLID
 70
     1
 71
     0
 91
        1
 92
        2
 72
     0
 73
     1
 93
        3
 10
99.70464857755064
 20
191.4488812595849
 10
100.2296485775506
 20
194.9488812595849
 10
99.17964857755064
 20
194.9488812595849
 97
        0
 75
     0
 76
     1
 98
        0
  0
HATCH
  5
211
330
20D
100
AcDbEntity
  8
Layer6
  6
AUSGEZOGEN
 62
    18
420
        0
370
    18
100
AcDbHatch
 10
0.0
 20
0.0
 30
0.0
210
0.0
220
0.0
230
1.0
  2
SOLID
 70
     1
 71
     0
 91
        1
 92
        2
 72
     0
 73
     1
 93
        3
 10
99.70464857755064
 20
220.4488812595849
 10
99.17964857755064
 20
216.9488812595849
 10
100.2296485775506
 20
216.9488812595849
 97
        0
 75
     0
 76
     1
 98
        0
  0
LINE
  5
212
330
20D
100
AcDbEntity
  8
Layer6
  6
AUSGEZOGEN
 62
    18
420
        0
370
    18
100
AcDbLine
 10
99.704648577551
 20
216.948881259585
 30
0.0
 11
99.704648577551
 21
194.948881259585
 31
0.0
  0
LINE
  5
213
330
20D
100
AcDbEntity
  8
Layer6
  6
AUSGEZOGEN
 62
    18
420
        0
370
    18
100
AcDbLine
 10
83.336778764577
 20
220.448881259585
 30
0.0
 11
83.847780409966
 21
220.448881259585
 31
0.0
  0
LINE
  5
214
330
20D
100
AcDbEntity
  8
Layer6
  6
AUSGEZOGEN
 62
    18
420
        0
370
    18
100
AcDbLine
 10
84.847780409966
 20
220.448881259585
 30
0.0
 11
91.203116141202
 21
220.448881259585
 31
0.0
  0
LINE
  5
215
330
20D
100
AcDbEntity
  8
Layer6
  6
AUSGEZOGEN
 62
    18
420
        0
370
    18
100
AcDbLine
 10
92.203116141202
 20
220.448881259585
 30
0.0
 11
101.418934291836
 21
220.448881259585
 31
0.0
  0
LINE
  5
216
330
20D
100
AcDbEntity
  8
Layer6
  6
AUSGEZOGEN
 62
    18
420
        0
370
    18
100
AcDbLine
 10
84.227272334277
 20
191.448881259585
 30
0.0
 11
101.418934291836
 21
191.448881259585
 31
0.0
  0
WIPEOUT
  5
217
330
20D
100
AcDbEntity
  8
Layer6
  6
AUSGEZOGEN
 62
    18
420
        0
370
    18
160
               128
310
80000000020000000C00000014000000010000006C000000070000000400000064238C294C0059408A36ABA2C3726940000000000000000064238C294C0059408A36CBD5F6096A40000000000000000030F058F618CD57408A36CBD5F6096A40000000000000000030F058F618CD57408A36ABA2C372694000000000000000
310
00
100
AcDbWipeout
 90
        0
 10
95.204648577551
 20
203.586381277466
 30
0.0
 11
4.799999999999997
 21
0.0
 31
0.0
 12
0.0
 22
4.799999999999997
 32
0.0
 13
1.0
 23
1.0
340
0
 70
     7
280
     1
281
    50
282
    50
283
     0
360
0
 71
     2
 91
        5
 14
0.5
 24
0.5
 14
0.5
 24
-0.484374992549
 14
-0.5
 24
-0.484374992549
 14
-0.5
 24
0.5
 14
0.5
 24
0.5
290
     0
  0
TEXT
  5
218
330
20D
100
AcDbEntity
  8
Layer6
  6
AUSGEZOGEN
 62
    18
420
        0
370
    18
100
AcDbText
 10
99.104648577551
 20
203.586381277466
 30
0.0
 40
3.0
  1
29
 50
90.0
 41
0.901029741464
  7
Verdana
 72
     5
 11
99.104648577551
 21
208.311381241703
 31
0.0
100
AcDbText
  0
ENDBLK
  5
20F
330
20D
100
AcDbEntity
  8
0
100
AcDbBlockEnd
  0
BLOCK
  5
21F
330
21E
100
AcDbEntity
  8
0
100
AcDbBlockBegin
  2
*D17
 70
     1
 10
0.0
 20
0.0
 30
0.0
  3
*D17
  1

  0
HATCH
  5
221
330
21E
100
AcDbEntity
  8
Layer6
  6
AUSGEZOGEN
 62
    18
420
        0
370
    18
100
AcDbHatch
 10
0.0
 20
0.0
 30
0.0
210
0.0
220
0.0
230
1.0
  2
SOLID
 70
     1
 71
     0
 91
        1
 92
        2
 72
     0
 73
     1
 93
        3
 10
91.70311614120244
 20
219.4488812595849
 10
91.17811614120244
 20
215.9488812595849
 10
92.22811614120245
 20
215.9488812595849
 97
        0
 75
     0
 76
     1
 98
        0
  0
HATCH
  5
222
330
21E
100
AcDbEntity
  8
Layer6
  6
AUSGEZOGEN
 62
    18
420
        0
370
    18
100
AcDbHatch
 10
0.0
 20
0.0
 30
0.0
210
0.0
220
0.0
230
1.0
  2
SOLID
 70
     1
 71
     0
 91
        1
 92
        2
 72
     0
 73
     1
 93
        3
 10
91.70311614120244
 20
220.4488812595849
 10
92.22811614120245
 20
223.9488812595849
 10
91.17811614120244
 20
223.9488812595849
 97
        0
 75
     0
 76
     1
 98
        0
  0
LINE
  5
223
330
21E
100
AcDbEntity
  8
Layer6
  6
AUSGEZOGEN
 62
    18
420
        0
370
    18
100
AcDbLine
 10
91.703116141202
 20
220.448881259585
 30
0.0
 11
91.703116141202
 21
219.448881259585
 31
0.0
  0
LINE
  5
224
330
21E
100
AcDbEntity
  8
Layer6
  6
AUSGEZOGEN
 62
    18
420
        0
370
    18
100
AcDbLine
 10
91.703116141202
 20
215.948881259585
 30
0.0
 11
91.703116141202
 21
212.448881259585
 31
0.0
  0
LINE
  5
225
330
21E
100
AcDbEntity
  8
Layer6
  6
AUSGEZOGEN
 62
    18
420
        0
370
    18
100
AcDbLine
 10
91.703116141202
 20
223.948881259585
 30
0.0
 11
91.703116141202
 21
227.448881259585
 31
0.0
  0
LINE
  5
226
330
21E
100
AcDbEntity
  8
Layer6
  6
AUSGEZOGEN
 62
    18
420
        0
370
    18
100
AcDbLine
 10
91.703116141202
 20
215.948881259585
 30
0.0
 11
91.703116141202
 21
198.805425585994
 31
0.0
  0
LINE
  5
227
330
21E
100
AcDbEntity
  8
Layer6
  6
AUSGEZOGEN
 62
    18
420
        0
370
    18
100
AcDbLine
 10
82.027272334277
 20
220.448881259585
 30
0.0
 11
82.713096626675
 21
220.448881259585
 31
0.0
  0
LINE
  5
228
330
21E
100
AcDbEntity
  8
Layer6
  6
AUSGEZOGEN
 62
    18
420
        0
370
    18
100
AcDbLine
 10
83.713096626675
 20
220.448881259585
 30
0.0
 11
83.847780409966
 21
220.448881259585
 31
0.0
  0
LINE
  5
229
330
21E
100
AcDbEntity
  8
Layer6
  6
AUSGEZOGEN
 62
    18
420
        0
370
    18
100
AcDbLine
 10
84.847780409966
 20
220.448881259585
 30
0.0
 11
93.417401855488
 21
220.448881259585
 31
0.0
  0
LINE
  5
22A
330
21E
100
AcDbEntity
  8
Layer6
  6
AUSGEZOGEN
 62
    18
420
        0
370
    18
100
AcDbLine
 10
82.027272334277
 20
219.448881259585
 30
0.0
 11
82.713096626675
 21
219.448881259585
 31
0.0
  0
LINE
  5
22B
330
21E
100
AcDbEntity
  8
Layer6
  6
AUSGEZOGEN
 62
    18
420
        0
370
    18
100
AcDbLine
 10
83.713096626675
 20
219.448881259585
 30
0.0
 11
83.847780409966
 21
219.448881259585
 31
0.0
  0
LINE
  5
22C
330
21E
100
AcDbEntity
  8
Layer6
  6
AUSGEZOGEN
 62
    18
420
        0
370
    18
100
AcDbLine
 10
84.847780409966
 20
219.448881259585
 30
0.0
 11
93.417401855488
 21
219.448881259585
 31
0.0
  0
WIPEOUT
  5
22D
330
21E
100
AcDbEntity
  8
Layer6
  6
AUSGEZOGEN
 62
    18
420
        0
370
    18
160
               128
310
80000000020000000C00000014000000010000006C000000070000000400000078230B0E330057409AE6E00BC6D96840000000000000000078230B0E33005740C24230C531BB6A40000000000000000045F0D7DAFFCC5540C24230C531BB6A40000000000000000045F0D7DAFFCC55409AE6E00BC6D9684000000000000000
310
00
100
AcDbWipeout
 90
        0
 10
87.203116141202
 20
198.805425585994
 30
0.0
 11
15.04439988613129
 21
0.0
 31
0.0
 12
0.0
 22
15.04439988613129
 32
0.0
 13
1.0
 23
1.0
340
0
 70
     7
280
     1
281
    50
282
    50
283
     0
360
0
 71
     2
 91
        5
 14
-0.180944402148
 24
0.5
 14
-0.180944402148
 24
-0.5
 14
-0.5
 24
-0.5
 14
-0.5
 24
0.5
 14
-0.180944402148
 24
0.5
290
     0
  0
TEXT
  5
22E
330
21E
100
AcDbEntity
  8
Layer6
  6
AUSGEZOGEN
 62
    18
420
        0
370
    18
100
AcDbText
 10
91.103116141202
 20
198.805425585994
 30
0.0
 40
3.0
  1
1,5x45%%d
 50
90.0
 41
0.902754268595
  7
Verdana
 72
     5
 11
91.103116141202
 21
213.849825472125
 31
0.0
100
AcDbText
  0
ENDBLK
  5
220
330
21E
100
AcDbEntity
  8
0
100
AcDbBlockEnd
  0
BLOCK
  5
231
330
230
100
AcDbEntity
  8
0
100
AcDbBlockBegin
  2
SW_NOTE_0_nNn017
 70
     0
 10
0.0
 20
0.0
 30
0.0
  3
SW_NOTE_0_nNn017
  1

  0
TEXT
  5
233
330
230
100
AcDbEntity
  8
Layer1
  6
AUSGEZOGEN
 62
    18
420
        0
370
    18
100
AcDbText
 10
-18.385781083847
 20
108.972222945364
 30
0.0
 40
4.0
  1
NOTE:
 41
0.905863843964
  7
Verdana
 72
     5
 11
-2.257781205918
 21
108.972222945364
 31
0.0
100
AcDbText
  0
TEXT
  5
234
330
230
100
AcDbEntity
  8
Layer1
  6
AUSGEZOGEN
 62
    18
420
        0
370
    18
100
AcDbText
 10
-18.385781083847
 20
99.972223332795
 30
0.0
 40
4.0
  1
1. 28W
 41
0.902175219758
  7
Verdana
 72
     5
 11
-0.46858121946
 21
99.972223332795
 31
0.0
100
AcDbText
  0
TEXT
  5
235
330
230
100
AcDbEntity
  8
Layer1
  6
AUSGEZOGEN
 62
    18
420
        0
370
    18
100
AcDbText
 10
-18.385781083847
 20
95.47222352651
 30
0.0
 40
4.0
  1
2. 0mm stroke, Permanent Force 300N
 41
0.903993042295
  7
Verdana
 72
     5
 11
79.415418175911
 21
95.47222352651
 31
0.0
100
AcDbText
  0
TEXT
  5
236
330
230
100
AcDbEntity
  8
Layer1
  6
AUSGEZOGEN
 62
    18
420
        0
370
    18
100
AcDbText
 10
-18.385781083847
 20
90.972223720225
 30
0.0
 40
4.0
  1
3. Duty: 10%
 41
0.903418796581
  7
Verdana
 72
     5
 11
15.861018656944
 21
90.972223720225
 31
0.0
100
AcDbText
  0
ENDBLK
  5
232
330
230
100
AcDbEntity
  8
0
100
AcDbBlockEnd
  0
ENDSEC
  0
SECTION
  2
ENTITIES
  0
INSERT
  5
90
330
1F
100
AcDbEntity
  8
0
100
AcDbBlockReference
  2
Zeichnungskoordinaten_nNn00
 10
0.0
 20
0.0
 30
0.0
  0
INSERT
  5
A1
330
1F
100
AcDbEntity
  8
0
100
AcDbBlockReference
  2
Zeichnungsrahmen_nNn01
 10
0.0
 20
0.0
 30
0.0
  0
INSERT
  5
F1
330
1F
100
AcDbEntity
  8
0
100
AcDbBlockReference
  2
Schriftfeld_nNn02
 10
0.0
 20
0.0
 30
0.0
  0
INSERT
  5
103
330
1F
100
AcDbEntity
  8
0
100
AcDbBlockReference
  2
Beschriftung_nNn03
 10
0.0
 20
0.0
 30
0.0
  0
WIPEOUT
  5
104
330
1F
100
AcDbEntity
  8
Layer0
  6
AUSGEZOGEN
 62
    18
420
        0
370
    18
160
               128
310
80000000020000000C00000014000000010000006C00000007000000040000003E0A18A55CFB30C00C4E3D027C1D424000000000000000000BD725165BBC2DC00C4E3D027C1D424000000000000000000BD725165BBC2DC0A6E7D69B15B7434000000000000000003E0A18A55CFB30C0A6E7D69B15B7434000000000000000
310
00
100
AcDbWipeout
 90
        0
 10
-16.981882398957
 20
36.230346946653
 30
0.0
 11
3.200000000000003
 21
0.0
 31
0.0
 12
0.0
 22
3.200000000000003
 32
0.0
 13
1.0
 23
1.0
340
0
 70
     7
280
     1
281
    50
282
    50
283
     0
360
0
 71
     2
 91
        5
 14
-0.5
 24
0.5
 14
0.16062498875
 24
0.5
 14
0.16062498875
 24
-0.5
 14
-0.5
 24
-0.5
 14
-0.5
 24
0.5
290
     0
  0
TEXT
  5
105
330
1F
100
AcDbEntity
  8
Layer0
  6
AUSGEZOGEN
 62
    18
420
        0
370
    18
100
AcDbText
 10
-16.981882398957
 20
36.830346946653
 30
0.0
 40
2.0
  1
A
 41
1.13533832653
  7
Arial
 72
     5
 11
-14.867882434959
 21
36.830346946653
 31
0.0
100
AcDbText
  0
WIPEOUT
  5
106
330
1F
100
AcDbEntity
  8
Layer0
  6
AUSGEZOGEN
 62
    18
420
        0
370
    18
160
               128
310
80000000020000000C00000014000000010000006C00000007000000040000002FA54A30A6BC2D4040AC12626D7C424000000000000000001C3E7791BD3A3A4040AC12626D7C424000000000000000001C3E7791BD3A3A4073DF4595A0AF434000000000000000002FA54A30A6BC2D4073DF4595A0AF434000000000000000
310
00
100
AcDbWipeout
 90
        0
 10
14.868455418694
 20
36.972088107221
 30
0.0
 11
11.36099966287613
 21
0.0
 31
0.0
 12
0.0
 22
11.36099966287613
 32
0.0
 13
1.0
 23
1.0
340
0
 70
     7
280
     1
281
    50
282
    50
283
     0
360
0
 71
     2
 91
        5
 14
-0.5
 24
0.5
 14
0.5
 24
0.5
 14
0.5
 24
0.288750983961
 14
-0.5
 24
0.288750983961
 14
-0.5
 24
0.5
290
     0
  0
TEXT
  5
107
330
1F
100
AcDbEntity
  8
Layer0
  6
AUSGEZOGEN
 62
    18
420
        0
370
    18
100
AcDbText
 10
14.868455418694
 20
37.422088107221
 30
0.0
 40
1.5
  1
21.04.08
 41
1.394329855532
  7
Arial
 72
     5
 11
26.22945508157
 21
37.422088107221
 31
0.0
100
AcDbText
  0
WIPEOUT
  5
108
330
1F
100
AcDbEntity
  8
Layer0
  6
AUSGEZOGEN
 62
    18
420
        0
370
    18
160
               128
310
80000000020000000C00000014000000010000006C00000007000000040000002CA53E0B32763D400DBD5D3ED53F42400000000000000000F2E1E1BE627740400DBD5D3ED53F42400000000000000000F2E1E1BE6277404040F090710873434000000000000000002CA53E0B32763D4040F090710873434000000000000000
310
00
100
AcDbWipeout
 90
        0
 10
29.46170110969
 20
36.498695178767
 30
0.0
 11
3.470999867916106
 21
0.0
 31
0.0
 12
0.0
 22
3.470999867916106
 32
0.0
 13
1.0
 23
1.0
340
0
 70
     7
280
     1
281
    50
282
    50
283
     0
360
0
 71
     2
 91
        5
 14
-0.5
 24
0.5
 14
0.5
 24
0.5
 14
0.5
 24
-0.191443414384
 14
-0.5
 24
-0.191443414384
 14
-0.5
 24
0.5
290
     0
  0
TEXT
  5
109
330
1F
100
AcDbEntity
  8
Layer0
  6
AUSGEZOGEN
 62
    18
420
        0
370
    18
100
AcDbText
 10
29.46170110969
 20
36.948695178767
 30
0.0
 40
1.5
  1
CF
 41
1.243417470147
  7
Arial
 72
     5
 11
32.932700977606
 21
36.948695178767
 31
0.0
100
AcDbText
  0
WIPEOUT
  5
10A
330
1F
100
AcDbEntity
  8
Layer0
  6
AUSGEZOGEN
 62
    18
420
        0
370
    18
160
               128
310
80000000020000000C00000014000000010000006C0000000700000004000000ACA8586577EA4140B0B3586A098B504000000000000000001CE622003C0B4640B0B3586A098B504000000000000000001CE622003C0B46407D802537D65751400000000000000000ACA8586577EA41407D802537D657514000000000000000
310
00
100
AcDbWipeout
 90
        0
 10
35.83176867322
 20
66.172449671386
 30
0.0
 11
8.255999897718425
 21
0.0
 31
0.0
 12
0.0
 22
8.255999897718425
 32
0.0
 13
1.0
 23
1.0
340
0
 70
     7
280
     1
281
    50
282
    50
283
     0
360
0
 71
     2
 91
        5
 14
-0.5
 24
0.5
 14
0.5
 24
0.5
 14
0.5
 24
0.112403095973
 14
-0.5
 24
0.112403095973
 14
-0.5
 24
0.5
290
     0
  0
TEXT
  5
10B
330
1F
100
AcDbEntity
  8
Layer0
  6
AUSGEZOGEN
 62
    18
420
        0
370
    18
100
AcDbText
 10
35.83176867322
 20
66.772449671386
 30
0.0
 40
2.0
  1
2008
 41
1.329896890741
  7
Arial
 72
     5
 11
44.087768570939
 21
66.772449671386
 31
0.0
100
AcDbText
  0
LINE
  5
10C
330
1F
100
AcDbEntity
  8
Layer1
  6
AUSGEZOGEN
 62
    18
420
        0
370
    18
100
AcDbLine
 10
-18.551580500934
 20
76.281648686693
 30
0.0
 11
-18.551580500934
 21
85.872857273723
 31
0.0
  0
LINE
  5
10D
330
1F
100
AcDbEntity
  8
Layer1
  6
AUSGEZOGEN
 62
    18
420
        0
370
    18
100
AcDbLine
 10
-6.401580500934
 20
73.722857273723
 30
0.0
 11
-6.401580500934
 21
85.872857273723
 31
0.0
  0
LINE
  5
10E
330
1F
100
AcDbEntity
  8
Layer1
  6
AUSGEZOGEN
 62
    18
420
        0
370
    18
100
AcDbLine
 10
-6.401580500934
 20
85.872857273723
 30
0.0
 11
-18.551580500934
 21
85.872857273723
 31
0.0
  0
LINE
  5
10F
330
1F
100
AcDbEntity
  8
Layer1
  6
AUSGEZOGEN
 62
    18
420
        0
370
    18
100
AcDbLine
 10
-15.206331059175
 20
76.281648686693
 30
0.0
 11
-14.366484890837
 21
76.281648686693
 31
0.0
  0
LINE
  5
110
330
1F
100
AcDbEntity
  8
Layer1
  6
AUSGEZOGEN
 62
    18
420
        0
370
    18
100
AcDbLine
 10
-13.190147620772
 20
73.722857273723
 30
0.0
 11
-13.190147620772
 21
75.06696288865
 31
0.0
  0
LINE
  5
111
330
1F
100
AcDbEntity
  8
Layer1
  6
AUSGEZOGEN
 62
    18
420
        0
370
    18
100
AcDbLine
 10
-14.531654889126
 20
75.06696288865
 30
0.0
 11
-14.531654889126
 21
73.722857273723
 31
0.0
  0
LINE
  5
112
330
1F
100
AcDbEntity
  8
Layer1
  6
AUSGEZOGEN
 62
    18
420
        0
370
    18
100
AcDbLine
 10
-10.664034518959
 20
75.605183125477
 30
0.0
 11
-9.863837200994
 21
75.605183125477
 31
0.0
  0
LINE
  5
113
330
1F
100
AcDbEntity
  8
Layer1
  6
AUSGEZOGEN
 62
    18
420
        0
370
    18
100
AcDbLine
 10
-12.178133365698
 20
75.605183125477
 30
0.0
 11
-11.354400832498
 21
75.605183125477
 31
0.0
  0
WIPEOUT
  5
114
330
1F
100
AcDbEntity
  8
Layer5
  6
AUSGEZOGEN
 62
     8
420
  8421504
370
    18
160
               152
310
98000000040000000C0000000E000000120000000C00000016000000000000C20C00000014000000010000006C0000000700000004000000D03BE6BFE0BC32C0C472D46A7BB85140000000000000000044C60C13C35227C0C472D46A7BB85140000000000000000044C60C13C35227C0CE4978DBB842524000000000000000
310
00D03BE6BFE0BC32C0CE4978DBB84252400000000000000000
100
AcDbWipeout
 90
        0
 10
-18.737804406843
 20
70.882532794446
 30
0.0
 11
7.076159857177736
 21
0.0
 31
0.0
 12
0.0
 22
7.076159857177736
 32
0.0
 13
1.0
 23
1.0
340
0
 70
     7
280
     1
281
    50
282
    50
283
     0
360
0
 71
     2
 91
        5
 14
-0.5
 24
0.5
 14
0.5
 24
0.5
 14
0.5
 24
0.194749688589
 14
-0.5
 24
0.194749688589
 14
-0.5
 24
0.5
290
     0
  0
TEXT
  5
115
330
1F
100
AcDbEntity
  8
Layer5
  6
AUSGEZOGEN
 62
     8
420
  8421504
370
    18
100
AcDbText
 10
-18.737804406843
 20
71.287532794446
 30
0.0
 40
1.35
  1
MANNEL
 41
0.905128629633
  7
Verdana
 72
     5
 11
-11.661644549665
 21
71.287532794446
 31
0.0
100
AcDbText
  0
HATCH
  5
116
330
1F
100
AcDbEntity
  8
Layer7
  6
AUSGEZOGEN
 62
   140
420
    49407
370
    18
100
AcDbHatch
 10
0.0
 20
0.0
 30
0.0
210
0.0
220
0.0
230
1.0
  2
SOLID
 70
     1
 71
     0
 91
        1
 92
        2
 72
     0
 73
     1
 93
       24
 10
-18.5515805009338
 20
85.87285727372344
 10
-18.5515805009338
 20
76.28164868669322
 10
-17.68495023887062
 20
76.28164868669322
 10
-17.16759899536538
 20
74.80836851125798
 10
-16.6221749919929
 20
76.28164868669322
 10
-15.81040158352189
 20
76.28164868669322
 10
-15.81040158352189
 20
73.72285727372343
 10
-15.20633105917537
 20
73.72285727372343
 10
-15.20633105917537
 20
76.28164868669322
 10
-14.36648489083712
 20
76.28164868669322
 10
-13.84913364733188
 20
74.80836851125798
 10
-13.3037096439594
 20
76.28164868669322
 10
-12.49193623548839
 20
76.28164868669322
 10
-12.49193623548839
 20
73.72285727372343
 10
-11.35440083249819
 20
73.72285727372343
 10
-11.35440083249819
 20
75.605183125477
 10
-12.17813336569799
 20
75.605183125477
 10
-12.17813336569799
 20
76.28164868669322
 10
-9.863837200993764
 20
76.28164868669322
 10
-9.863837200993764
 20
75.605183125477
 10
-10.6640345189593
 20
75.605183125477
 10
-10.6640345189593
 20
73.72285727372343
 10
-6.401580500933797
 20
73.72285727372343
 10
-6.401580500933797
 20
85.87285727372344
 97
        0
 75
     0
 76
     1
 98
        0
  0
HATCH
  5
117
330
1F
100
AcDbEntity
  8
Layer7
  6
AUSGEZOGEN
 62
   140
420
    49407
370
    18
100
AcDbHatch
 10
0.0
 20
0.0
 30
0.0
210
0.0
220
0.0
230
1.0
  2
SOLID
 70
     1
 71
     0
 91
        2
 92
        2
 72
     0
 73
     1
 93
        6
 10
-13.19014762077203
 20
75.06696288865035
 10
-13.60558579162089
 20
73.89750759429353
 10
-14.12211293417997
 20
73.89750759429353
 10
-14.531654889126
 20
75.06696288865035
 10
-14.531654889126
 20
73.72285727372343
 10
-13.19014762077203
 20
73.72285727372343
 97
        0
 92
        2
 72
     0
 73
     1
 93
        6
 10
-16.50861296880553
 20
73.72285727372343
 10
-16.50861296880553
 20
75.06696288865035
 10
-16.9240511396544
 20
73.89750759429353
 10
-17.44057828221347
 20
73.89750759429353
 10
-17.85012023715951
 20
75.06696288865035
 10
-17.85012023715951
 20
73.72285727372343
 97
        0
 75
     0
 76
     1
 98
        0
  0
WIPEOUT
  5
118
330
1F
100
AcDbEntity
  8
Layer5
  6
AUSGEZOGEN
 62
   140
420
    49407
370
    18
160
               152
310
98000000040000000C0000000E000000120000000C00000016000000000000C20C00000014000000010000006C0000000700000004000000D41F4D21380626C0D0C71E4D18BB514000000000000000007C4D98D70AF90E40D0C71E4D18BB514000000000000000007C4D98D70AF90E40DA9EC2BD5545524000000000000000
310
00D41F4D21380626C0DA9EC2BD554552400000000000000000
100
AcDbWipeout
 90
        0
 10
-11.012146988549
 20
70.923358230647
 30
0.0
 11
14.88374969959259
 21
0.0
 31
0.0
 12
0.0
 22
14.88374969959259
 32
0.0
 13
1.0
 23
1.0
340
0
 70
     7
280
     1
281
    50
282
    50
283
     0
360
0
 71
     2
 91
        5
 14
-0.5
 24
0.5
 14
0.5
 24
0.5
 14
0.5
 24
0.354875280518
 14
-0.5
 24
0.354875280518
 14
-0.5
 24
0.5
290
     0
  0
TEXT
  5
119
330
1F
100
AcDbEntity
  8
Layer5
  6
AUSGEZOGEN
 62
   140
420
    49407
370
    18
100
AcDbText
 10
-11.012146988549
 20
71.328358230647
 30
0.0
 40
1.35
  1
MAGNETTECHNIK
 41
0.905172395523
  7
Verdana
 72
     5
 11
3.871602711044
 21
71.328358230647
 31
0.0
100
AcDbText
  0
HATCH
  5
11A
330
1F
100
AcDbEntity
  8
Layer7
  6
AUSGEZOGEN
 62
     8
420
  8421504
370
    18
100
AcDbHatch
 10
0.0
 20
0.0
 30
0.0
210
0.0
220
0.0
230
1.0
  2
SOLID
 70
     1
 71
     0
 91
        5
 92
        2
 72
     0
 73
     1
 93
        4
 10
-17.85012023715951
 20
73.04785727372342
 10
-17.85012023715951
 20
73.49785727372343
 10
-18.5515805009338
 20
73.49785727372343
 10
-18.5515805009338
 20
73.04785727372342
 97
        0
 92
        2
 72
     0
 73
     1
 93
        4
 10
-15.81040158352189
 20
73.04785727372342
 10
-15.81040158352189
 20
73.49785727372343
 10
-16.50861296880553
 20
73.49785727372343
 10
-16.50861296880553
 20
73.04785727372342
 97
        0
 92
        2
 72
     0
 73
     1
 93
        4
 10
-15.20633105917537
 20
73.49785727372343
 10
-15.20633105917537
 20
73.04785727372342
 10
-14.531654889126
 20
73.04785727372342
 10
-14.531654889126
 20
73.49785727372343
 97
        0
 92
        2
 72
     0
 73
     1
 93
        4
 10
-13.19014762077203
 20
73.49785727372343
 10
-13.19014762077203
 20
73.04785727372342
 10
-12.49193623548839
 20
73.04785727372342
 10
-12.49193623548839
 20
73.49785727372343
 97
        0
 92
        2
 72
     0
 73
     1
 93
        4
 10
-11.35440083249819
 20
73.49785727372343
 10
-11.35440083249819
 20
73.04785727372342
 10
-10.6640345189593
 20
73.04785727372342
 10
-10.6640345189593
 20
73.49785727372343
 97
        0
 75
     0
 76
     1
 98
        0
  0
LINE
  5
11B
330
1F
100
AcDbEntity
  8
Layer0
  6
AUSGEZOGEN
 62
    18
420
        0
370
    18
100
AcDbLine
 10
134.751382341615
 20
107.319669685163
 30
0.0
 11
134.664775109835
 21
107.233062453383
 31
0.0
  0
LINE
  5
11C
330
1F
100
AcDbEntity
  8
Layer0
  6
AUSGEZOGEN
 62
    18
420
        0
370
    18
100
AcDbLine
 10
145.554219540108
 20
96.34361802311
 30
0.0
 11
145.640826771888
 21
96.43022525489
 31
0.0
  0
LINE
  5
11D
330
1F
100
AcDbEntity
  8
Layer0
  6
AUSGEZOGEN
 62
    18
420
        0
370
    18
100
AcDbLine
 10
136.883656153015
 20
102.763181518037
 30
0.0
 11
136.91535064994
 21
102.644851641685
 31
0.0
  0
LINE
  5
11E
330
1F
100
AcDbEntity
  8
Layer0
  6
AUSGEZOGEN
 62
    18
420
        0
370
    18
100
AcDbLine
 10
140.96600872841
 20
98.594193563215
 30
0.0
 11
141.084338604762
 21
98.56249906629
 31
0.0
  0
LINE
  5
11F
330
1F
100
AcDbEntity
  8
Layer0
  6
AUSGEZOGEN
 62
    18
420
        0
370
    18
100
AcDbLine
 10
133.295170382301
 20
103.725435070049
 30
0.0
 11
133.326864879226
 21
103.607105193697
 31
0.0
  0
LINE
  5
120
330
1F
100
AcDbEntity
  8
Layer0
  6
AUSGEZOGEN
 62
    18
420
        0
370
    18
100
AcDbLine
 10
141.928262280421
 20
95.005707792501
 30
0.0
 11
142.046592156773
 21
94.974013295576
 31
0.0
  0
LINE
  5
121
330
1F
100
AcDbEntity
  8
Layer0
  6
AUSGEZOGEN
 62
    18
420
        0
370
    18
100
AcDbLine
 10
142.005654622389
 20
116.058866206429
 30
0.0
 11
134.008920221369
 21
108.062131805409
 31
0.0
  0
LINE
  5
122
330
1F
100
AcDbEntity
  8
Layer0
  6
AUSGEZOGEN
 62
    18
420
        0
370
    18
100
AcDbLine
 10
146.383288892133
 20
95.687763134644
 30
0.0
 11
154.380023293153
 21
103.684497535664
 31
0.0
  0
LINE
  5
123
330
1F
100
AcDbEntity
  8
Layer0
  6
AUSGEZOGEN
 62
    18
420
        0
370
    18
100
AcDbLine
 10
155.093773132221
 20
108.021194271024
 30
0.0
 11
154.988124809138
 21
108.415627192197
 31
0.0
  0
LINE
  5
124
330
1F
100
AcDbEntity
  8
Layer0
  6
AUSGEZOGEN
 62
    18
420
        0
370
    18
100
AcDbLine
 10
146.736784278921
 20
116.666967722414
 30
0.0
 11
146.342351357749
 21
116.772616045497
 31
0.0
  0
LWPOLYLINE
  5
125
330
1F
100
AcDbEntity
  8
Layer0
  6
AUSGEZOGEN
 62
    18
420
        0
370
    18
100
AcDbPolyline
 90
       77
 70
     1
 43
0.0
 10
134.135251750607
 20
103.080550363774
 10
133.995553050959
 20
103.577746193347
 10
133.896541641724
 20
104.06303382152
 10
133.838876427496
 20
104.533183739194
 10
133.822941160761
 20
104.985067176237
 10
133.84884188809
 20
105.41567692293
 10
133.916406244416
 20
105.822147342455
 10
134.025184600095
 20
106.201773441233
 10
134.174453053118
 20
106.552028870211
 10
134.363218246556
 20
106.870582737296
 10
134.590223979191
 20
107.15531511906
 10
134.853959565327
 20
107.404331168482
 10
135.15266988815
 20
107.615973724836
 10
135.484367079747
 20
107.788834341828
 10
135.846843750032
 20
107.921762660573
 10
136.237687676571
 20
108.013874065041
 10
136.654297857516
 20
108.064555569033
 10
137.093901820849
 20
108.073469895501
 10
137.553574074724
 20
108.040557721073
 10
138.030255576132
 20
107.96603807084
 10
138.520774088327
 20
107.850406860779
 10
139.021865291542
 20
107.694433597517
 10
139.530194506492
 20
107.499156257385
 10
140.042378886121
 20
107.265874378864
 10
140.555009927886
 20
106.996140414367
 10
141.064676156784
 20
106.691749398924
 10
141.56798582815
 20
106.354727004523
 10
142.06158949916
 20
105.987316059592
 10
142.542202318824
 20
105.591961623353
 10
143.006625888121
 20
105.17129471435
 10
143.451769544824
 20
104.728114801456
 10
143.87467093134
 20
104.265371173872
 10
144.272515708715
 20
103.786143314094
 10
144.642656285596
 20
103.29362040446
 10
144.982629437512
 20
102.791080103673
 10
145.29017269923
 20
102.281866734523
 10
145.563239421083
 20
101.769369027966
 10
145.800012389091
 20
101.256997571683
 10
145.998915918216
 20
100.748162113181
 10
146.158626338289
 20
100.246248868484
 10
146.278080802814
 20
99.754597987426
 10
146.356484362039
 20
99.276481325503
 10
146.393315253212
 20
98.815080670216
 10
146.38832837283
 20
98.373466566802
 10
146.341556907758
 20
97.954577884257
 10
146.253312114381
 20
97.561202257651
 10
146.124181247238
 20
97.195957536877
 10
145.955023650945
 20
96.861274365291
 10
145.746965041397
 20
96.559380004181
 10
145.501390014313
 20
96.292283510711
 10
145.219932830981
 20
96.061762367978
 10
144.904466542519
 20
95.869350656152
 10
144.557090525029
 20
95.71632884343
 10
144.180116508593
 20
95.603715264729
 10
143.776053193095
 20
95.532259344836
 10
143.347589553234
 20
95.502436611108
 10
142.897576943842
 20
95.514445528917
 10
142.429010124586
 20
95.568206180898
 10
141.945007330342
 20
95.66336079878
 10
141.44878951985
 20
95.799276144281
 10
140.943658940769
 20
95.975047723201
 10
140.432977153761
 20
96.189505804684
 10
139.920142661864
 20
96.441223205579
 10
139.408568294008
 20
96.728524788114
 10
138.901658493208
 20
97.049498607659
 10
138.402786660554
 20
97.402008636402
 10
137.915272705784
 20
97.783708978261
 10
137.442360953833
 20
98.192059480438
 10
136.987198554386
 20
98.624342637714
 10
136.552814538114
 20
99.077681676998
 10
136.142099658977
 20
99.54905970178
 10
135.757787156733
 20
100.035339769077
 10
135.402434567677
 20
100.533285765272
 10
135.07840670466
 20
101.039583941915
 10
134.787859919649
 20
101.550864968173
 10
134.532727753563
 20
102.063726353174
 10
134.314708068872
 20
102.574755089015
  0
LWPOLYLINE
  5
126
330
1F
100
AcDbEntity
  8
Layer0
  6
AUSGEZOGEN
 62
    18
420
        0
370
    18
100
AcDbPolyline
 90
       57
 70
     1
 43
0.0
 10
136.908556075293
 20
102.550920279418
 10
136.810858278868
 20
102.915827085364
 10
136.75390235499
 20
103.267748591301
 10
136.738379671419
 20
103.602412946874
 10
136.764478652508
 20
103.915757780154
 10
136.831882491979
 20
104.203979509333
 10
136.93977299853
 20
104.463579513055
 10
137.086840527563
 20
104.691406598937
 10
137.2712998785
 20
104.88469525478
 10
137.490911964693
 20
105.041099218137
 10
137.743010992913
 20
105.158719956765
 10
138.024536822458
 20
105.236129714229
 10
138.332072111123
 20
105.272388840935
 10
138.661883797102
 20
105.267057200204
 10
139.009968413301
 20
105.220199510931
 10
139.372100684009
 20
105.132384561989
 10
139.743884814016
 20
105.004678307902
 10
140.120807847615
 20
104.838630929597
 10
140.498294449773
 20
104.636258017314
 10
140.871762444496
 20
104.400016104067
 10
141.236678436241
 20
104.13277284666
 10
141.588612839198
 20
103.837772216222
 10
141.923293646456
 20
103.518595120786
 10
142.236658286387
 20
103.179115937924
 10
142.524902936756
 20
102.823455485044
 10
142.784528697975
 20
102.455930998254
 10
143.012384065001
 20
102.081003726961
 10
143.20570318234
 20
101.70322478035
 10
143.362139417783
 20
101.327179883078
 10
143.479793847347
 20
100.957433710796
 10
143.557238305636
 20
100.598474481163
 10
143.593532721835
 20
100.254659472968
 10
143.588236530897
 20
99.930162134666
 10
143.541414021406
 20
99.628921424368
 10
143.453633555199
 20
99.354593996226
 10
143.325960668226
 20
99.110509813604
 10
143.159945136384
 20
98.899631727834
 10
142.95760216334
 20
98.724519513213
 10
142.721387918685
 20
98.587298794815
 10
142.454169723364
 20
98.489635246276
 10
142.159191244286
 20
98.432714370777
 10
141.840033120598
 20
98.417227110639
 10
141.500569499579
 20
98.443361460222
 10
141.144921009738
 20
98.510800183922
 10
140.777404741968
 20
98.618724666991
 10
140.402481845908
 20
98.765824852402
 10
140.024703377634
 20
98.95031514317
 10
139.648655055997
 20
99.169956077084
 10
139.278901598213
 20
99.422081510739
 10
138.919931310379
 20
99.703630982908
 10
138.576101605515
 20
100.011186864397
 10
138.251586110474
 20
100.34101584343
 10
137.950324003766
 20
100.689114243001
 10
137.675972199265
 20
101.051256620084
 10
137.431860956231
 20
101.423047056794
 10
137.220953454474
 20
101.799972520869
 10
137.04580982536
 20
102.177457647772
  0
LINE
  5
127
330
1F
100
AcDbEntity
  8
Layer0
  6
AUSGEZOGEN
 62
    18
420
        0
370
    18
100
AcDbLine
 10
141.332314482666
 20
98.504886209926
 30
0.0
 11
141.084338604762
 21
98.56249906629
 31
0.0
  0
ARC
  5
128
330
1F
100
AcDbEntity
  8
Layer0
  6
AUSGEZOGEN
 62
    18
420
        0
370
    18
100
AcDbCircle
 10
138.854549251617
 20
103.507804936009
 30
0.0
 40
2.106865833581121
100
AcDbArc
 50
140.610592872066
 51
200.697073879039
  0
ARC
  5
129
330
1F
100
AcDbEntity
  8
Layer0
  6
AUSGEZOGEN
 62
    18
420
        0
370
    18
100
AcDbCircle
 10
141.868445838144
 20
100.449174913881
 30
0.0
 40
2.016852844075304
100
AcDbArc
 50
254.583977135952
 51
310.040774940532
  0
LWPOLYLINE
  5
12A
330
1F
100
AcDbEntity
  8
Layer0
  6
AUSGEZOGEN
 62
    18
420
        0
370
    18
100
AcDbPolyline
 90
       56
 70
     1
 43
0.0
 10
141.205128324961
 20
98.538638308864
 10
141.547561221259
 20
98.490613464655
 10
141.871909629678
 20
98.48405944801
 10
142.174094680789
 20
98.519058679491
 10
142.450316222244
 20
98.595171023454
 10
142.697100607891
 20
98.711439323014
 10
142.911344380893
 20
98.866401436841
 10
143.090353301497
 20
99.058108626445
 10
143.231876228663
 20
99.284150062685
 10
143.334133429469
 20
99.541683143347
 10
143.395838960283
 20
99.827469240518
 10
143.416216838254
 20
100.13791442821
 10
143.395010799741
 20
100.469114678062
 10
143.332487522984
 20
100.816904954766
 10
143.229433274465
 20
101.1769115938
 10
143.087144021152
 20
101.544607302797
 10
142.907409132963
 20
101.915368094874
 10
142.692488880403
 20
102.284531437951
 10
142.445086010346
 20
102.647454888794
 10
142.168311757431
 20
102.999574474437
 10
141.865646718475
 20
103.336462086786
 10
141.540897081955
 20
103.653881168648
 10
141.198146762973
 20
103.947839990898
 10
140.841706045659
 20
104.214641850788
 10
140.476057378845
 20
104.450931560127
 10
140.105799006671
 20
104.653737638721
 10
139.735587142995
 20
104.820509682463
 10
139.370077416805
 20
104.949150436138
 10
139.013866324982
 20
105.038042167629
 10
138.671433428683
 20
105.086067011838
 10
138.347085020264
 20
105.092621028483
 10
138.044899969153
 20
105.057621797002
 10
137.768678427698
 20
104.981509453039
 10
137.521894042051
 20
104.86524115348
 10
137.307650269049
 20
104.710279039652
 10
137.128641348445
 20
104.518571850048
 10
136.987118421279
 20
104.292530413808
 10
136.884861220473
 20
104.034997333146
 10
136.823155689659
 20
103.749211235975
 10
136.802777811688
 20
103.438766048283
 10
136.823983850201
 20
103.107565798431
 10
136.886507126958
 20
102.759775521727
 10
136.989561375477
 20
102.399768882693
 10
137.13185062879
 20
102.032073173697
 10
137.311585516979
 20
101.661312381619
 10
137.52650576954
 20
101.292149038543
 10
137.773908639596
 20
100.929225587699
 10
138.050682892511
 20
100.577106002056
 10
138.353347931467
 20
100.240218389707
 10
138.678097567987
 20
99.922799307845
 10
139.020847886969
 20
99.628840485595
 10
139.377288604283
 20
99.362038625705
 10
139.742937271097
 20
99.125748916367
 10
140.113195643271
 20
98.922942837772
 10
140.483407506947
 20
98.75617079403
 10
140.848917233137
 20
98.627530040355
  0
LWPOLYLINE
  5
12B
330
1F
100
AcDbEntity
  8
Layer0
  6
AUSGEZOGEN
 62
    18
420
        0
370
    18
100
AcDbPolyline
 90
       63
 70
     0
 43
0.0
 10
133.295470816377
 20
103.724313729652
 10
133.174151042334
 20
104.247125678286
 10
133.094038883671
 20
104.756016741939
 10
133.055604470389
 20
105.248000545498
 10
133.05907335091
 20
105.720189932374
 10
133.104425168462
 20
106.169813907487
 10
133.191393780547
 20
106.594233898567
 10
133.319468820767
 20
106.990959240343
 10
133.48789869386
 20
107.357661790757
 10
133.695694986358
 20
107.692189593432
 10
133.941638266988
 20
107.992579506203
 10
134.224285242786
 20
108.257068721615
 10
134.541977228909
 20
108.484105111785
 10
134.892849882455
 20
108.672356336896
 10
135.274844143177
 20
108.820717663906
 10
135.685718316859
 20
108.928318449554
 10
136.123061230473
 20
108.994527249644
 10
136.584306381901
 20
109.018955524612
 10
137.066747001186
 20
109.001459919625
 10
137.567551934942
 20
108.942143105851
 10
138.083782260681
 20
108.841353177939
 10
138.612408533581
 20
108.699681611263
 10
139.150328564474
 20
108.51795979091
 10
139.694385624724
 20
108.297254132781
 10
140.241386971167
 20
108.038859825437
 10
140.788122582397
 20
107.744293229419
 10
141.331383996446
 20
107.415282978642
 10
141.86798313932
 20
107.053759836084
 10
142.394771033877
 20
106.661845363297
 10
142.908656279286
 20
106.241839470246
 10
143.406623192588
 20
105.796206918519
 10
143.885749505928
 20
105.327562857128
 10
144.343223515583
 20
104.838657475774
 10
144.776360582159
 20
104.332359865639
 10
145.182618885119
 20
103.811641182419
 10
145.5596143392
 20
103.279557210402
 10
145.905134585172
 20
102.73923042991
 10
146.21715197284
 20
102.193831693343
 10
146.493835460107
 20
101.646561617355
 10
146.733561358251
 20
101.100631800363
 10
146.934922860378
 20
100.559245975615
 10
147.096738297125
 20
100.025581210401
 10
147.218058071168
 20
99.502769261767
 10
147.298170229832
 20
98.993878198114
 10
147.336604643113
 20
98.501894394555
 10
147.333135762592
 20
98.029705007679
 10
147.28778394504
 20
97.580081032566
 10
147.200815332956
 20
97.155661041486
 10
147.072740292735
 20
96.75893569971
 10
146.904310419642
 20
96.392233149296
 10
146.696514127145
 20
96.057705346621
 10
146.450570846514
 20
95.75731543385
 10
146.167923870716
 20
95.492826218438
 10
145.850231884594
 20
95.265789828269
 10
145.499359231047
 20
95.077538603157
 10
145.117364970325
 20
94.929177276147
 10
144.706490796643
 20
94.821576490499
 10
144.269147883029
 20
94.755367690409
 10
143.807902731602
 20
94.730939415441
 10
143.325462112316
 20
94.748435020428
 10
142.82465717856
 20
94.807751834203
 10
142.308426852821
 20
94.908541762115
 10
142.046592156773
 20
94.974013295576
  0
LWPOLYLINE
  5
12C
330
1F
100
AcDbEntity
  8
Layer0
  6
AUSGEZOGEN
 62
    18
420
        0
370
    18
100
AcDbPolyline
 90
       82
 70
     1
 43
0.0
 10
133.327160163003
 20
103.606003076279
 10
133.486201620835
 20
103.081486849897
 10
133.684111211497
 20
102.549381925001
 10
133.919727522815
 20
102.012810904873
 10
134.191667864586
 20
101.474922601615
 10
134.498336382752
 20
100.938873557675
 10
134.837933424507
 20
100.407809521992
 10
135.208466099375
 20
99.884846989495
 10
135.607759974284
 20
99.373054912273
 10
136.033471834004
 20
98.87543668974
 10
136.483103432066
 20
98.394912543495
 10
136.954016151463
 20
97.9343023803
 10
137.443446489108
 20
97.496309243746
 10
137.948522273167
 20
97.083503451718
 10
138.466279518104
 20
96.69830751275
 10
138.993679818528
 20
96.342981909778
 10
139.527628179765
 20
96.019611834729
 10
140.064991180516
 20
95.730094951786
 10
140.602615361021
 20
95.476130261139
 10
141.137345728809
 20
95.259208128578
 10
141.666044273459
 20
95.080601539431
 10
142.18560838168
 20
94.941358628185
 10
142.692989044692
 20
94.842296527608
 10
143.185208751012
 20
94.783996573499
 10
143.659378959681
 20
94.766800893169
 10
144.11271705137
 20
94.790810397708
 10
144.542562657893
 20
94.855884189797
 10
144.946393274312
 20
94.961640390548
 10
145.321839061993
 20
95.107458380524
 10
145.666696755765
 20
95.292482441776
 10
145.978942593554
 20
95.515626779542
 10
146.256744192624
 20
95.775581894119
 10
146.498471302729
 20
96.070822265528
 10
146.70270537307
 20
96.399615305871
 10
146.86824787691
 20
96.76003152685
 10
146.994127345012
 20
97.149955862767
 10
147.079605066604
 20
97.567100082571
 10
147.124179424427
 20
98.009016218111
 10
147.127588838424
 20
98.473110929783
 10
147.089813300799
 20
98.956660725281
 10
147.011074493427
 20
99.456827942128
 10
146.891834486939
 20
99.970677400214
 10
146.732793029107
 20
100.495193626596
 10
146.534883438445
 20
101.027298551492
 10
146.299267127127
 20
101.563869571621
 10
146.027326785356
 20
102.101757874878
 10
145.72065826719
 20
102.637806918818
 10
145.381061225435
 20
103.168870954502
 10
145.010528550567
 20
103.691833486998
 10
144.611234675658
 20
104.20362556422
 10
144.185522815938
 20
104.701243786753
 10
143.735891217876
 20
105.181767932998
 10
143.264978498479
 20
105.642378096194
 10
142.775548160834
 20
106.080371232748
 10
142.270472376775
 20
106.493177024775
 10
141.752715131838
 20
106.878372963743
 10
141.225314831414
 20
107.233698566715
 10
140.691366470177
 20
107.557068641764
 10
140.154003469426
 20
107.846585524707
 10
139.616379288922
 20
108.100550215354
 10
139.081648921133
 20
108.317472347915
 10
138.552950376484
 20
108.496078937062
 10
138.033386268262
 20
108.635321848309
 10
137.52600560525
 20
108.734383948885
 10
137.03378589893
 20
108.792683902995
 10
136.559615690261
 20
108.809879583325
 10
136.106277598572
 20
108.785870078785
 10
135.676431992049
 20
108.720796286696
 10
135.27260137563
 20
108.615040085945
 10
134.897155587949
 20
108.46922209597
 10
134.552297894177
 20
108.284198034717
 10
134.240052056389
 20
108.061053696951
 10
133.962250457318
 20
107.801098582374
 10
133.720523347213
 20
107.505858210965
 10
133.516289276873
 20
107.177065170622
 10
133.350746773032
 20
106.816648949643
 10
133.22486730493
 20
106.426724613726
 10
133.139389583338
 20
106.009580393922
 10
133.094815225516
 20
105.567664258382
 10
133.091405811518
 20
105.10356954671
 10
133.129181349143
 20
104.620019751212
 10
133.207920156515
 20
104.119852534365
  0
LWPOLYLINE
  5
12D
330
1F
100
AcDbEntity
  8
Layer0
  6
AUSGEZOGEN
 62
    18
420
        0
370
    18
100
AcDbPolyline
 90
       43
 70
     0
 43
0.0
 10
154.380023293153
 20
103.684497535664
 10
154.521536992143
 20
103.836458093104
 10
154.754666107888
 20
104.143738401455
 10
154.950007012971
 20
104.484004756153
 10
155.106434779363
 20
104.855297633364
 10
155.223048571785
 20
105.255478833903
 10
155.299176835433
 20
105.682243796685
 10
155.334381163321
 20
106.133134870212
 10
155.328458820977
 20
106.605555465685
 10
155.28144391395
 20
107.096785010227
 10
155.193607191403
 20
107.603994614094
 10
155.065454486927
 20
108.124263361676
 10
154.897723805542
 20
108.654595132443
 10
154.691381073686
 20
109.191935854989
 10
154.447614576642
 20
109.733191094797
 10
154.167828115443
 20
110.275243874452
 10
153.853632922676
 20
110.814972623674
 10
153.506838383726
 20
111.349269155792
 10
153.129441616893
 20
111.875056567156
 10
152.723615972406
 20
112.389306956388
 10
152.29169851654
 20
112.889058861445
 10
151.83617657294
 20
113.371434314067
 10
151.359673398629
 20
113.833655413403
 10
150.864933077217
 20
114.273060323371
 10
150.354804716287
 20
114.687118601621
 10
149.832226039971
 20
115.073445771836
 10
149.300206471202
 20
115.429817055435
 10
148.761809801067
 20
115.754180183617
 10
148.220136545068
 20
116.044667215954
 10
147.678306087887
 20
116.299605297472
 10
147.139438719497
 20
116.517526292285
 10
146.606637666055
 20
116.697175238281
 10
146.082971219055
 20
116.83751757419
 10
145.571455065679
 20
116.937745097415
 10
145.075034922069
 20
116.997280618299
 10
144.596569569559
 20
117.015781284042
 10
144.138814391536
 20
116.993140553122
 10
143.704405505764
 20
116.929488808844
 10
143.295844583517
 20
116.82519260849
 10
142.915484442972
 20
116.68085257239
 10
142.565515499816
 20
116.497299925074
 10
142.24795315309
 20
116.275591708421
 10
142.005654622389
 20
116.058866206429
  0
LWPOLYLINE
  5
12E
330
1F
100
AcDbEntity
  8
Layer0
  6
AUSGEZOGEN
 62
    18
420
        0
370
    18
100
AcDbPolyline
 90
       78
 70
     1
 43
0.0
 10
133.918643055035
 20
103.447485968311
 10
133.805212323919
 20
103.940262670475
 10
133.732667300189
 20
104.419083329905
 10
133.70147846616
 20
104.880842610887
 10
133.711848093389
 20
105.322545827291
 10
133.763708930866
 20
105.741328364265
 10
133.856724641157
 20
106.134474256354
 10
133.99029198169
 20
106.499433801587
 10
134.163544717006
 20
106.833840097267
 10
134.375359236634
 20
107.135524390243
 10
134.624361842135
 20
107.40253014211
 10
134.908937656062
 20
107.633125718109
 10
135.227241095061
 20
107.825815617442
 10
135.577207839187
 20
107.97935017217
 10
135.956568219811
 20
108.092733651792
 10
136.362861939292
 20
108.165230720931
 10
136.793454026951
 20
108.196371208277
 10
137.245551927868
 20
108.185953155817
 10
137.716223613672
 20
108.134044128621
 10
138.202416597868
 20
108.040980776649
 10
138.700977732387
 20
107.90736665145
 10
139.208673656957
 20
107.734068291898
 10
139.722211768689
 20
107.522209604354
 10
140.238261575866
 20
107.273164573704
 10
140.753476297466
 20
106.988548352538
 10
141.264514568314
 20
106.670206786267
 10
141.768062109123
 20
106.320204442106
 10
142.260853220862
 20
105.940811219564
 10
142.739691964074
 20
105.534487629273
 10
143.201472885762
 20
105.103868835636
 10
143.64320115945
 20
104.651747566772
 10
144.062012007777
 20
104.181056002603
 10
144.455189281682
 20
103.694846758542
 10
144.820183075668
 20
103.19627308811
 10
145.154626264922
 20
102.688568432878
 10
145.456349857026
 20
102.175025452357
 10
145.723397058702
 20
101.65897466984
 10
145.954035966375
 20
101.143762872676
 10
146.146770798224
 20
100.632731407072
 10
146.300351594907
 20
100.129194508182
 10
146.413782326023
 20
99.636417806018
 10
146.486327349754
 20
99.157597146588
 10
146.517516183783
 20
98.695837865606
 10
146.507146556553
 20
98.254134649202
 10
146.455285719077
 20
97.835352112229
 10
146.362270008785
 20
97.442206220139
 10
146.228702668252
 20
97.077246674906
 10
146.055449932936
 20
96.742840379226
 10
145.843635413308
 20
96.44115608625
 10
145.594632807807
 20
96.174150334383
 10
145.31005699388
 20
95.943554758384
 10
144.991753554881
 20
95.750864859052
 10
144.641786810755
 20
95.597330304323
 10
144.262426430131
 20
95.483946824701
 10
143.856132710651
 20
95.411449755562
 10
143.425540622991
 20
95.380309268217
 10
142.973442722074
 20
95.390727320676
 10
142.50277103627
 20
95.442636347872
 10
142.016578052074
 20
95.535699699844
 10
141.518016917555
 20
95.669313825043
 10
141.010320992985
 20
95.842612184595
 10
140.496782881253
 20
96.054470872139
 10
139.980733074076
 20
96.303515902789
 10
139.465518352476
 20
96.588132123955
 10
138.954480081628
 20
96.906473690226
 10
138.450932540819
 20
97.256476034387
 10
137.95814142908
 20
97.63586925693
 10
137.479302685868
 20
98.04219284722
 10
137.01752176418
 20
98.472811640857
 10
136.575793490492
 20
98.924932909721
 10
136.156982642165
 20
99.39562447389
 10
135.76380536826
 20
99.881833717951
 10
135.398811574274
 20
100.380407388384
 10
135.06436838502
 20
100.888112043616
 10
134.762644792917
 20
101.401655024136
 10
134.49559759124
 20
101.917705806653
 10
134.264958683567
 20
102.432917603817
 10
134.072223851718
 20
102.943949069421
  0
ARC
  5
12F
330
1F
100
AcDbEntity
  8
Layer0
  6
AUSGEZOGEN
 62
    18
420
        0
370
    18
100
AcDbCircle
 10
142.598270929134
 20
98.885217945757
 30
0.0
 40
3.909492955420491
100
AcDbArc
 50
321.100460605497
 51
19.460854440869
  0
ARC
  5
130
330
1F
100
AcDbEntity
  8
Layer0
  6
AUSGEZOGEN
 62
    18
420
        0
370
    18
100
AcDbCircle
 10
137.185743874887
 20
104.397566229198
 30
0.0
 40
3.803262373546632
100
AcDbArc
 50
69.641500716195
 51
129.79718424035
  0
LINE
  5
131
330
1F
100
AcDbEntity
  8
Layer0
  6
DASHDOT
 62
    18
420
        0
370
    18
100
AcDbLine
 10
67.027272334277
 20
204.948046343672
 30
0.0
 11
67.027272334277
 21
184.770629865354
 31
0.0
  0
LINE
  5
132
330
1F
100
AcDbEntity
  8
Layer0
  6
AUSGEZOGEN
 62
    18
420
        0
370
    18
100
AcDbLine
 10
82.027272334277
 20
218.448881259585
 30
0.0
 11
83.213096626675
 21
218.448881259585
 31
0.0
  0
LINE
  5
133
330
1F
100
AcDbEntity
  8
Layer0
  6
AUSGEZOGEN
 62
    18
420
        0
370
    18
100
AcDbLine
 10
82.027272334277
 20
218.448881259585
 30
0.0
 11
82.027272334277
 21
229.684521794803
 31
0.0
  0
LINE
  5
134
330
1F
100
AcDbEntity
  8
Layer0
  6
AUSGEZOGEN
 62
    18
420
        0
370
    18
100
AcDbLine
 10
82.027272334277
 20
229.684521794803
 30
0.0
 11
83.213096626675
 21
229.684521794803
 31
0.0
  0
LINE
  5
135
330
1F
100
AcDbEntity
  8
Layer0
  6
AUSGEZOGEN
 62
    18
420
        0
370
    18
100
AcDbLine
 10
83.213096626675
 20
218.448881259585
 30
0.0
 11
83.213096626675
 21
229.684521794803
 31
0.0
  0
LINE
  5
136
330
1F
100
AcDbEntity
  8
Layer0
  6
AUSGEZOGEN
 62
    18
420
        0
370
    18
100
AcDbLine
 10
82.027272334277
 20
218.448881259585
 30
0.0
 11
84.347780409966
 21
218.448881259585
 31
0.0
  0
LINE
  5
137
330
1F
100
AcDbEntity
  8
Layer0
  6
AUSGEZOGEN
 62
    18
420
        0
370
    18
100
AcDbLine
 10
82.027272334277
 20
218.448881259585
 30
0.0
 11
82.027272334277
 21
229.684521794803
 31
0.0
  0
LINE
  5
138
330
1F
100
AcDbEntity
  8
Layer0
  6
AUSGEZOGEN
 62
    18
420
        0
370
    18
100
AcDbLine
 10
82.027272334277
 20
229.684521794803
 30
0.0
 11
84.347780409966
 21
229.684521794803
 31
0.0
  0
LINE
  5
139
330
1F
100
AcDbEntity
  8
Layer0
  6
AUSGEZOGEN
 62
    18
420
        0
370
    18
100
AcDbLine
 10
84.347780409966
 20
218.448881259585
 30
0.0
 11
84.347780409966
 21
229.684521794803
 31
0.0
  0
LINE
  5
13A
330
1F
100
AcDbEntity
  8
Layer0
  6
DASHDOT
 62
    18
420
        0
370
    18
100
AcDbLine
 10
67.027272334277
 20
204.948046343672
 30
0.0
 11
67.027272334277
 21
222.754007693623
 31
0.0
  0
LINE
  5
13B
330
1F
100
AcDbEntity
  8
Layer0
  6
AUSGEZOGEN
 62
    18
420
        0
370
    18
100
AcDbLine
 10
49.527272334277
 20
191.748881259585
 30
0.0
 11
49.827272334277
 21
191.448881259585
 31
0.0
  0
LINE
  5
13C
330
1F
100
AcDbEntity
  8
Layer0
  6
AUSGEZOGEN
 62
    18
420
        0
370
    18
100
AcDbLine
 10
84.227272334277
 20
191.448881259585
 30
0.0
 11
84.527272334277
 21
191.748881259585
 31
0.0
  0
LINE
  5
13D
330
1F
100
AcDbEntity
  8
Layer0
  6
AUSGEZOGEN
 62
    18
420
        0
370
    18
100
AcDbLine
 10
49.527272334277
 20
219.448881259585
 30
0.0
 11
49.527272334277
 21
191.748881259585
 31
0.0
  0
LINE
  5
13E
330
1F
100
AcDbEntity
  8
Layer0
  6
AUSGEZOGEN
 62
    18
420
        0
370
    18
100
AcDbLine
 10
84.527272334277
 20
191.748881259585
 30
0.0
 11
84.527272334277
 21
217.448881259585
 31
0.0
  0
LINE
  5
13F
330
1F
100
AcDbEntity
  8
Layer0
  6
AUSGEZOGEN
 62
    18
420
        0
370
    18
100
AcDbLine
 10
50.527272334277
 20
220.448881259585
 30
0.0
 11
49.527272334277
 21
219.448881259585
 31
0.0
  0
LINE
  5
140
330
1F
100
AcDbEntity
  8
Layer0
  6
AUSGEZOGEN
 62
    18
420
        0
370
    18
100
AcDbLine
 10
67.027272334277
 20
197.787073959627
 30
0.0
 11
68.982078138769
 21
198.961639785393
 31
0.0
  0
LINE
  5
141
330
1F
100
AcDbEntity
  8
Layer0
  6
AUSGEZOGEN
 62
    18
420
        0
370
    18
100
AcDbLine
 10
65.002451568515
 20
199.003709003967
 30
0.0
 11
67.027272334277
 21
197.787073959627
 31
0.0
  0
LINE
  5
142
330
1F
100
AcDbEntity
  8
Layer0
  6
AUSGEZOGEN
 62
    18
420
        0
370
    18
100
AcDbLine
 10
68.993548646113
 20
199.048881259585
 30
0.0
 11
64.969024984931
 21
199.048881259585
 31
0.0
  0
LINE
  5
143
330
1F
100
AcDbEntity
  8
Layer0
  6
AUSGEZOGEN
 62
    18
420
        0
370
    18
100
AcDbLine
 10
69.127272334277
 20
199.594814315227
 30
0.0
 11
69.127272334277
 21
211.448881259585
 31
0.0
  0
LINE
  5
144
330
1F
100
AcDbEntity
  8
Layer0
  6
AUSGEZOGEN
 62
    18
420
        0
370
    18
100
AcDbLine
 10
64.927272334277
 20
211.448881259585
 30
0.0
 11
64.927272334277
 21
199.346463131918
 31
0.0
  0
LINE
  5
145
330
1F
100
AcDbEntity
  8
Layer0
  6
AUSGEZOGEN
 62
    18
420
        0
370
    18
100
AcDbLine
 10
69.127272334277
 20
211.448881259585
 30
0.0
 11
64.927272334277
 21
211.448881259585
 31
0.0
  0
LINE
  5
146
330
1F
100
AcDbEntity
  8
Layer0
  6
AUSGEZOGEN
 62
    18
420
        0
370
    18
100
AcDbLine
 10
62.581738004268
 20
211.448881259562
 30
0.0
 11
64.927272334277
 21
211.448881259585
 31
0.0
  0
LINE
  5
147
330
1F
100
AcDbEntity
  8
Layer0
  6
AUSGEZOGEN
 62
    18
420
        0
370
    18
100
AcDbLine
 10
69.127272334277
 20
211.448881259585
 30
0.0
 11
71.267607830807
 21
211.448881259563
 31
0.0
  0
LINE
  5
148
330
1F
100
AcDbEntity
  8
Layer0
  6
AUSGEZOGEN
 62
    18
420
        0
370
    18
100
AcDbLine
 10
64.027272334277
 20
211.448881259585
 30
0.0
 11
64.027272334277
 21
215.448881259585
 31
0.0
  0
LINE
  5
149
330
1F
100
AcDbEntity
  8
Layer0
  6
AUSGEZOGEN
 62
    18
420
        0
370
    18
100
AcDbLine
 10
70.027272334277
 20
215.448881259585
 30
0.0
 11
70.027272334277
 21
211.448881259585
 31
0.0
  0
LINE
  5
14A
330
1F
100
AcDbEntity
  8
Layer0
  6
AUSGEZOGEN
 62
    18
420
        0
370
    18
100
AcDbLine
 10
70.027272334277
 20
215.448881259585
 30
0.0
 11
64.027272334277
 21
215.448881259585
 31
0.0
  0
LINE
  5
14B
330
1F
100
AcDbEntity
  8
Layer0
  6
AUSGEZOGEN
 62
    18
420
        0
370
    18
100
AcDbLine
 10
71.860662668704
 20
215.448881259584
 30
0.0
 11
70.027272334277
 21
215.448881259585
 31
0.0
  0
LINE
  5
14C
330
1F
100
AcDbEntity
  8
Layer0
  6
AUSGEZOGEN
 62
    18
420
        0
370
    18
100
AcDbLine
 10
71.267607830807
 20
211.448881259562
 30
0.0
 11
70.027272334277
 21
211.448881259585
 31
0.0
  0
LINE
  5
14D
330
1F
100
AcDbEntity
  8
Layer0
  6
AUSGEZOGEN
 62
    18
420
        0
370
    18
100
AcDbLine
 10
64.027272334277
 20
215.448881259585
 30
0.0
 11
61.941940113234
 21
215.448881259584
 31
0.0
  0
LINE
  5
14E
330
1F
100
AcDbEntity
  8
Layer0
  6
AUSGEZOGEN
 62
    18
420
        0
370
    18
100
AcDbLine
 10
64.027272334277
 20
211.448881259585
 30
0.0
 11
62.581738004268
 21
211.448881259562
 31
0.0
  0
LINE
  5
14F
330
1F
100
AcDbEntity
  8
Layer0
  6
AUSGEZOGEN
 62
    18
420
        0
370
    18
100
AcDbLine
 10
49.527272334277
 20
191.748881259585
 30
0.0
 11
84.527272334277
 21
191.748881259585
 31
0.0
  0
LINE
  5
150
330
1F
100
AcDbEntity
  8
Layer0
  6
AUSGEZOGEN
 62
    18
420
        0
370
    18
100
AcDbLine
 10
84.227272334277
 20
191.448881259585
 30
0.0
 11
49.827272334277
 21
191.448881259585
 31
0.0
  0
LINE
  5
151
330
1F
100
AcDbEntity
  8
Layer0
  6
AUSGEZOGEN
 62
    18
420
        0
370
    18
100
AcDbLine
 10
84.347780409966
 20
217.448881259585
 30
0.0
 11
84.347780409966
 21
219.448881259585
 31
0.0
  0
LINE
  5
152
330
1F
100
AcDbEntity
  8
Layer0
  6
AUSGEZOGEN
 62
    18
420
        0
370
    18
100
AcDbLine
 10
84.347780409966
 20
217.448881259585
 30
0.0
 11
84.527272334277
 21
217.448881259585
 31
0.0
  0
LINE
  5
153
330
1F
100
AcDbEntity
  8
Layer0
  6
AUSGEZOGEN
 62
    18
420
        0
370
    18
100
AcDbLine
 10
61.319605948456
 20
219.448881259585
 30
0.0
 11
49.527272334277
 21
219.448881259585
 31
0.0
  0
LWPOLYLINE
  5
154
330
1F
100
AcDbEntity
  8
Layer0
  6
AUSGEZOGEN
 62
    18
420
        0
370
    18
100
AcDbPolyline
 90
       25
 70
     0
 43
0.0
 10
72.436268772785
 20
219.448881259585
 10
71.612132728763
 20
213.67709085416
 10
70.728646906799
 20
207.912830735536
 10
69.695110110098
 20
202.174449997286
 10
69.242100533648
 20
200.03320765406
 10
68.700034470699
 20
197.913497951674
 10
68.373556142211
 20
196.865565555755
 10
67.959914711286
 20
195.850951376301
 10
67.600161914285
 20
195.242656701059
 10
67.428423224623
 20
195.050190757102
 10
67.214500803016
 20
194.902471838003
 10
67.065295168059
 20
194.861478649883
 10
66.910314009257
 20
194.873975884322
 10
66.738318722682
 20
194.952389355348
 10
66.494521688532
 20
195.175116649324
 10
66.192719457308
 20
195.617464852473
 10
65.955235738102
 20
196.100384274681
 10
65.367249245672
 20
197.661578262705
 10
64.919330712263
 20
199.274345827446
 10
64.539960098682
 20
200.904858634083
 10
63.705083683255
 20
204.909228019119
 10
62.980869856726
 20
208.935691373193
 10
62.325426512562
 20
212.974550985259
 10
61.696861544227
 20
217.016109144271
 10
61.319605948456
 20
219.448881259585
  0
LINE
  5
155
330
1F
100
AcDbEntity
  8
Layer0
  6
AUSGEZOGEN
 62
    18
420
        0
370
    18
100
AcDbLine
 10
82.027272334277
 20
219.448881259585
 30
0.0
 11
72.436268772785
 21
219.448881259585
 31
0.0
  0
LINE
  5
156
330
1F
100
AcDbEntity
  8
Layer0
  6
AUSGEZOGEN
 62
    18
420
        0
370
    18
100
AcDbLine
 10
72.579143384713
 20
220.448881259585
 30
0.0
 11
82.027272334277
 21
220.448881259585
 31
0.0
  0
LINE
  5
157
330
1F
100
AcDbEntity
  8
Layer0
  6
AUSGEZOGEN
 62
    18
420
        0
370
    18
100
AcDbLine
 10
72.436268772785
 20
219.448881259585
 30
0.0
 11
72.579143384713
 21
220.448881259585
 31
0.0
  0
LINE
  5
158
330
1F
100
AcDbEntity
  8
Layer0
  6
AUSGEZOGEN
 62
    18
420
        0
370
    18
100
AcDbLine
 10
50.527272334277
 20
220.448881259585
 30
0.0
 11
61.165050203707
 21
220.448881259585
 31
0.0
  0
LINE
  5
159
330
1F
100
AcDbEntity
  8
Layer0
  6
AUSGEZOGEN
 62
    18
420
        0
370
    18
100
AcDbLine
 10
61.165050203707
 20
220.448881259585
 30
0.0
 11
61.319605948456
 21
219.448881259585
 31
0.0
  0
LINE
  5
15A
330
1F
100
AcDbEntity
  8
Layer0
  6
AUSGEZOGEN
 62
    18
420
        0
370
    18
100
AcDbLine
 10
70.027272334277
 20
215.448881259585
 30
0.0
 11
70.027272334277
 21
220.448881259585
 31
0.0
  0
LINE
  5
15B
330
1F
100
AcDbEntity
  8
Layer0
  6
AUSGEZOGEN
 62
    18
420
        0
370
    18
100
AcDbLine
 10
64.027272334277
 20
220.448881259585
 30
0.0
 11
64.027272334277
 21
215.448881259585
 31
0.0
  0
LINE
  5
15C
330
1F
100
AcDbEntity
  8
Layer0
  6
AUSGEZOGEN
 62
    18
420
        0
370
    18
100
AcDbLine
 10
70.027272334277
 20
215.448881259585
 30
0.0
 11
64.027272334277
 21
215.448881259585
 31
0.0
  0
LINE
  5
15D
330
1F
100
AcDbEntity
  8
Layer0
  6
AUSGEZOGEN
 62
    18
420
        0
370
    18
100
AcDbLine
 10
70.027272334277
 20
220.448881259585
 30
0.0
 11
64.027272334277
 21
220.448881259585
 31
0.0
  0
LINE
  5
15E
330
1F
100
AcDbEntity
  8
Layer0
  6
AUSGEZOGEN
 62
    18
420
        0
370
    18
100
AcDbLine
 10
64.027272334277
 20
215.448881259585
 30
0.0
 11
61.941940113234
 21
215.448881259584
 31
0.0
  0
LINE
  5
15F
330
1F
100
AcDbEntity
  8
Layer0
  6
AUSGEZOGEN
 62
    18
420
        0
370
    18
100
AcDbLine
 10
64.027272334277
 20
220.448881259585
 30
0.0
 11
61.165050203707
 21
220.448881259585
 31
0.0
  0
LINE
  5
160
330
1F
100
AcDbEntity
  8
Layer0
  6
AUSGEZOGEN
 62
    18
420
        0
370
    18
100
AcDbLine
 10
71.860662668704
 20
215.448881259584
 30
0.0
 11
70.027272334277
 21
215.448881259585
 31
0.0
  0
LINE
  5
161
330
1F
100
AcDbEntity
  8
Layer0
  6
AUSGEZOGEN
 62
    18
420
        0
370
    18
100
AcDbLine
 10
72.579143384713
 20
220.448881259585
 30
0.0
 11
70.027272334277
 21
220.448881259585
 31
0.0
  0
LINE
  5
162
330
1F
100
AcDbEntity
  8
Layer0
  6
AUSGEZOGEN
 62
    18
420
        0
370
    18
100
AcDbLine
 10
69.527272877337
 20
201.448881870532
 30
0.0
 11
69.527272877337
 21
211.448881647015
 31
0.0
  0
LINE
  5
163
330
1F
100
AcDbEntity
  8
Layer0
  6
AUSGEZOGEN
 62
    18
420
        0
370
    18
100
AcDbLine
 10
64.527272057773
 20
211.448881647015
 30
0.0
 11
64.527272057773
 21
201.448881870532
 31
0.0
  0
LINE
  5
164
330
1F
100
AcDbEntity
  8
Layer0
  6
AUSGEZOGEN
 62
    18
420
        0
370
    18
100
AcDbLine
 10
64.927273240925
 20
201.448881870532
 30
0.0
 11
69.127271694185
 21
201.448881870532
 31
0.0
  0
LINE
  5
165
330
1F
100
AcDbEntity
  8
Layer0
  6
AUSGEZOGEN
 62
    18
420
        0
370
    18
100
AcDbLine
 10
69.127271694185
 20
201.448881870532
 30
0.0
 11
69.527272877337
 21
201.448881870532
 31
0.0
  0
LINE
  5
166
330
1F
100
AcDbEntity
  8
Layer0
  6
AUSGEZOGEN
 62
    18
420
        0
370
    18
100
AcDbLine
 10
64.527272057773
 20
201.448881870532
 30
0.0
 11
64.927273240925
 21
201.448881870532
 31
0.0
  0
HATCH
  5
167
330
1F
100
AcDbEntity
  8
Layer0
  6
AUSGEZOGEN
 62
    18
420
        0
370
    18
100
AcDbHatch
 10
0.0
 20
0.0
 30
0.0
210
0.0
220
0.0
230
1.0
  2
ANSI31
 70
     0
 71
     0
 91
        1
 92
        2
 72
     0
 73
     1
 93
      102
 10
62.58173800426417
 20
211.4488812595848
 10
62.60171545700771
 20
211.3266988257795
 10
62.62168838211457
 20
211.204509044311
 10
62.64165906901493
 20
211.0823125254649
 10
62.66162980713895
 20
210.9601098795271
 10
62.68160288591676
 20
210.8379017167832
 10
62.70158059477856
 20
210.715688647519
 10
62.7215652231545
 20
210.5934712820202
 10
62.74155906047471
 20
210.4712502305725
 10
62.7615643961694
 20
210.3490261034617
 10
62.78158351966871
 20
210.2267995109734
 10
62.80161872040284
 20
210.1045710633935
 10
62.82167228780187
 20
209.9823413710075
 10
62.84174651129607
 20
209.8601110441014
 10
62.8618436803155
 20
209.7378806929607
 10
62.88196608429038
 20
209.6156509278711
 10
62.90211601265085
 20
209.4934223591185
 10
62.9222957548271
 20
209.3711955969886
 10
62.94250760024923
 20
209.248971251767
 10
62.96275383834748
 20
209.1267499337396
 10
62.98303675855195
 20
209.0045322531919
 10
63.00335865029282
 20
208.8823188204098
 10
63.02372180300026
 20
208.760110245679
 10
63.04412850610444
 20
208.6379071392852
 10
63.06458104903552
 20
208.5157101115141
 10
63.08508172122364
 20
208.3935197726515
 10
63.10563281209895
 20
208.271336732983
 10
63.12623661109168
 20
208.1491616027945
 10
63.14689540763194
 20
208.0269949923715
 10
63.16761149114987
 20
207.9048375119999
 10
63.18838715107572
 20
207.7826897719654
 10
63.20922467683957
 20
207.6605523825537
 10
63.23012635787157
 20
207.5384259540505
 10
63.25109448360192
 20
207.4163110967416
 10
63.27213134346081
 20
207.2942084209126
 10
63.2932392268784
 20
207.1721185368494
 10
63.31442042328476
 20
207.0500420548375
 10
63.33567722211015
 20
206.9279795851629
 10
63.35701191278471
 20
206.8059317381111
 10
63.37842678473854
 20
206.6838991239679
 10
63.39992412740187
 20
206.561882353019
 10
63.42150623020487
 20
206.4398820355502
 10
63.44317538257766
 20
206.3178987818471
 10
63.4649338739504
 20
206.1959332021956
 10
63.48678399375333
 20
206.0739859068813
 10
63.5087280314165
 20
205.9520575061899
 10
63.53076827637014
 20
205.8301486104073
 10
63.55290701804441
 20
205.7082598298189
 10
63.57514654586939
 20
205.5863917747108
 10
63.59748914927539
 20
205.4645450553685
 10
63.61993711769244
 20
205.3427202820778
 10
63.64249274055075
 20
205.2209180651244
 10
63.66515830728051
 20
205.099139014794
 10
63.68793610731186
 20
204.9773837413724
 10
63.71082843007494
 20
204.8556528551452
 10
63.7338375649999
 20
204.7339469663983
 10
63.756965801517
 20
204.6122666854172
 10
63.78021542905626
 20
204.4906126224878
 10
63.80358873704799
 20
204.3689853878959
 10
63.82708801492223
 20
204.247385591927
 10
63.85071555210922
 20
204.1258138448669
 10
63.87447363803906
 20
204.0042707570013
 10
63.89836456214195
 20
203.8827569386162
 10
63.92239061384808
 20
203.7612729999969
 10
63.94655408258754
 20
203.6398195514294
 10
63.97085725779053
 20
203.5183972031994
 10
63.99530242888724
 20
203.3970065655925
 10
64.01989188530777
 20
203.2756482488946
 10
64.04462791648231
 20
203.1543228633913
 10
64.06951281184107
 20
203.0330310193683
 10
64.09454886081417
 20
202.9117733271113
 10
64.11973835283172
 20
202.7905503969063
 10
64.1450835773239
 20
202.6693628390387
 10
64.17058682372098
 20
202.5482112637945
 10
64.19625038145304
 20
202.4270962814591
 10
64.22207653995028
 20
202.3060185023185
 10
64.24806758864278
 20
202.1849785366583
 10
64.27422581696075
 20
202.0639769947643
 10
64.30055351433433
 20
201.9430144869221
 10
64.3270529701937
 20
201.8220916234176
 10
64.35372647396909
 20
201.7012090145364
 10
64.38057631509062
 20
201.5803672705642
 10
64.40760478298839
 20
201.4595670017869
 10
64.43481416709258
 20
201.33880881849
 10
64.46220675683341
 20
201.2180933309593
 10
64.48978484164095
 20
201.0974211494807
 10
64.51755071094553
 20
200.9767928843397
 10
64.5455066541771
 20
200.856209145822
 10
64.57365496076594
 20
200.7356705442136
 10
64.60199792014222
 20
200.6151776898
 10
64.63053782173606
 20
200.494731192867
 10
64.65927695497763
 20
200.3743316637003
 10
64.68821760929714
 20
200.2539797125856
 10
64.71736207412468
 20
200.1336759498087
 10
64.74671263889044
 20
200.0134209856552
 10
64.77627159302457
 20
199.893215430411
 10
64.80604122595733
 20
199.7730598943617
 10
64.83602382711874
 20
199.6529549877931
 10
64.866221685939
 20
199.5329013209908
 10
64.89663709184836
 20
199.4128995042407
 10
64.92727233427686
 20
199.2929501478283
 10
64.92727233427681
 20
211.4488812595849
 97
        0
 75
     0
 76
     1
 52
90.0
 41
0.5
 77
     0
 78
     1
 53
135.0
 43
0.0
 44
0.0
 45
-1.122532015133644
 46
-1.122532015133644
 79
     0
 98
        0
  0
HATCH
  5
168
330
1F
100
AcDbEntity
  8
Layer0
  6
AUSGEZOGEN
 62
    18
420
        0
370
    18
100
AcDbHatch
 10
0.0
 20
0.0
 30
0.0
210
0.0
220
0.0
230
1.0
  2
ANSI31
 70
     0
 71
     0
 91
        1
 92
        2
 72
     0
 73
     1
 93
      102
 10
69.1272723342768
 20
211.4488812595849
 10
69.12727233427685
 20
199.552859848968
 10
69.1552401018088
 20
199.6704484574169
 10
69.18300847505171
 20
199.788081507802
 10
69.21057949828818
 20
199.9057584878968
 10
69.23795521580055
 20
200.0234788854749
 10
69.26513767187132
 20
200.1412421883098
 10
69.2921289107829
 20
200.259047884175
 10
69.31893097681782
 20
200.3768954608441
 10
69.34554591425851
 20
200.4947844060907
 10
69.3719757673874
 20
200.6127142076882
 10
69.39822258048704
 20
200.7306843534103
 10
69.42428839783977
 20
200.8486943310303
 10
69.4501752637282
 20
200.966743628322
 10
69.47588522243464
 20
201.0848317330588
 10
69.5014203182416
 20
201.2029581330144
 10
69.52678259543157
 20
201.3211223159621
 10
69.55197409828699
 20
201.4393237696756
 10
69.57699687109036
 20
201.5575619819284
 10
69.60185295812406
 20
201.675836440494
 10
69.62654440367064
 20
201.794146633146
 10
69.65107325201248
 20
201.9124920476579
 10
69.67544154743209
 20
202.0308721718033
 10
69.6996513342119
 20
202.1492864933558
 10
69.7237046566344
 20
202.2677345000887
 10
69.74760355898204
 20
202.3862156797758
 10
69.7713500855373
 20
202.5047295201904
 10
69.7949462805826
 20
202.6232755091063
 10
69.81839418840039
 20
202.7418531342968
 10
69.8416958532732
 20
202.8604618835357
 10
69.86485331948339
 20
202.9791012445963
 10
69.88786863131352
 20
203.0977707052523
 10
69.91074383304604
 20
203.2164697532771
 10
69.93348096896332
 20
203.3351978764444
 10
69.95608208334792
 20
203.4539545625276
 10
69.97854922048222
 20
203.5727392993003
 10
70.00088442464877
 20
203.691551574536
 10
70.02308974012996
 20
203.8103908760085
 10
70.04516721120828
 20
203.9292566914909
 10
70.06711888216617
 20
204.048148508757
 10
70.08894679728613
 20
204.1670658155804
 10
70.11065300085059
 20
204.2860080997345
 10
70.132239537142
 20
204.4049748489929
 10
70.15370845044279
 20
204.5239655511292
 10
70.17506178503552
 20
204.6429796939167
 10
70.19630158520258
 20
204.7620167651293
 10
70.21742989522645
 20
204.8810762525403
 10
70.23844875938957
 20
205.0001576439233
 10
70.25936022197445
 20
205.1192604270518
 10
70.28016632726352
 20
205.2383840896993
 10
70.30086911953921
 20
205.3575281196395
 10
70.32147064308398
 20
205.4766920046459
 10
70.34197294218032
 20
205.595875232492
 10
70.36237806111072
 20
205.7150772909513
 10
70.38268804415762
 20
205.8342976677974
 10
70.40290493560346
 20
205.9535358508039
 10
70.42303077973068
 20
206.0727913277442
 10
70.44306762082184
 20
206.192063586392
 10
70.46301750315925
 20
206.3113521145206
 10
70.48288247102548
 20
206.4306563999037
 10
70.50266456870295
 20
206.5499759303149
 10
70.52236584047412
 20
206.6693101935277
 10
70.54198833062154
 20
206.7886586773156
 10
70.56153408342752
 20
206.9080208694522
 10
70.58100514317456
 20
207.0273962577108
 10
70.60040355414523
 20
207.1467843298653
 10
70.61973136062184
 20
207.2661845736891
 10
70.638990606887
 20
207.3855964769557
 10
70.65818333722305
 20
207.5050195274386
 10
70.67731159591247
 20
207.6244532129115
 10
70.69637742723776
 20
207.7438970211478
 10
70.71538287548142
 20
207.8633504399211
 10
70.73432998492584
 20
207.9828129570049
 10
70.75322079985344
 20
208.1022840601728
 10
70.77205736454678
 20
208.2217632371983
 10
70.79084172328825
 20
208.341249975855
 10
70.80957592036034
 20
208.4607437639164
 10
70.82826200004556
 20
208.5802440891559
 10
70.84690200662621
 20
208.6997504393472
 10
70.86549798438497
 20
208.8192623022639
 10
70.88405197760412
 20
208.9387791656795
 10
70.90256603056619
 20
209.0583005173674
 10
70.92104218755364
 20
209.1778258451012
 10
70.93948249284895
 20
209.2973546366546
 10
70.95788899073457
 20
209.4168863798009
 10
70.97626372549294
 20
209.5364205623139
 10
70.9946087414065
 20
209.6559566719669
 10
71.01292608275779
 20
209.7754941965337
 10
71.0312177938292
 20
209.8950326237875
 10
71.04948591890323
 20
210.0145714415021
 10
71.06773250226226
 20
210.134110137451
 10
71.08595958818884
 20
210.2536481994077
 10
71.10416922096542
 20
210.3731851151458
 10
71.12236344487442
 20
210.4927203724387
 10
71.14054430419836
 20
210.6122534590601
 10
71.15871384321966
 20
210.7317838627834
 10
71.17687410622071
 20
210.8513110713823
 10
71.19502713748412
 20
210.9708345726302
 10
71.21317498129227
 20
211.0903538543008
 10
71.2313196819276
 20
211.2098684041675
 10
71.24946328367261
 20
211.3293777100038
 10
71.26760783080974
 20
211.4488812595834
 97
        0
 75
     0
 76
     1
 52
90.0
 41
0.5
 77
     0
 78
     1
 53
135.0
 43
0.0
 44
0.0
 45
-1.122532015133644
 46
-1.122532015133644
 79
     0
 98
        0
  0
HATCH
  5
169
330
1F
100
AcDbEntity
  8
Layer0
  6
AUSGEZOGEN
 62
    18
420
        0
370
    18
100
AcDbHatch
 10
0.0
 20
0.0
 30
0.0
210
0.0
220
0.0
230
1.0
  2
ANSI31
 70
     0
 71
     0
 91
        1
 92
        2
 72
     0
 73
     1
 93
      702
 10
65.0024515640063
 20
199.0037090210716
 10
65.00590924590378
 20
198.9905975504076
 10
65.00937027534698
 20
198.9774865592269
 10
65.01283469737481
 20
198.9643760685229
 10
65.0163025570262
 20
198.9512660992893
 10
65.01977389933998
 20
198.9381566725194
 10
65.02324876935515
 20
198.9250478092067
 10
65.02672721211056
 20
198.9119395303447
 10
65.03020927264518
 20
198.898831856927
 10
65.03369499599782
 20
198.885724809947
 10
65.0371844272075
 20
198.8726184103982
 10
65.0406776113131
 20
198.859512679274
 10
65.04417459335346
 20
198.8464076375679
 10
65.04767541836756
 20
198.8333033062735
 10
65.05118013139432
 20
198.8201997063842
 10
65.05468877747265
 20
198.8070968588936
 10
65.05820140164141
 20
198.7939947847951
 10
65.06171804893953
 20
198.7808935050821
 10
65.0652387644059
 20
198.7677930407481
 10
65.06876359307952
 20
198.7546934127868
 10
65.07229257999919
 20
198.7415946421915
 10
65.07582577020392
 20
198.7284967499557
 10
65.07936320873253
 20
198.7153997570729
 10
65.08290494062399
 20
198.7023036845366
 10
65.08645101091722
 20
198.6892085533403
 10
65.09000146465101
 20
198.6761143844774
 10
65.09355634686446
 20
198.6630211989415
 10
65.09711570259631
 20
198.649929017726
 10
65.1006795768856
 20
198.6368378618244
 10
65.10424801477117
 20
198.6237477522303
 10
65.1078210612919
 20
198.610658709937
 10
65.11139876148681
 20
198.5975707559381
 10
65.1149811603947
 20
198.5844839112271
 10
65.11856830305456
 20
198.5713981967974
 10
65.12216023450529
 20
198.5583136336426
 10
65.12575699978575
 20
198.545230242756
 10
65.12935864393486
 20
198.5321480451312
 10
65.13296521199155
 20
198.5190670617619
 10
65.13657674899477
 20
198.5059873136411
 10
65.14019329998334
 20
198.4929088217627
 10
65.14381490999628
 20
198.47983160712
 10
65.1474416240724
 20
198.4667556907066
 10
65.15107348725061
 20
198.4536810935159
 10
65.15471054456995
 20
198.4406078365413
 10
65.15835284106922
 20
198.4275359407765
 10
65.16200042178733
 20
198.4144654272148
 10
65.1656533317632
 20
198.4013963168497
 10
65.1693116160358
 20
198.3883286306748
 10
65.17297531964394
 20
198.3752623896836
 10
65.17664448762665
 20
198.3621976148694
 10
65.18031916502272
 20
198.3491343272258
 10
65.18399939687114
 20
198.3360725477464
 10
65.18768522821082
 20
198.3230122974245
 10
65.19137670408062
 20
198.3099535972536
 10
65.19507386951946
 20
198.2968964682273
 10
65.19877676956631
 20
198.283840931339
 10
65.20248544926002
 20
198.2707870075822
 10
65.20619995363953
 20
198.2577347179504
 10
65.20992032774373
 20
198.2446840834371
 10
65.21364661661156
 20
198.2316351250358
 10
65.21737886528186
 20
198.2185878637399
 10
65.22111711879367
 20
198.2055423205429
 10
65.22486142218574
 20
198.1924985164383
 10
65.22861182049715
 20
198.1794564724197
 10
65.23236835876665
 20
198.1664162094805
 10
65.23613108203327
 20
198.1533777486141
 10
65.23990003533586
 20
198.1403411108141
 10
65.24367526371336
 20
198.1273063170739
 10
65.24745681220466
 20
198.1142733883871
 10
65.25124472584864
 20
198.101242345747
 10
65.25503904968431
 20
198.0882132101473
 10
65.2588398287505
 20
198.0751860025814
 10
65.2626471080861
 20
198.0621607440427
 10
65.2664609327301
 20
198.0491374555249
 10
65.27028134772135
 20
198.0361161580212
 10
65.27410839809878
 20
198.0230968725253
 10
65.27794212890129
 20
198.0100796200306
 10
65.28178258516786
 20
197.9970644215305
 10
65.2856298119373
 20
197.9840512980188
 10
65.28948385424857
 20
197.9710402704886
 10
65.29334475714055
 20
197.9580313599336
 10
65.29721256565219
 20
197.9450245873473
 10
65.30108732482236
 20
197.932019973723
 10
65.30496907969004
 20
197.9190175400544
 10
65.30885787529408
 20
197.9060173073349
 10
65.3127537566734
 20
197.893019296558
 10
65.31665676886692
 20
197.8800235287171
 10
65.32056695691355
 20
197.8670300248058
 10
65.32448436585216
 20
197.8540388058175
 10
65.32840904072177
 20
197.8410498927457
 10
65.33234102656118
 20
197.828063306584
 10
65.33628036840932
 20
197.8150790683258
 10
65.34022711130515
 20
197.8020971989645
 10
65.34418130028749
 20
197.7891177194937
 10
65.34814298039541
 20
197.7761406509069
 10
65.35211219666766
 20
197.7631660141975
 10
65.35608899414322
 20
197.750193830359
 10
65.360073417861
 20
197.7372241203848
 10
65.36406551285992
 20
197.7242569052686
 10
65.36806532417884
 20
197.7112922060039
 10
65.37207289685668
 20
197.6983300435839
 10
65.3760882759324
 20
197.6853704390023
 10
65.38011150644493
 20
197.6724134132526
 10
65.38414263343313
 20
197.6594589873281
 10
65.3881817019359
 20
197.6465071822224
 10
65.39222875699213
 20
197.6335580189291
 10
65.39628384364082
 20
197.6206115184415
 10
65.40034700692078
 20
197.6076677017531
 10
65.404418291871
 20
197.5947265898576
 10
65.40849774353032
 20
197.5817882037483
 10
65.41258540693772
 20
197.5688525644186
 10
65.41668132713212
 20
197.5559196928622
 10
65.42078554915238
 20
197.5429896100724
 10
65.42489811803736
 20
197.5300623370429
 10
65.42901907882609
 20
197.5171378947669
 10
65.43314847655736
 20
197.5042163042382
 10
65.43728635627016
 20
197.4912975864501
 10
65.44143276300346
 20
197.478381762396
 10
65.445587741796
 20
197.4654688530696
 10
65.44975133768688
 20
197.4525588794642
 10
65.45392359571483
 20
197.4396518625734
 10
65.45810456091888
 20
197.4267478233907
 10
65.46229427833791
 20
197.4138467829095
 10
65.46649279301081
 20
197.4009487621234
 10
65.47070014997652
 20
197.3880537820257
 10
65.47491639427395
 20
197.3751618636101
 10
65.47914157094195
 20
197.3622730278699
 10
65.48337572501956
 20
197.3493872957987
 10
65.48761890154557
 20
197.3365046883899
 10
65.49187114555892
 20
197.3236252266371
 10
65.4961325020985
 20
197.3107489315337
 10
65.50040301620331
 20
197.2978758240733
 10
65.50468273291219
 20
197.2850059252492
 10
65.50897169726406
 20
197.2721392560549
 10
65.51326995429784
 20
197.259275837484
 10
65.51757754905239
 20
197.2464156905301
 10
65.52189452656668
 20
197.2335588361864
 10
65.52622093187964
 20
197.2207052954466
 10
65.5305568100301
 20
197.207855089304
 10
65.53490220605707
 20
197.1950082387523
 10
65.53925716499938
 20
197.1821647647848
 10
65.54362173189597
 20
197.1693246883951
 10
65.54799595178574
 20
197.1564880305767
 10
65.55237986970761
 20
197.1436548123229
 10
65.55677353070044
 20
197.1308250546274
 10
65.56117697980326
 20
197.1179987784836
 10
65.56559026205494
 20
197.1051760048849
 10
65.57001342249427
 20
197.092356754825
 10
65.57444650616029
 20
197.0795410492972
 10
65.5788895580919
 20
197.066728909295
 10
65.58334262332792
 20
197.053920355812
 10
65.58780574690738
 20
197.0411154098416
 10
65.59227897386913
 20
197.0283140923773
 10
65.59676234925203
 20
197.0155164244126
 10
65.60125591809512
 20
197.0027224269409
 10
65.60575972543714
 20
196.9899321209558
 10
65.61027381631718
 20
196.9771455274508
 10
65.61479823577403
 20
196.9643626674193
 10
65.61933302884668
 20
196.9515835618547
 10
65.62387824057393
 20
196.9388082317507
 10
65.6284339159948
 20
196.9260366981007
 10
65.63300010014811
 20
196.9132689818981
 10
65.63757683807293
 20
196.9005051041365
 10
65.64216417480796
 20
196.8877450858093
 10
65.64676215539222
 20
196.87498894791
 10
65.65137082486459
 20
196.8622367114322
 10
65.65599022826407
 20
196.8494883973693
 10
65.66062041062943
 20
196.8367440267147
 10
65.6652614169997
 20
196.824003620462
 10
65.66991329241378
 20
196.8112671996046
 10
65.67457608191049
 20
196.7985347851361
 10
65.67924983052879
 20
196.7858063980499
 10
65.6839345833076
 20
196.7730820593395
 10
65.68863038528579
 20
196.7603617899984
 10
65.69333728150238
 20
196.7476456110201
 10
65.69805531699618
 20
196.734933543398
 10
65.70278453680609
 20
196.7222256081257
 10
65.7075249859711
 20
196.7095218261966
 10
65.71227670953007
 20
196.6968222186043
 10
65.71703975252191
 20
196.6841268063421
 10
65.72181235732776
 20
196.6714386636787
 10
65.72659562663526
 20
196.6587529141466
 10
65.73138998780442
 20
196.6460692956363
 10
65.73619570421553
 20
196.6333880050935
 10
65.74101303924894
 20
196.6207092394639
 10
65.74584225628504
 20
196.6080331956933
 10
65.75068361870407
 20
196.5953600707273
 10
65.75553738988637
 20
196.5826900615118
 10
65.76040383321234
 20
196.5700233649924
 10
65.7652832120622
 20
196.5573601781148
 10
65.77017578981636
 20
196.5447006978248
 10
65.77508182985517
 20
196.5320451210681
 10
65.7800015955589
 20
196.5193936447903
 10
65.7849353503079
 20
196.5067464659373
 10
65.78988335748247
 20
196.4941037814547
 10
65.79484588046299
 20
196.4814657882884
 10
65.79982318262975
 20
196.4688326833839
 10
65.8048155273631
 20
196.4562046636869
 10
65.80982317804339
 20
196.4435819261435
 10
65.81484639805089
 20
196.430964667699
 10
65.81988545076595
 20
196.4183530852992
 10
65.82494059956892
 20
196.40574737589
 10
65.83001210784013
 20
196.393147736417
 10
65.83510023895988
 20
196.3805543638259
 10
65.84020525630856
 20
196.3679674550625
 10
65.84532742326647
 20
196.3553872070725
 10
65.85046700321388
 20
196.3428138168016
 10
65.8556242595312
 20
196.3302474811955
 10
65.86079945559865
 20
196.3176883972
 10
65.86599285479676
 20
196.3051367617607
 10
65.87120472050563
 20
196.2925927718234
 10
65.87643531610573
 20
196.2800566243339
 10
65.88168490497733
 20
196.2675285162377
 10
65.88695375050085
 20
196.2550086444808
 10
65.89224211605651
 20
196.2424972060087
 10
65.89755026502465
 20
196.2299943977672
 10
65.90287846078567
 20
196.217500416702
 10
65.90822696671987
 20
196.2050154597588
 10
65.91359604620752
 20
196.1925397238835
 10
65.91898596262902
 20
196.1800734060216
 10
65.92439697936467
 20
196.1676167031189
 10
65.92982935979487
 20
196.1551698121212
 10
65.93528336729983
 20
196.1427329299741
 10
65.94075926525991
 20
196.1303062536234
 10
65.94625731705551
 20
196.1178899800147
 10
65.95177778606686
 20
196.1054843060939
 10
65.9573209356744
 20
196.0930894288066
 10
65.96288702925838
 20
196.0807055450986
 10
65.96847633019914
 20
196.0683328519155
 10
65.97408910187701
 20
196.0559715462031
 10
65.97972560767235
 20
196.0436218249072
 10
65.98538611096549
 20
196.0312838849734
 10
65.99107087513673
 20
196.0189579233475
 10
65.9967801635664
 20
196.0066441369751
 10
66.00251423963479
 20
195.9943427228021
 10
66.00827336672236
 20
195.982053877774
 10
66.01405780820929
 20
195.9697777988368
 10
66.01986782747602
 20
195.957514682936
 10
66.02570368790279
 20
195.9452647270174
 10
66.03156565286994
 20
195.9330281280267
 10
66.03745398575794
 20
195.9208050829097
 10
66.04336894994694
 20
195.908595788612
 10
66.04931080881735
 20
195.8964004420794
 10
66.05527982574947
 20
195.8842192402576
 10
66.06127626412362
 20
195.8720523800923
 10
66.06730038732027
 20
195.8599000585291
 10
66.07335245871954
 20
195.8477624725141
 10
66.07943274170194
 20
195.8356398189927
 10
66.08554149964763
 20
195.8235322949107
 10
66.09167899593703
 20
195.8114400972138
 10
66.09784549395053
 20
195.7993634228478
 10
66.10404125706836
 20
195.7873024687584
 10
66.11026654867086
 20
195.7752574318912
 10
66.11652163213844
 20
195.7632285091921
 10
66.12280677085127
 20
195.7512158976067
 10
66.12912222818986
 20
195.7392197940807
 10
66.13546826753443
 20
195.72724039556
 10
66.1418451522654
 20
195.7152778989901
 10
66.14825314576294
 20
195.7033325013169
 10
66.15469251140755
 20
195.691404399486
 10
66.16116351257946
 20
195.6794937904431
 10
66.16766641265903
 20
195.6676008711341
 10
66.17420147502659
 20
195.6557258385046
 10
66.18076896306243
 20
195.6438688895003
 10
66.18736914014696
 20
195.6320302210669
 10
66.19400226966044
 20
195.6202100301502
 10
66.20066861498324
 20
195.6084085136959
 10
66.20736843949564
 20
195.5966258686497
 10
66.21410200657803
 20
195.5848622919574
 10
66.22086830114219
 20
195.573120079247
 10
66.22766544354536
 20
195.5614000155189
 10
66.23450068915665
 20
195.5496910785968
 10
66.24137520042356
 20
195.5379950169907
 10
66.24829013979357
 20
195.5263135792111
 10
66.25524666971418
 20
195.5146485137679
 10
66.26224595263275
 20
195.5030015691715
 10
66.26928915099691
 20
195.491374493932
 10
66.27637742725406
 20
195.4797690365596
 10
66.28351194385166
 20
195.4681869455646
 10
66.2906938632373
 20
195.456629969457
 10
66.2979243478583
 20
195.4450998567472
 10
66.30520456016225
 20
195.4335983559452
 10
66.31253566259662
 20
195.4221272155613
 10
66.31991881760891
 20
195.4106881841057
 10
66.32735518764653
 20
195.3992830100886
 10
66.33484593515695
 20
195.3879134420201
 10
66.34239222258773
 20
195.3765812284105
 10
66.34999521238635
 20
195.36528811777
 10
66.35765606700019
 20
195.3540358586087
 10
66.36537594887685
 20
195.3428261994368
 10
66.37315602046371
 20
195.3316608887647
 10
66.3809974442083
 20
195.3205416751023
 10
66.38890138255815
 20
195.30947030696
 10
66.39686899796058
 20
195.2984485328479
 10
66.40490145286324
 20
195.2874781012762
 10
66.41299990971353
 20
195.2765607607551
 10
66.42116553095897
 20
195.2656982597949
 10
66.42939947904696
 20
195.2548923469056
 10
66.43770291642508
 20
195.2441447705975
 10
66.44607700554073
 20
195.2334572793808
 10
66.45452290884143
 20
195.2228316217657
 10
66.46304178877469
 20
195.2122695462624
 10
66.47163480778792
 20
195.2017728013811
 10
66.48030312832864
 20
195.1913431356319
 10
66.48904791284431
 20
195.1809822975251
 10
66.49787032378245
 20
195.1706920355708
 10
66.50677152359046
 20
195.1604740982793
 10
66.51575267471591
 20
195.1503302341607
 10
66.52481493960622
 20
195.1402621917253
 10
66.53395948070894
 20
195.1302717194832
 10
66.54318746047144
 20
195.1203605659446
 10
66.55250004134129
 20
195.1105304796197
 10
66.56189838576594
 20
195.1007832090189
 10
66.57138365619286
 20
195.091120502652
 10
66.58096798497698
 20
195.0815334023741
 10
66.59071955365559
 20
195.0719705614577
 10
66.60058079986428
 20
195.0625045827628
 10
66.61055295841598
 20
195.053143114609
 10
66.62063726412376
 20
195.0438938053165
 10
66.6308349518005
 20
195.0347643032051
 10
66.6411472562593
 20
195.0257622565947
 10
66.65157541231295
 20
195.0168953138053
 10
66.66212065477467
 20
195.0081711231566
 10
66.67278421845722
 20
194.9995973329688
 10
66.68356733817367
 20
194.9911815915617
 10
66.69447124873696
 20
194.9829315472551
 10
66.70549718496014
 20
194.974854848369
 10
66.71664638165615
 20
194.9669591432234
 10
66.72792007363799
 20
194.959252080138
 10
66.7393165949342
 20
194.9517431915954
 10
66.75078034933321
 20
194.9444828843672
 10
66.76240790250526
 20
194.9374232855202
 10
66.77419293261968
 20
194.9305783470822
 10
66.78612911784595
 20
194.9239620210815
 10
66.7982101363535
 20
194.9175882595459
 10
66.81042966631176
 20
194.9114710145034
 10
66.82278138589018
 20
194.9056242379821
 10
66.83525897325816
 20
194.9000618820099
 10
66.84785610658511
 20
194.894797898615
 10
66.86056646404043
 20
194.8898462398251
 10
66.87338372379358
 20
194.8852208576686
 10
66.88630156401402
 20
194.8809357041731
 10
66.89931366287121
 20
194.8770047313669
 10
66.91241369853444
 20
194.8734418912779
 10
66.92559534917322
 20
194.8702611359341
 10
66.93890949285671
 20
194.8674676723314
 10
66.95235582436064
 20
194.8650791829018
 10
66.96589499826186
 20
194.8631042153984
 10
66.97950698079009
 20
194.8615460705944
 10
66.99317173817494
 20
194.8604080492628
 10
67.00686923664611
 20
194.8596934521769
 10
67.02057944243327
 20
194.8594055801098
 10
67.03428232176614
 20
194.8595477338344
 10
67.04795784087432
 20
194.860123214124
 10
67.06158596598752
 20
194.8611353217516
 10
67.0751466633354
 20
194.8625873574903
 10
67.0886685815901
 20
194.8644827054747
 10
67.10214773705289
 20
194.8668055833815
 10
67.11556714219645
 20
194.8695414328373
 10
67.1289143268456
 20
194.8726764074855
 10
67.14217682082497
 20
194.8761966609699
 10
67.15534215395925
 20
194.880088346934
 10
67.16839785607326
 20
194.8843376190212
 10
67.18133145699161
 20
194.8889306308752
 10
67.19413048653908
 20
194.8938535361395
 10
67.2067824745404
 20
194.8990924884577
 10
67.21927141241943
 20
194.9046319811758
 10
67.23156697907834
 20
194.9104388049774
 10
67.24373556224654
 20
194.9165248655875
 10
67.25577681333019
 20
194.9228795629292
 10
67.2676903837357
 20
194.9294922969258
 10
67.27947592486933
 20
194.9363524675005
 10
67.29113308813746
 20
194.9434494745765
 10
67.30266152494639
 20
194.950772718077
 10
67.31406088670238
 20
194.9583115979253
 10
67.3253308248118
 20
194.9660555140445
 10
67.33647099068091
 20
194.9739938663579
 10
67.34748103571607
 20
194.9821160547887
 10
67.3583606113236
 20
194.9904114792602
 10
67.36910936890976
 20
194.9988695396955
 10
67.37972695988097
 20
195.0074796360179
 10
67.39021303564348
 20
195.0162311681505
 10
67.40056724760356
 20
195.0251135360166
 10
67.41078924716757
 20
195.0341161395395
 10
67.42084644424526
 20
195.0431965418753
 10
67.43075810562627
 20
195.0523456485609
 10
67.44057142789583
 20
195.0615988192097
 10
67.45028772810653
 20
195.0709538494858
 10
67.45990832331105
 20
195.0804085350532
 10
67.46943453056198
 20
195.089960671576
 10
67.47886766691201
 20
195.0996080547182
 10
67.48820904941371
 20
195.1093484801441
 10
67.49745999511978
 20
195.1191797435176
 10
67.5066218210828
 20
195.1290996405028
 10
67.51569584435535
 20
195.139105966764
 10
67.52468338199017
 20
195.149196517965
 10
67.53358575103991
 20
195.1593690897701
 10
67.54240426855708
 20
195.1696214778432
 10
67.55114025159438
 20
195.1799514778486
 10
67.55979501720444
 20
195.1903568854503
 10
67.5683698824399
 20
195.2008354963123
 10
67.57686616435339
 20
195.2113851060988
 10
67.58528517999756
 20
195.2220035104738
 10
67.59362824642503
 20
195.2326885051015
 10
67.60189668068838
 20
195.243437885646
 10
67.61009179984032
 20
195.2542494477711
 10
67.61821492093347
 20
195.2651209871413
 10
67.62626736102041
 20
195.2760502994204
 10
67.63425043715378
 20
195.2870351802727
 10
67.64216546638633
 20
195.298073425362
 10
67.65001376577052
 20
195.3091628303526
 10
67.65779665235911
 20
195.3203011909087
 10
67.66551544320467
 20
195.331486302694
 10
67.67317145535989
 20
195.342715961373
 10
67.68076600587736
 20
195.3539879626096
 10
67.6883004118097
 20
195.3653001020678
 10
67.69577599020957
 20
195.3766501754118
 10
67.70319405812958
 20
195.3880359783058
 10
67.71055593262244
 20
195.3994553064136
 10
67.71786293074067
 20
195.4109059553995
 10
67.72511636953695
 20
195.4223857209277
 10
67.73231756606393
 20
195.433892398662
 10
67.73946783737424
 20
195.4454237842666
 10
67.74656850052051
 20
195.4569776734056
 10
67.75362087255533
 20
195.4685518617432
 10
67.76062627053139
 20
195.4801441449433
 10
67.76758601150132
 20
195.49175231867
 10
67.77450141251776
 20
195.5033741785875
 10
67.78137379063324
 20
195.5150075203599
 10
67.78820446290055
 20
195.5266501396513
 10
67.79496545066345
 20
195.538247469837
 10
67.80169347432545
 20
195.5498575992555
 10
67.8083908668224
 20
195.5614841298826
 10
67.81505778738963
 20
195.5731269568163
 10
67.82169439526254
 20
195.5847859751547
 10
67.82830084967631
 20
195.5964610799959
 10
67.83487730986624
 20
195.6081521664382
 10
67.84142393506775
 20
195.6198591295794
 10
67.84794088451596
 20
195.6315818645178
 10
67.85442831744635
 20
195.6433202663516
 10
67.86088639309415
 20
195.6550742301786
 10
67.86731527069466
 20
195.6668436510972
 10
67.87371510948313
 20
195.6786284242054
 10
67.88008606869491
 20
195.6904284446014
 10
67.8864283075653
 20
195.7022436073831
 10
67.8927419853296
 20
195.7140738076488
 10
67.8990272612231
 20
195.7259189404966
 10
67.9052842944811
 20
195.7377789010245
 10
67.91151324433892
 20
195.7496535843306
 10
67.91771427003184
 20
195.7615428855132
 10
67.92388753079516
 20
195.7734466996703
 10
67.93003318586418
 20
195.7853649218999
 10
67.93615139447425
 20
195.7972974473003
 10
67.94224231586057
 20
195.8092441709695
 10
67.94830610925848
 20
195.8212049880056
 10
67.95434293390329
 20
195.8331797935068
 10
67.96035294903035
 20
195.8451684825711
 10
67.9663363138749
 20
195.8571709502967
 10
67.9722931876723
 20
195.8691870917817
 10
67.97822372965774
 20
195.8812168021242
 10
67.98412809906662
 20
195.8932599764223
 10
67.99000645513419
 20
195.905316509774
 10
67.9958589570958
 20
195.9173862972776
 10
68.0016857641867
 20
195.9294692340312
 10
68.00748703564219
 20
195.9415652151327
 10
68.0132629306976
 20
195.9536741356804
 10
68.01901360858821
 20
195.9657958907724
 10
68.02473922854935
 20
195.9779303755068
 10
68.03043994981627
 20
195.9900774849816
 10
68.03611593162427
 20
196.002237114295
 10
68.0417673332087
 20
196.0144091585452
 10
68.04739431380486
 20
196.0265935128301
 10
68.05299703264805
 20
196.038790072248
 10
68.05857564897346
 20
196.0509987318969
 10
68.06413032201655
 20
196.0632193868749
 10
68.06966121101252
 20
196.0754519322803
 10
68.0751684751967
 20
196.0876962632109
 10
68.08065227380442
 20
196.0999522747651
 10
68.08611276607095
 20
196.1122198620408
 10
68.09155011123156
 20
196.1244989201363
 10
68.09696446852158
 20
196.1367893441495
 10
68.10235599717632
 20
196.1490910291787
 10
68.10772485643102
 20
196.1614038703219
 10
68.1130712055211
 20
196.1737277626772
 10
68.11839520368173
 20
196.1860626013428
 10
68.12369701014833
 20
196.1984082814167
 10
68.1289767841561
 20
196.2107646979971
 10
68.13423468494037
 20
196.2231317461822
 10
68.1394708717365
 20
196.2355093210699
 10
68.1446855037797
 20
196.2478973177584
 10
68.1498787403053
 20
196.2602956313457
 10
68.15505074054866
 20
196.2727041569302
 10
68.16020166374497
 20
196.2851227896098
 10
68.16533166912964
 20
196.2975514244826
 10
68.17044091593792
 20
196.3099899566468
 10
68.17552956340509
 20
196.3224382812004
 10
68.18059777076647
 20
196.3348962932416
 10
68.18564569725734
 20
196.3473638878685
 10
68.19067350211307
 20
196.3598409601792
 10
68.19568134456884
 20
196.3723274052718
 10
68.20066938386012
 20
196.3848231182445
 10
68.20563777922203
 20
196.3973279941952
 10
68.21058668989
 20
196.4098419282222
 10
68.21551627509925
 20
196.4223648154236
 10
68.22042669408515
 20
196.4348965508973
 10
68.22531810608294
 20
196.4474370297417
 10
68.23019067032791
 20
196.4599861470548
 10
68.23504454605543
 20
196.4725437979346
 10
68.2398798925008
 20
196.4851098774794
 10
68.24469686889924
 20
196.4976842807872
 10
68.24949563448607
 20
196.5102669029561
 10
68.25427634849663
 20
196.5228576390842
 10
68.25903917016623
 20
196.5354563842697
 10
68.26378425873011
 20
196.5480630336106
 10
68.26851177342363
 20
196.5606774822051
 10
68.27322187348207
 20
196.5732996251513
 10
68.27791471814069
 20
196.5859293575472
 10
68.28259046663484
 20
196.598566574491
 10
68.28724927819982
 20
196.6112111710809
 10
68.29189131207087
 20
196.6238630424149
 10
68.29651672748341
 20
196.636522083591
 10
68.30112568367261
 20
196.6491881897077
 10
68.30571833987383
 20
196.6618612558626
 10
68.31029485532238
 20
196.6745411771541
 10
68.31485538925355
 20
196.6872278486804
 10
68.31940010090258
 20
196.6999211655394
 10
68.32392914950489
 20
196.7126210228293
 10
68.32844269429566
 20
196.7253273156482
 10
68.33294089451024
 20
196.7380399390942
 10
68.337423909384
 20
196.7507587882655
 10
68.34189189815217
 20
196.76348375826
 10
68.34634502005005
 20
196.776214744176
 10
68.35078343431294
 20
196.7889516411116
 10
68.35520730017609
 20
196.8016943441649
 10
68.3596167768749
 20
196.8144427484339
 10
68.36401202364462
 20
196.8271967490168
 10
68.3683931997206
 20
196.8399562410117
 10
68.37276046433809
 20
196.8527211195166
 10
68.37711397673237
 20
196.8654912796299
 10
68.38145389613877
 20
196.8782666164494
 10
68.38578038179256
 20
196.8910470250734
 10
68.3900935929291
 20
196.9038324006
 10
68.39439368878365
 20
196.9166226381271
 10
68.3986808285915
 20
196.9294176327531
 10
68.40295517158799
 20
196.942217279576
 10
68.40721687700844
 20
196.9550214736938
 10
68.41146610408808
 20
196.9678301102047
 10
68.41570301206221
 20
196.9806430842069
 10
68.41992776016613
 20
196.9934602907984
 10
68.4241405076352
 20
197.0062816250773
 10
68.42834141370471
 20
197.0191069821417
 10
68.43253063760997
 20
197.0319362570899
 10
68.43670833858621
 20
197.0447693450197
 10
68.44087467586874
 20
197.0576061410295
 10
68.44502980869296
 20
197.0704465402171
 10
68.44917389629401
 20
197.083290437681
 10
68.45330709790736
 20
197.0961377285191
 10
68.45742957276818
 20
197.1089883078294
 10
68.46154148011183
 20
197.1218420707102
 10
68.46564297917362
 20
197.1346989122595
 10
68.46973422918884
 20
197.1475587275754
 10
68.47381538939274
 20
197.1604214117561
 10
68.47788661902067
 20
197.1732868598997
 10
68.48194807730792
 20
197.1861549671044
 10
68.4859999234898
 20
197.199025628468
 10
68.4900423168016
 20
197.2118987390889
 10
68.49407541647864
 20
197.224774194065
 10
68.49809938175619
 20
197.2376518884947
 10
68.50211437186957
 20
197.2505317174758
 10
68.50612054605406
 20
197.2634135761066
 10
68.51011806354492
 20
197.2762973594851
 10
68.51410708357756
 20
197.2891829627095
 10
68.51808776538721
 20
197.3020702808779
 10
68.52206026820917
 20
197.3149592090884
 10
68.52602475127881
 20
197.327849642439
 10
68.5299813738313
 20
197.340741476028
 10
68.53393029510207
 20
197.3536346049534
 10
68.53787167432634
 20
197.3665289243132
 10
68.54180567073942
 20
197.3794243292057
 10
68.54573244357661
 20
197.3923207147291
 10
68.54965215207326
 20
197.4052179759812
 10
68.55356495546462
 20
197.4181160080603
 10
68.55747101298599
 20
197.4310147060646
 10
68.56137048387271
 20
197.4439139650919
 10
68.56526352736003
 20
197.4568136802406
 10
68.56915030268325
 20
197.4697137466087
 10
68.57303096907773
 20
197.4826140592943
 10
68.57690568577877
 20
197.4955145133956
 10
68.5807746120216
 20
197.5084150040106
 10
68.58463790704153
 20
197.5213154262374
 10
68.5884957300739
 20
197.5342156751743
 10
68.59234824035403
 20
197.5471156459191
 10
68.59619559711714
 20
197.5600152335702
 10
68.60003795959861
 20
197.5729143332256
 10
68.60387548703366
 20
197.5858128399834
 10
68.60770833865766
 20
197.5987106489417
 10
68.6115366737059
 20
197.6116076551986
 10
68.61536065141362
 20
197.6245037538523
 10
68.61918043101619
 20
197.6373988400007
 10
68.62299617174895
 20
197.6502928087422
 10
68.62680803284704
 20
197.6631855551747
 10
68.63061617354592
 20
197.6760769743964
 10
68.63442075308078
 20
197.6889669615054
 10
68.63822193068702
 20
197.7018554115998
 10
68.64201986559985
 20
197.7147422197777
 10
68.6458147170546
 20
197.7276272811372
 10
68.64960664428654
 20
197.7405104907766
 10
68.65339580653111
 20
197.7533917437937
 10
68.65718236302345
 20
197.7662709352867
 10
68.66096792034753
 20
197.779153020332
 10
68.66475953161884
 20
197.7920731218018
 10
68.66854445761007
 20
197.8049952112426
 10
68.67232272671825
 20
197.8179192772686
 10
68.67609436734054
 20
197.830845308494
 10
68.67985940787398
 20
197.843773293533
 10
68.68361787671566
 20
197.8567032209999
 10
68.68736980226268
 20
197.8696350795087
 10
68.6911152129122
 20
197.8825688576736
 10
68.6948541370613
 20
197.8955045441087
 10
68.69858660310697
 20
197.9084421274285
 10
68.70231263944649
 20
197.9213815962469
 10
68.70603227447677
 20
197.9343229391782
 10
68.70974553659508
 20
197.9472661448365
 10
68.71345245419835
 20
197.960211201836
 10
68.71715305568384
 20
197.9731580987909
 10
68.72084736944848
 20
197.9861068243155
 10
68.72453542388948
 20
197.9990573670237
 10
68.72821724740393
 20
198.01200971553
 10
68.73189286838888
 20
198.0249638584483
 10
68.73556231524148
 20
198.037919784393
 10
68.73922561635877
 20
198.0508774819781
 10
68.74288280013789
 20
198.063836939818
 10
68.74653389497595
 20
198.0767981465266
 10
68.75017892926999
 20
198.0897610907184
 10
68.75381793141716
 20
198.1027257610073
 10
68.7574509298145
 20
198.1156921460076
 10
68.76107795285915
 20
198.1286602343334
 10
68.76469902894823
 20
198.1416300145991
 10
68.76831418647876
 20
198.1546014754186
 10
68.7719234538479
 20
198.1675746054063
 10
68.77552685945275
 20
198.1805493931762
 10
68.77912443169035
 20
198.1935258273427
 10
68.78271619895784
 20
198.2065038965198
 10
68.78630218965233
 20
198.2194835893218
 10
68.78988243217091
 20
198.2324648943627
 10
68.79345695491062
 20
198.2454478002569
 10
68.79702578626862
 20
198.2584322956184
 10
68.800588954642
 20
198.2714183690616
 10
68.80414648842785
 20
198.2844060092004
 10
68.80769841602321
 20
198.2973952046491
 10
68.81124476582525
 20
198.310385944022
 10
68.81478556623105
 20
198.3233782159332
 10
68.81832084563771
 20
198.3363720089968
 10
68.82185063244233
 20
198.3493673118271
 10
68.82537495504201
 20
198.3623641130382
 10
68.82889384183378
 20
198.3753624012443
 10
68.83240732121484
 20
198.3883621650596
 10
68.8359154215822
 20
198.4013633930982
 10
68.839418171333
 20
198.4143660739745
 10
68.84291559886432
 20
198.4273701963024
 10
68.84640773257328
 20
198.4403757486962
 10
68.84989460085697
 20
198.4533827197702
 10
68.85337623211248
 20
198.4663910981383
 10
68.85685265473691
 20
198.4794008724151
 10
68.86032389712736
 20
198.4924120312143
 10
68.86378998768092
 20
198.5054245631504
 10
68.86725095479468
 20
198.5184384568375
 10
68.8707068268657
 20
198.5314537008899
 10
68.87415763229117
 20
198.5444702839215
 10
68.87760339946814
 20
198.5574881945467
 10
68.8810441567937
 20
198.5705074213796
 10
68.88447993266502
 20
198.5835279530344
 10
68.88791075547906
 20
198.5965497781252
 10
68.89133665363303
 20
198.6095728852663
 10
68.89475765552393
 20
198.622597263072
 10
68.8981737895489
 20
198.6356229001562
 10
68.90158508410511
 20
198.6486497851332
 10
68.90499156758952
 20
198.6616779066172
 10
68.90839326839941
 20
198.6747072532223
 10
68.9117902149317
 20
198.6877378135628
 10
68.91518243558355
 20
198.7007695762529
 10
68.9185699587521
 20
198.7138025299066
 10
68.92195281283435
 20
198.7268366631382
 10
68.9253310262275
 20
198.7398719645619
 10
68.92870462732864
 20
198.7529084227918
 10
68.93207364453471
 20
198.7659460264422
 10
68.93543810624308
 20
198.7789847641272
 10
68.93879804085057
 20
198.792024624461
 10
68.94215347675444
 20
198.8050655960577
 10
68.94550444235179
 20
198.8181076675316
 10
68.94885096603966
 20
198.8311508274969
 10
68.95219307621508
 20
198.8441950645676
 10
68.95553080127533
 20
198.8572403673581
 10
68.95886416961739
 20
198.8702867244824
 10
68.96219320963834
 20
198.8833341245548
 10
68.96551794973536
 20
198.8963825561894
 10
68.96883841830541
 20
198.9094320080004
 10
68.97215464374577
 20
198.922482468602
 10
68.97546665445336
 20
198.9355339266085
 10
68.97877447882539
 20
198.9485863706338
 10
68.98207814525895
 20
198.9616397892923
 10
67.02727233427683
 20
197.787073959627
 97
        0
 75
     0
 76
     1
 52
90.0
 41
0.5
 77
     0
 78
     1
 53
135.0
 43
0.0
 44
0.0
 45
-1.122532015133644
 46
-1.122532015133644
 79
     0
 98
        0
  0
HATCH
  5
16A
330
1F
100
AcDbEntity
  8
Layer0
  6
AUSGEZOGEN
 62
    18
420
        0
370
    18
100
AcDbHatch
 10
0.0
 20
0.0
 30
0.0
210
0.0
220
0.0
230
1.0
  2
ANSI31
 70
     0
 71
     0
 91
        1
 92
        2
 72
     0
 73
     1
 93
      103
 10
64.02727233427677
 20
215.4488812595849
 10
61.94194011323415
 20
215.4488812595848
 10
61.94822846665156
 20
215.4088638757496
 10
61.95451846067303
 20
215.3688467433117
 10
61.96081011287166
 20
215.328829865326
 10
61.96710344082041
 20
215.2888132448472
 10
61.97339846209243
 20
215.2487968849304
 10
61.97969519426059
 20
215.2087807886302
 10
61.98599365489801
 20
215.1687649590015
 10
61.99229386157774
 20
215.1287493990991
 10
61.99859583187273
 20
215.0887341119781
 10
62.00489958335609
 20
215.0487191006929
 10
62.01120513360078
 20
215.0087043682987
 10
62.01751250017989
 20
214.96868991785
 10
62.0238217006665
 20
214.9286757524019
 10
62.03013275263348
 20
214.8886618750092
 10
62.03644567365401
 20
214.8486482887267
 10
62.04276048130103
 20
214.8086349966092
 10
62.04907719314761
 20
214.7686220017115
 10
62.05539582676673
 20
214.7286093070886
 10
62.06171639973152
 20
214.6885969157951
 10
62.06803892961491
 20
214.648584830886
 10
62.07436343399004
 20
214.6085730554161
 10
62.08068993042983
 20
214.5685615924403
 10
62.08701843650735
 20
214.5285504450133
 10
62.09334896979564
 20
214.4885396161899
 10
62.09968154786768
 20
214.4485291090252
 10
62.10601618829659
 20
214.4085189265737
 10
62.11235290865537
 20
214.3685090718905
 10
62.11869172651703
 20
214.3284995480303
 10
62.1250326594546
 20
214.2884903580479
 10
62.13137572504112
 20
214.2484815049983
 10
62.13772094084962
 20
214.2084729919362
 10
62.14406832445312
 20
214.1684648219164
 10
62.15041789342465
 20
214.1284569979939
 10
62.15676966533724
 20
214.0884495232234
 10
62.16312365776392
 20
214.0484424006598
 10
62.16947988827778
 20
214.0084356333579
 10
62.17583837445179
 20
213.9684292243724
 10
62.18219913385897
 20
213.9284231767584
 10
62.18856218407237
 20
213.8884174935706
 10
62.194927542665
 20
213.8484121778638
 10
62.20129522720995
 20
213.8084072326929
 10
62.2076652552802
 20
213.7684026611127
 10
62.21403764444878
 20
213.728398466178
 10
62.22041241228877
 20
213.6883946509437
 10
62.22678957637314
 20
213.6483912184647
 10
62.23316915427492
 20
213.6083881717956
 10
62.2395511635672
 20
213.5683855139915
 10
62.24593562182295
 20
213.5283832481071
 10
62.2523225466152
 20
213.4883813771972
 10
62.25871195551704
 20
213.4483799043167
 10
62.2651038661015
 20
213.4083788325203
 10
62.27149829594154
 20
213.3683781648631
 10
62.2778952626102
 20
213.3283779043998
 10
62.28429478368056
 20
213.2883780541851
 10
62.29069687672566
 20
213.248378617274
 10
62.29710155931846
 20
213.2083795967213
 10
62.30350884903206
 20
213.1683809955818
 10
62.30991876343941
 20
213.1283828169103
 10
62.31633132011362
 20
213.0883850637618
 10
62.3227465366277
 20
213.048387739191
 10
62.32916443055464
 20
213.0083908462527
 10
62.33558501946752
 20
212.9683943880018
 10
62.34200832093936
 20
212.9283983674931
 10
62.34843435254319
 20
212.8884027877816
 10
62.35486313185194
 20
212.8484076519218
 10
62.36129467643886
 20
212.8084129629688
 10
62.36772900387675
 20
212.7684187239774
 10
62.3741661317388
 20
212.7284249380024
 10
62.38060607759795
 20
212.6884316080985
 10
62.38704885902732
 20
212.6484387373208
 10
62.39349449359983
 20
212.608446328724
 10
62.39994299888858
 20
212.5684543853628
 10
62.40639439246658
 20
212.5284629102924
 10
62.41284869190682
 20
212.4884719065672
 10
62.41930591478243
 20
212.4484813772423
 10
62.42576607866638
 20
212.4084913253724
 10
62.43222920113172
 20
212.3685017540125
 10
62.43869529975146
 20
212.3285126662173
 10
62.44516439209863
 20
212.2885240650416
 10
62.45163649574627
 20
212.2485359535404
 10
62.4581116282674
 20
212.2085483347684
 10
62.46458980723511
 20
212.1685612117804
 10
62.47107105022232
 20
212.1285745876314
 10
62.47755537480217
 20
212.0885884653761
 10
62.48404279854756
 20
212.0486028480694
 10
62.49053333903166
 20
212.0086177387661
 10
62.49702701382742
 20
211.968633140521
 10
62.50352384050788
 20
211.9286490563891
 10
62.51002383664613
 20
211.888665489425
 10
62.51652701981513
 20
211.8486824426836
 10
62.52303340758792
 20
211.8086999192199
 10
62.52954301753752
 20
211.7687179220886
 10
62.53605586723702
 20
211.7287364543445
 10
62.5425719742594
 20
211.6887555190425
 10
62.54909135617774
 20
211.6487751192374
 10
62.55561403056495
 20
211.608795257984
 10
62.56214001499424
 20
211.5688159383373
 10
62.56866932703846
 20
211.528837163352
 10
62.57520198427082
 20
211.4888589360829
 10
62.58173800426417
 20
211.4488812595848
 10
64.02727233427677
 20
211.4488812595849
 97
        0
 75
     0
 76
     1
 52
90.0
 41
0.5
 77
     0
 78
     1
 53
135.0
 43
0.0
 44
0.0
 45
-1.122532015133644
 46
-1.122532015133644
 79
     0
 98
        0
  0
HATCH
  5
16B
330
1F
100
AcDbEntity
  8
Layer0
  6
AUSGEZOGEN
 62
    18
420
        0
370
    18
100
AcDbHatch
 10
0.0
 20
0.0
 30
0.0
210
0.0
220
0.0
230
1.0
  2
ANSI31
 70
     0
 71
     0
 91
        1
 92
        2
 72
     0
 73
     1
 93
      103
 10
71.86066266870446
 20
215.4488812595849
 10
70.02727233427677
 20
215.4488812595849
 10
70.02727233427677
 20
211.4488812595849
 10
71.26760783080996
 20
211.4488812595849
 10
71.27367679590677
 20
211.4888604930463
 10
71.27974238886137
 20
211.5288402393971
 10
71.28580462730181
 20
211.5688204957792
 10
71.29186352885594
 20
211.6088012593345
 10
71.29791911115163
 20
211.648782527205
 10
71.30397139181682
 20
211.6887642965327
 10
71.31002038847939
 20
211.7287465644593
 10
71.31606611876722
 20
211.768729328127
 10
71.32210860030833
 20
211.8087125846776
 10
71.32814785073046
 20
211.8486963312531
 10
71.33418388766157
 20
211.8886805649953
 10
71.34021672872964
 20
211.9286652830464
 10
71.34624639156246
 20
211.968650482548
 10
71.35227289378801
 20
212.0086361606424
 10
71.35829625303413
 20
212.0486223144713
 10
71.3643164869288
 20
212.0886089411767
 10
71.37033361309986
 20
212.1285960379005
 10
71.37634764917519
 20
212.1685836017847
 10
71.38235861278278
 20
212.2085716299713
 10
71.38836652155047
 20
212.2485601196021
 10
71.39437139310613
 20
212.2885490678191
 10
71.40037324507776
 20
212.3285384717643
 10
71.40637209509313
 20
212.3685283285795
 10
71.4123679607803
 20
212.4085186354067
 10
71.41836085976709
 20
212.4485093893879
 10
71.42435080968133
 20
212.488500587665
 10
71.43033782815107
 20
212.5284922273799
 10
71.43632193280408
 20
212.5684843056746
 10
71.44230314126835
 20
212.608476819691
 10
71.44828147117173
 20
212.6484697665711
 10
71.45425694014213
 20
212.6884631434567
 10
71.46022956580751
 20
212.7284569474899
 10
71.46619936579569
 20
212.7684511758125
 10
71.47216635773461
 20
212.8084458255665
 10
71.47813055925215
 20
212.8484408938938
 10
71.48409198797626
 20
212.8884363779366
 10
71.49005066153475
 20
212.9284322748364
 10
71.49600659755563
 20
212.9684285817355
 10
71.50195981366679
 20
213.0084252957756
 10
71.50791032749603
 20
213.0484224140988
 10
71.51385815667138
 20
213.088419933847
 10
71.51980331882064
 20
213.128417852162
 10
71.52574583157175
 20
213.168416166186
 10
71.53168571255262
 20
213.2084148730607
 10
71.53762297939116
 20
213.2484139699282
 10
71.54355764971521
 20
213.2884134539304
 10
71.54948974115277
 20
213.3284133222091
 10
71.55541927133166
 20
213.3684135719064
 10
71.56134625787982
 20
213.4084142001643
 10
71.56727071842519
 20
213.4484152041244
 10
71.57319267059555
 20
213.488416580929
 10
71.57911213201893
 20
213.52841832772
 10
71.58502912032313
 20
213.5684204416391
 10
71.59094365313612
 20
213.6084229198285
 10
71.5968557480858
 20
213.6484257594299
 10
71.60276542280005
 20
213.6884289575855
 10
71.6086726949068
 20
213.728432511437
 10
71.61457758203389
 20
213.7684364181264
 10
71.6204801018093
 20
213.8084406747958
 10
71.62638027186088
 20
213.8484452785869
 10
71.6322781098165
 20
213.8884502266419
 10
71.63817363330415
 20
213.9284555161025
 10
71.64406685995166
 20
213.9684611441107
 10
71.64995780738698
 20
214.0084671078085
 10
71.65584649323799
 20
214.0484734043379
 10
71.66173293513256
 20
214.0884800308407
 10
71.66761715069865
 20
214.1284869844589
 10
71.67349915756412
 20
214.1684942623344
 10
71.67937897335688
 20
214.2085018616092
 10
71.6852566157049
 20
214.2485097794252
 10
71.69113210223597
 20
214.2885180129244
 10
71.69700545057802
 20
214.3285265592486
 10
71.70287667835899
 20
214.3685354155399
 10
71.70874580320682
 20
214.4085445789401
 10
71.71461284274929
 20
214.4485540465913
 10
71.72047781461438
 20
214.4885638156352
 10
71.72634073643005
 20
214.5285738832139
 10
71.73220162582405
 20
214.5685842464695
 10
71.73806050042438
 20
214.6085949025436
 10
71.74391737785899
 20
214.6486058485784
 10
71.74977227575565
 20
214.6886170817156
 10
71.75562521174234
 20
214.7286285990974
 10
71.76147620344702
 20
214.7686403978655
 10
71.76732526849744
 20
214.808652475162
 10
71.77317242452162
 20
214.8486648281288
 10
71.77901768914742
 20
214.8886774539079
 10
71.78486108000274
 20
214.9286903496412
 10
71.79070261471551
 20
214.9687035124705
 10
71.79654231091362
 20
215.0087169395379
 10
71.8023801862249
 20
215.0487306279852
 10
71.80821625827738
 20
215.0887445749545
 10
71.81405054469886
 20
215.1287587775877
 10
71.81988306311732
 20
215.1687732330266
 10
71.82571383116064
 20
215.2087879384133
 10
71.83154286645666
 20
215.2488028908897
 10
71.83737018663331
 20
215.2888180875977
 10
71.84319580931853
 20
215.3288335256794
 10
71.84901975214021
 20
215.3688492022764
 10
71.85484203272622
 20
215.408865114531
 97
        0
 75
     0
 76
     1
 52
90.0
 41
0.5
 77
     0
 78
     1
 53
135.0
 43
0.0
 44
0.0
 45
-1.122532015133644
 46
-1.122532015133644
 79
     0
 98
        0
  0
HATCH
  5
16C
330
1F
100
AcDbEntity
  8
Layer0
  6
AUSGEZOGEN
 62
    18
420
        0
370
    18
100
AcDbHatch
 10
0.0
 20
0.0
 30
0.0
210
0.0
220
0.0
230
1.0
  2
ANSI31
 70
     0
 71
     0
 91
        1
 92
        2
 72
     0
 73
     1
 93
      103
 10
70.02727233427677
 20
215.4488812595849
 10
71.86066266870446
 20
215.4488812595849
 10
71.86793141426321
 20
215.4988691254721
 10
71.87519761506266
 20
215.5488573603004
 10
71.88246129709361
 20
215.5988459602794
 10
71.88972248634698
 20
215.6488349216193
 10
71.89698120881351
 20
215.69882424053
 10
71.90423749048412
 20
215.7488139132215
 10
71.9114913573496
 20
215.7988039359037
 10
71.91874283540076
 20
215.8487943047867
 10
71.92599195062857
 20
215.8987850160805
 10
71.93323872902377
 20
215.9487760659949
 10
71.94048319657716
 20
215.9987674507401
 10
71.94772537927966
 20
216.0487591665259
 10
71.95496530312212
 20
216.0987512095624
 10
71.96220299409529
 20
216.1487435760596
 10
71.96943847819009
 20
216.1987362622273
 10
71.97667178139736
 20
216.2487292642757
 10
71.98390292970785
 20
216.2987225784147
 10
71.99113194911249
 20
216.3487162008542
 10
71.99835886560206
 20
216.3987101278043
 10
72.00558370516748
 20
216.4487043554749
 10
72.0128064937995
 20
216.4986988800761
 10
72.02002725748903
 20
216.5486936978177
 10
72.02724602222682
 20
216.5986888049097
 10
72.03446281400383
 20
216.6486841975623
 10
72.04167765881081
 20
216.6986798719853
 10
72.04889058263862
 20
216.7486758243887
 10
72.05610161147806
 20
216.7986720509825
 10
72.06331077132009
 20
216.8486685479767
 10
72.07051808815541
 20
216.8986653115812
 10
72.07772358797493
 20
216.9486623380061
 10
72.08492729676951
 20
216.9986596234613
 10
72.09212924052994
 20
217.0486571641569
 10
72.0993294452471
 20
217.0986549563027
 10
72.10652793691176
 20
217.1486529961088
 10
72.11372474151486
 20
217.1986512797851
 10
72.12091988504719
 20
217.2486498035416
 10
72.12811339349955
 20
217.2986485635884
 10
72.1353052928628
 20
217.3486475561354
 10
72.14249560912785
 20
217.3986467773925
 10
72.14968436828545
 20
217.4486462235698
 10
72.15687159632645
 20
217.4986458908772
 10
72.16405731924178
 20
217.5486457755248
 10
72.17124156302216
 20
217.5986458737224
 10
72.17842435365847
 20
217.6486461816802
 10
72.18560571714161
 20
217.698646695608
 10
72.19278567946233
 20
217.7486474117158
 10
72.19996426661154
 20
217.7986483262137
 10
72.20714150458005
 20
217.8486494353116
 10
72.21431741935871
 20
217.8986507352194
 10
72.22149203693832
 20
217.9486522221472
 10
72.22866538330973
 20
217.9986538923051
 10
72.23583748446381
 20
218.0486557419027
 10
72.24300836639136
 20
218.0986577671504
 10
72.2501780550833
 20
218.1486599642579
 10
72.25734657653035
 20
218.1986623294353
 10
72.26451395672345
 20
218.2486648588925
 10
72.27168022165338
 20
218.2986675488396
 10
72.27884539731102
 20
218.3486703954865
 10
72.2860095096872
 20
218.3986733950433
 10
72.29317258477275
 20
218.4486765437197
 10
72.3003346485585
 20
218.4986798377259
 10
72.30749572703527
 20
218.5486832732719
 10
72.31465584619397
 20
218.5986868465677
 10
72.3218150320254
 20
218.6486905538231
 10
72.32897331052035
 20
218.6986943912482
 10
72.33613070766975
 20
218.748698355053
 10
72.34328724946434
 20
218.7987024414475
 10
72.35044296189508
 20
218.8487066466415
 10
72.35759787095273
 20
218.8987109668452
 10
72.36475200262814
 20
218.9487153982684
 10
72.3719053829121
 20
218.9987199371213
 10
72.37905803779555
 20
219.0487245796136
 10
72.38620999326926
 20
219.0987293219556
 10
72.39336127532411
 20
219.1487341603571
 10
72.4005119099509
 20
219.198739091028
 10
72.40766192314052
 20
219.2487441101785
 10
72.41481134088374
 20
219.2987492140184
 10
72.42196018917147
 20
219.3487543987578
 10
72.4291084939945
 20
219.3987596606065
 10
72.4362562813437
 20
219.4487649957747
 10
72.44340357720986
 20
219.4987704004722
 10
72.4505504075839
 20
219.5487758709092
 10
72.45769679845657
 20
219.5987814032955
 10
72.46484277581877
 20
219.6487869938411
 10
72.47198836566136
 20
219.6987926387561
 10
72.47913359397509
 20
219.7487983342503
 10
72.48627848675082
 20
219.7988040765338
 10
72.49342306997951
 20
219.8488098618165
 10
72.50056736965186
 20
219.8988156863085
 10
72.50771141175878
 20
219.9488215462198
 10
72.51485522229106
 20
219.9988274377602
 10
72.52199882723957
 20
220.0488333571398
 10
72.52914225259522
 20
220.0988393005685
 10
72.5362855243487
 20
220.1488452642564
 10
72.54342866849092
 20
220.1988512444134
 10
72.55057171101274
 20
220.2488572372496
 10
72.55771467790495
 20
220.2988632389749
 10
72.56485759515849
 20
220.3488692457991
 10
72.57200048876413
 20
220.3988752539325
 10
72.5791433847127
 20
220.4488812595849
 10
70.02727233427677
 20
220.4488812595849
 97
        0
 75
     0
 76
     1
 52
90.0
 41
0.5
 77
     0
 78
     1
 53
135.0
 43
0.0
 44
0.0
 45
-1.122532015133644
 46
-1.122532015133644
 79
     0
 98
        0
  0
HATCH
  5
16D
330
1F
100
AcDbEntity
  8
Layer0
  6
AUSGEZOGEN
 62
    18
420
        0
370
    18
100
AcDbHatch
 10
0.0
 20
0.0
 30
0.0
210
0.0
220
0.0
230
1.0
  2
ANSI31
 70
     0
 71
     0
 91
        1
 92
        2
 72
     0
 73
     1
 93
      103
 10
64.02727233427677
 20
220.4488812595848
 10
61.16505020370735
 20
220.4488812595848
 10
61.17277729812079
 20
220.3988747808566
 10
61.18050439026823
 20
220.3488682996356
 10
61.18823150607236
 20
220.298861820005
 10
61.19595867145566
 20
220.2488553460475
 10
61.20368591234077
 20
220.1988488818461
 10
61.21141325465041
 20
220.1488424314838
 10
61.21914072430704
 20
220.0988359990435
 10
61.22686834723331
 20
220.0488295886082
 10
61.2345961493518
 20
219.9988232042608
 10
61.24232415658517
 20
219.9488168500841
 10
61.25005239485594
 20
219.8988105301613
 10
61.25778089008682
 20
219.8488042485752
 10
61.26550966820034
 20
219.7987980094088
 10
61.27323875511908
 20
219.748791816745
 10
61.2809681767657
 20
219.6987856746667
 10
61.28869795906277
 20
219.6487795872569
 10
61.2964281279329
 20
219.5987735585986
 10
61.30415870929866
 20
219.5487675927745
 10
61.31188972908276
 20
219.4987616938678
 10
61.31962121320763
 20
219.4487558659615
 10
61.327353187596
 20
219.3987501131382
 10
61.33508567817049
 20
219.3487444394811
 10
61.34281871085361
 20
219.2987388490731
 10
61.35055231156801
 20
219.2487333459971
 10
61.35828650623628
 20
219.1987279343361
 10
61.36602132078102
 20
219.1487226181729
 10
61.37375678112485
 20
219.0987174015907
 10
61.38149291319033
 20
219.0487122886722
 10
61.38922974290014
 20
218.9987072835004
 10
61.39696729617683
 20
218.9487023901583
 10
61.40470559894297
 20
218.8986976127289
 10
61.41244467712121
 20
218.848692955295
 10
61.42018455663415
 20
218.7986884219395
 10
61.42792526340438
 20
218.7486840167455
 10
61.43566682335452
 20
218.6986797437959
 10
61.44340926240713
 20
218.6486756071736
 10
61.45115260648484
 20
218.5986716109616
 10
61.45889688151024
 20
218.5486677592428
 10
61.46664211340598
 20
218.4986640561001
 10
61.47438832809459
 20
218.4486605056165
 10
61.48213555149877
 20
218.398657111875
 10
61.489883809541
 20
218.3486538789584
 10
61.49763312814392
 20
218.2986508109497
 10
61.50538353323017
 20
218.2486479119319
 10
61.51313505072241
 20
218.1986451859879
 10
61.52088770654305
 20
218.1486426372006
 10
61.5286415266149
 20
218.0986402696529
 10
61.53639653686039
 20
218.0486380874279
 10
61.54415276320228
 20
217.9986360946086
 10
61.55191023156308
 20
217.9486342952776
 10
61.55966896786535
 20
217.8986326935182
 10
61.56742899803177
 20
217.8486312934131
 10
61.57519034798494
 20
217.7986300990453
 10
61.58295304364745
 20
217.7486291144979
 10
61.59071711094188
 20
217.6986283438535
 10
61.59848257579088
 20
217.6486277911955
 10
61.60624946411698
 20
217.5986274606064
 10
61.61401780184283
 20
217.5486273561694
 10
61.62178761489096
 20
217.4986274819674
 10
61.62955892918413
 20
217.4486278420833
 10
61.63733177064481
 20
217.3986284406001
 10
61.64510616519564
 20
217.3486292816007
 10
61.65288213875922
 20
217.298630369168
 10
61.66065971725814
 20
217.248631707385
 10
61.66843892661504
 20
217.1986333003346
 10
61.67621979275245
 20
217.1486351520999
 10
61.68400234159301
 20
217.0986372667635
 10
61.69178659905938
 20
217.0486396484088
 10
61.69957259107409
 20
216.9986423011183
 10
61.70736034355977
 20
216.9486452289752
 10
61.71514988243902
 20
216.8986484360624
 10
61.72294123363443
 20
216.8486519264628
 10
61.73073442306864
 20
216.7986557042594
 10
61.73852947666418
 20
216.7486597735351
 10
61.74632642034371
 20
216.6986641383728
 10
61.7541252800298
 20
216.6486688028555
 10
61.7619260816451
 20
216.5986737710661
 10
61.76972885111215
 20
216.5486790470877
 10
61.77753361435359
 20
216.498684635003
 10
61.785340397292
 20
216.4486905388951
 10
61.79314922584999
 20
216.3986967628468
 10
61.80096012595024
 20
216.3487033109412
 10
61.80877312351524
 20
216.2987101872612
 10
61.81658824446762
 20
216.2487173958897
 10
61.82440551472993
 20
216.1987249409097
 10
61.83222496022492
 20
216.148732826404
 10
61.84004660687512
 20
216.0987410564557
 10
61.84787048060306
 20
216.0487496351477
 10
61.85569660733145
 20
215.998758566563
 10
61.86352501298282
 20
215.9487678547844
 10
61.87135572347981
 20
215.8987775038948
 10
61.87918876474495
 20
215.8487875179774
 10
61.88702416270095
 20
215.798797901115
 10
61.89486194327034
 20
215.7488086573905
 10
61.90270213237577
 20
215.6988197908868
 10
61.91054475593981
 20
215.6488313056871
 10
61.91838983988507
 20
215.5988432058739
 10
61.92623741013412
 20
215.5488554955306
 10
61.93408749260962
 20
215.49886817874
 10
61.94194011323415
 20
215.4488812595849
 10
64.02727233427677
 20
215.4488812595849
 97
        0
 75
     0
 76
     1
 52
90.0
 41
0.5
 77
     0
 78
     1
 53
135.0
 43
0.0
 44
0.0
 45
-1.122532015133644
 46
-1.122532015133644
 79
     0
 98
        0
  0
CIRCLE
  5
16E
330
1F
100
AcDbEntity
  8
Layer0
  6
AUSGEZOGEN
 62
    18
420
        0
370
    18
100
AcDbCircle
 10
67.027272334277
 20
273.227463584882
 30
0.0
 40
8.400000000000054
  0
CIRCLE
  5
16F
330
1F
100
AcDbEntity
  8
Layer0
  6
AUSGEZOGEN
 62
    18
420
        0
370
    18
100
AcDbCircle
 10
67.027272334277
 20
273.227463584882
 30
0.0
 40
15.40000000000007
  0
CIRCLE
  5
170
330
1F
100
AcDbEntity
  8
Layer0
  6
AUSGEZOGEN
 62
    18
420
        0
370
    18
100
AcDbCircle
 10
67.027272334277
 20
273.227463584882
 30
0.0
 40
8.099999999999987
  0
CIRCLE
  5
171
330
1F
100
AcDbEntity
  8
Layer0
  6
AUSGEZOGEN
 62
    18
420
        0
370
    18
100
AcDbCircle
 10
67.027272334277
 20
273.227463584882
 30
0.0
 40
17.49999999999999
  0
CIRCLE
  5
172
330
1F
100
AcDbEntity
  8
Layer0
  6
AUSGEZOGEN
 62
    18
420
        0
370
    18
100
AcDbCircle
 10
67.027272334277
 20
273.227463584882
 30
0.0
 40
17.2
  0
CIRCLE
  5
173
330
1F
100
AcDbEntity
  8
Layer0
  6
AUSGEZOGEN
 62
    18
420
        0
370
    18
100
AcDbCircle
 10
67.027272334277
 20
273.227463584882
 30
0.0
 40
15.7
  0
TEXT
  5
174
330
1F
100
AcDbEntity
  8
Layer0
  6
AUSGEZOGEN
 62
    18
420
        0
370
    18
100
AcDbText
 10
87.815088365538
 20
297.4440056338
 30
0.0
 40
3.0
  1
Epoxy
 41
0.90537120346
  7
Verdana
 72
     5
 11
99.192888279421
 21
297.4440056338
 31
0.0
100
AcDbText
  0
INSERT
  5
17A
330
1F
100
AcDbEntity
  8
0
100
AcDbBlockReference
  2
_Dot_nNn04
 10
0.0
 20
0.0
 30
0.0
  0
LINE
  5
17B
330
1F
100
AcDbEntity
  8
Layer0
  6
AUSGEZOGEN
 62
    18
420
        0
370
    18
100
AcDbLine
 10
76.565361124578
 20
282.676273994836
 30
0.0
 11
84.389454072242
 21
297.972840678144
 31
0.0
  0
LINE
  5
17C
330
1F
100
AcDbEntity
  8
Layer0
  6
AUSGEZOGEN
 62
    18
420
        0
370
    18
100
AcDbLine
 10
84.389454072242
 20
297.972840678144
 30
0.0
 11
87.564454072242
 21
297.972840678144
 31
0.0
  0
INSERT
  5
188
330
1F
100
AcDbEntity
  8
0
100
AcDbBlockReference
  2
SW_CENTERMARKSYMBOL_0_nNn05
 10
0.0
 20
0.0
 30
0.0
  0
ARC
  5
189
330
1F
100
AcDbEntity
  8
Layer0
  6
AUSGEZOGEN
 62
    18
420
        0
370
    18
100
AcDbCircle
 10
79.527272334277
 20
140.962320808565
 30
0.0
 40
2.5
100
AcDbArc
 50
270.0
 51
90.0
  0
CIRCLE
  5
18A
330
1F
100
AcDbEntity
  8
Layer0
  6
AUSGEZOGEN
 62
    18
420
        0
370
    18
100
AcDbCircle
 10
79.527272334277
 20
142.112320808565
 30
0.0
 40
0.9000000000000057
  0
CIRCLE
  5
18B
330
1F
100
AcDbEntity
  8
Layer0
  6
AUSGEZOGEN
 62
    18
420
        0
370
    18
100
AcDbCircle
 10
79.527272334277
 20
139.812320808565
 30
0.0
 40
0.9000000000000057
  0
ARC
  5
18C
330
1F
100
AcDbEntity
  8
Layer0
  6
AUSGEZOGEN
 62
    18
420
        0
370
    18
100
AcDbCircle
 10
80.488434873131
 20
139.939040249513
 30
0.0
 40
2.000000000000018
100
AcDbArc
 50
92.24380384041
 51
122.642250306655
  0
ARC
  5
18D
330
1F
100
AcDbEntity
  8
Layer0
  6
AUSGEZOGEN
 62
    18
420
        0
370
    18
100
AcDbCircle
 10
67.027272334277
 20
140.962320808565
 30
0.0
 40
12.40000000000002
100
AcDbArc
 50
3.054892653709
 51
9.330457067104
  0
CIRCLE
  5
18E
330
1F
100
AcDbEntity
  8
Layer0
  6
AUSGEZOGEN
 62
    18
420
        0
370
    18
100
AcDbCircle
 10
67.027272334277
 20
140.962320808565
 30
0.0
 40
2.100000000000002
  0
ARC
  5
18F
330
1F
100
AcDbEntity
  8
Layer0
  6
AUSGEZOGEN
 62
    18
420
        0
370
    18
100
AcDbCircle
 10
80.488434873132
 20
139.939040249513
 30
0.0
 40
2.000000000000025
100
AcDbArc
 50
122.642250306654
 51
135.472305385307
  0
ARC
  5
190
330
1F
100
AcDbEntity
  8
Layer0
  6
AUSGEZOGEN
 62
    18
420
        0
370
    18
100
AcDbCircle
 10
67.027272334277
 20
140.962320808565
 30
0.0
 40
16.50000000000001
100
AcDbArc
 50
8.714742018619
 51
351.285257981383
  0
LINE
  5
191
330
1F
100
AcDbEntity
  8
Layer0
  6
AUSGEZOGEN
 62
    18
420
        0
370
    18
100
AcDbLine
 10
83.336778764577
 20
138.462320808565
 30
0.0
 11
84.347780409966
 21
138.462320808565
 31
0.0
  0
ARC
  5
192
330
1F
100
AcDbEntity
  8
Layer0
  6
AUSGEZOGEN
 62
    18
420
        0
370
    18
100
AcDbCircle
 10
67.027272334277
 20
140.962320808565
 30
0.0
 40
17.5
100
AcDbArc
 50
8.213210701739
 51
351.786789298263
  0
LINE
  5
193
330
1F
100
AcDbEntity
  8
Layer0
  6
AUSGEZOGEN
 62
    18
420
        0
370
    18
100
AcDbLine
 10
84.347780409966
 20
143.462320808565
 30
0.0
 11
83.336778764577
 21
143.462320808565
 31
0.0
  0
CIRCLE
  5
194
330
1F
100
AcDbEntity
  8
Layer0
  6
AUSGEZOGEN
 62
    18
420
        0
370
    18
100
AcDbCircle
 10
67.027272334277
 20
140.962320808565
 30
0.0
 40
3.0
  0
LINE
  5
195
330
1F
100
AcDbEntity
  8
Layer0
  6
AUSGEZOGEN
 62
    18
420
        0
370
    18
100
AcDbLine
 10
79.527272334277
 20
138.462320808565
 30
0.0
 11
83.336778764577
 21
138.462320808565
 31
0.0
  0
LINE
  5
196
330
1F
100
AcDbEntity
  8
Layer0
  6
AUSGEZOGEN
 62
    18
420
        0
370
    18
100
AcDbLine
 10
83.336778764577
 20
143.462320808565
 30
0.0
 11
79.527272334277
 21
143.462320808565
 31
0.0
  0
ARC
  5
197
330
1F
100
AcDbEntity
  8
Layer0
  6
AUSGEZOGEN
 62
    18
420
        0
370
    18
100
AcDbCircle
 10
79.527272334277
 20
140.962320808565
 30
0.0
 40
2.5
100
AcDbArc
 50
90.0
 51
270.0
  0
ARC
  5
198
330
1F
100
AcDbEntity
  8
Layer0
  6
AUSGEZOGEN
 62
    18
420
        0
370
    18
100
AcDbCircle
 10
67.027272334277
 20
140.962320808565
 30
0.0
 40
17.50000000000002
100
AcDbArc
 50
351.786789298263
 51
8.213210701739
  0
INSERT
  5
1A2
330
1F
100
AcDbEntity
  8
0
100
AcDbBlockReference
  2
AnonymMegaMac_nNn06
 10
0.0
 20
0.0
 30
0.0
  0
INSERT
  5
1AE
330
1F
100
AcDbEntity
  8
0
100
AcDbBlockReference
  2
SW_CENTERMARKSYMBOL_1_nNn07
 10
0.0
 20
0.0
 30
0.0
  0
INSERT
  5
1BA
330
1F
100
AcDbEntity
  8
0
100
AcDbBlockReference
  2
SW_CENTERMARKSYMBOL_2_nNn08
 10
0.0
 20
0.0
 30
0.0
  0
DIMENSION
  5
1C7
330
1F
100
AcDbEntity
  8
Layer6
  6
AUSGEZOGEN
 62
    18
420
        0
370
    18
100
AcDbDimension
280
     0
  2
*D10
 10
79.527272334277
 20
166.481052511237
 30
0.0
 11
73.277272334277
 21
168.581052511237
 31
0.0
 70
   160
 71
     5
 42
-1.0
 73
     0
 74
     0
 75
     0
  3
ISO-25
100
AcDbAlignedDimension
 13
67.027272334277
 23
160.962320808565
 33
0.0
 14
79.527272334277
 24
145.962320808565
 34
0.0
100
AcDbRotatedDimension
1001
ACAD
1000
DSTYLE
1002
{
1070
     3
1000
<>
1070
    44
1040
2.5
1070
   280
1070
     0
1070
    77
1070
     1
1070
    78
1070
     8
1070
   179
1070
     2
1070
   271
1070
     2
1070
   173
1070
     1
1070
    41
1040
3.5
1070
   147
1040
0.428571428571
1070
   140
1040
3.0
1070
   178
1070
    18
1070
   177
1070
    18
1070
   176
1070
    18
1002
}
  0
DIMENSION
  5
1D2
330
1F
100
AcDbEntity
  8
Layer6
  6
AUSGEZOGEN
 62
    18
420
        0
370
    18
100
AcDbDimension
280
     0
  2
*D11
 10
84.527272334277
 20
180.807267302085
 30
0.0
 11
67.027272334277
 21
182.907267302085
 31
0.0
 70
   160
  1
%%c35
 71
     5
 42
-1.0
 73
     0
 74
     0
 75
     0
  3
ISO-25
100
AcDbAlignedDimension
 13
49.527272334277
 23
191.748881259585
 33
0.0
 14
84.527272334277
 24
191.748881259585
 34
0.0
100
AcDbRotatedDimension
1001
ACAD
1000
DSTYLE
1002
{
1070
    44
1040
2.5
1070
   280
1070
     0
1070
    77
1070
     1
1070
    78
1070
     8
1070
   179
1070
     2
1070
   271
1070
     2
1070
   173
1070
     1
1070
    41
1040
3.5
1070
   147
1040
0.428571428571
1070
   140
1040
3.0
1070
   178
1070
    18
1070
   177
1070
    18
1070
   176
1070
    18
1002
}
  0
DIMENSION
  5
1E4
330
1F
100
AcDbEntity
  8
Layer6
  6
AUSGEZOGEN
 62
    18
420
        0
370
    18
100
AcDbDimension
280
     0
  2
*D12
 10
69.527272877337
 20
230.208360209794
 30
0.0
 11
77.749949979186
 21
232.308360209794
 31
0.0
 70
   160
  1
M5
 71
     5
 42
-1.0
 73
     0
 74
     0
 75
     0
  3
ISO-25
100
AcDbAlignedDimension
 13
64.527272057773
 23
211.448881647015
 33
0.0
 14
69.527272877337
 24
211.448881647015
 34
0.0
100
AcDbRotatedDimension
1001
ACAD
1000
DSTYLE
1002
{
1070
    44
1040
2.5
1070
   280
1070
     0
1070
    77
1070
     1
1070
    78
1070
     8
1070
   179
1070
     2
1070
   271
1070
     2
1070
   173
1070
     1
1070
    41
1040
3.5
1070
   147
1040
0.428571428571
1070
   140
1040
3.0
1070
   178
1070
    18
1070
   177
1070
    18
1070
   176
1070
    18
1002
}
  0
DIMENSION
  5
1F1
330
1F
100
AcDbEntity
  8
Layer6
  6
AUSGEZOGEN
 62
    18
420
        0
370
    18
100
AcDbDimension
280
     0
  2
*D13
 10
70.027272334277
 20
240.226692231366
 30
0.0
 11
67.027272334277
 21
242.326692231366
 31
0.0
 70
   160
  1
%%c6
 71
     5
 42
-1.0
 73
     0
 74
     0
 75
     0
  3
ISO-25
100
AcDbAlignedDimension
 13
64.027272334277
 23
220.448881259585
 33
0.0
 14
70.027272334277
 24
220.448881259585
 34
0.0
100
AcDbRotatedDimension
1001
ACAD
1000
DSTYLE
1002
{
1070
    44
1040
2.5
1070
   280
1070
     0
1070
    77
1070
     1
1070
    78
1070
     8
1070
   179
1070
     2
1070
   271
1070
     2
1070
   173
1070
     1
1070
    41
1040
3.5
1070
   147
1040
0.428571428571
1070
   140
1040
3.0
1070
   178
1070
    18
1070
   177
1070
    18
1070
   176
1070
    18
1002
}
  0
DIMENSION
  5
1FF
330
1F
100
AcDbEntity
  8
Layer6
  6
AUSGEZOGEN
 62
    18
420
        0
370
    18
100
AcDbDimension
280
     0
  2
*D14
 10
37.92298467621
 20
220.448881259585
 30
0.0
 11
35.82298467621
 21
215.948881259574
 31
0.0
 70
   160
 71
     5
 42
-1.0
 73
     0
 74
     0
 75
     0
 53
90.0
  3
ISO-25
100
AcDbAlignedDimension
 13
62.581738004268
 23
211.448881259562
 33
0.0
 14
50.527272334277
 24
220.448881259585
 34
0.0
 50
90.0
100
AcDbRotatedDimension
1001
ACAD
1000
DSTYLE
1002
{
1070
     3
1000
<>
1070
    44
1040
2.5
1070
   280
1070
     0
1070
    77
1070
     1
1070
    78
1070
     8
1070
   179
1070
     2
1070
   271
1070
     2
1070
   173
1070
     1
1070
    41
1040
3.5
1070
   147
1040
0.428571428571
1070
   140
1040
3.0
1070
   178
1070
    18
1070
   177
1070
    18
1070
   176
1070
    18
1002
}
  0
DIMENSION
  5
20C
330
1F
100
AcDbEntity
  8
Layer6
  6
AUSGEZOGEN
 62
    18
420
        0
370
    18
100
AcDbDimension
280
     0
  2
*D15
 10
26.941830340869
 20
201.448881870532
 30
0.0
 11
24.841830340869
 21
210.948881565059
 31
0.0
 70
   160
 71
     5
 42
-1.0
 73
     0
 74
     0
 75
     0
 53
90.0
  3
ISO-25
100
AcDbAlignedDimension
 13
50.527272334277
 23
220.448881259585
 33
0.0
 14
64.927273240925
 24
201.448881870532
 34
0.0
 50
-90.0
100
AcDbRotatedDimension
1001
ACAD
1000
DSTYLE
1002
{
1070
     3
1000
<>
1070
    44
1040
2.5
1070
   280
1070
     0
1070
    77
1070
     1
1070
    78
1070
     8
1070
   179
1070
     2
1070
   271
1070
     2
1070
   173
1070
     1
1070
    41
1040
3.5
1070
   147
1040
0.428571428571
1070
   140
1040
3.0
1070
   178
1070
    18
1070
   177
1070
    18
1070
   176
1070
    18
1002
}
  0
DIMENSION
  5
219
330
1F
100
AcDbEntity
  8
Layer6
  6
AUSGEZOGEN
 62
    18
420
        0
370
    18
100
AcDbDimension
280
     0
  2
*D16
 10
99.704648577551
 20
191.448881259585
 30
0.0
 11
97.604648577551
 21
205.948881259585
 31
0.0
 70
   160
 71
     5
 42
-1.0
 73
     0
 74
     0
 75
     0
 53
90.0
  3
ISO-25
100
AcDbAlignedDimension
 13
83.336778764577
 23
220.448881259585
 33
0.0
 14
84.227272334277
 24
191.448881259585
 34
0.0
 50
-90.0
100
AcDbRotatedDimension
1001
ACAD
1000
DSTYLE
1002
{
1070
     3
1000
<>
1070
    44
1040
2.5
1070
   280
1070
     0
1070
    77
1070
     1
1070
    78
1070
     8
1070
   179
1070
     2
1070
   271
1070
     2
1070
   173
1070
     1
1070
    41
1040
3.5
1070
   147
1040
0.428571428571
1070
   140
1040
3.0
1070
   178
1070
    18
1070
   177
1070
    18
1070
   176
1070
    18
1002
}
  0
WIPEOUT
  5
21A
330
1F
100
AcDbEntity
  8
Layer5
  6
AUSGEZOGEN
 62
    18
420
        0
370
    18
160
               128
310
80000000020000000C00000014000000010000006C00000007000000040000009DC90759DC3F584084DDF7BAC5966C4000000000000000000330AEBC17C75D4084DDF7BAC5966C4000000000000000000330AEBC17C75D401E7791545F306D4000000000000000009DC90759DC3F58401E7791545F306D4000000000000000
310
00
100
AcDbWipeout
 90
        0
 10
96.997823960881
 20
228.711637004959
 30
0.0
 11
22.11299983263015
 21
0.0
 31
0.0
 12
0.0
 22
22.11299983263015
 32
0.0
 13
1.0
 23
1.0
340
0
 70
     7
280
     1
281
    50
282
    50
283
     0
360
0
 71
     2
 91
        5
 14
-0.5
 24
0.5
 14
0.5
 24
0.5
 14
0.5
 24
0.282933114624
 14
-0.5
 24
0.282933114624
 14
-0.5
 24
0.5
290
     0
  0
TEXT
  5
21B
330
1F
100
AcDbEntity
  8
Layer5
  6
AUSGEZOGEN
 62
    18
420
        0
370
    18
100
AcDbText
 10
96.997823960881
 20
229.611637004959
 30
0.0
 40
3.0
  1
200+10mm
 41
0.902313617849
  7
Verdana
 72
     5
 11
119.110823793511
 21
229.611637004959
 31
0.0
100
AcDbText
  0
HATCH
  5
21C
330
1F
100
AcDbEntity
  8
Layer0
  6
AUSGEZOGEN
 62
    18
420
        0
370
    18
100
AcDbHatch
 10
0.0
 20
0.0
 30
0.0
210
0.0
220
0.0
230
1.0
  2
SOLID
 70
     1
 71
     0
 91
        1
 92
        2
 72
     0
 73
     1
 93
        3
 10
84.85197668445566
 20
228.2972732322779
 10
84.04335941936516
 20
228.3598503556965
 10
84.82856292637034
 20
228.5629100276273
 97
        0
 75
     0
 76
     1
 98
        0
  0
LINE
  5
21D
330
1F
100
AcDbEntity
  8
Layer0
  6
AUSGEZOGEN
 62
    18
420
        0
370
    18
100
AcDbLine
 10
84.840269805413
 20
228.430091629953
 30
0.0
 11
96.874388052107
 21
229.490802865488
 31
0.0
  0
DIMENSION
  5
22F
330
1F
100
AcDbEntity
  8
Layer6
  6
AUSGEZOGEN
 62
    18
420
        0
370
    18
100
AcDbDimension
280
     0
  2
*D17
 10
91.703116141202
 20
219.448881259585
 30
0.0
 11
89.603116141202
 21
206.32762552906
 31
0.0
 70
   160
  1
1,5x45%%d
 71
     5
 42
-1.0
 73
     0
 74
     0
 75
     0
 53
90.0
  3
ISO-25
100
AcDbAlignedDimension
 13
82.027272334277
 23
220.448881259585
 33
0.0
 14
82.027272334277
 24
219.448881259585
 34
0.0
 50
-90.0
100
AcDbRotatedDimension
1001
ACAD
1000
DSTYLE
1002
{
1070
    44
1040
2.5
1070
   280
1070
     0
1070
    77
1070
     1
1070
    78
1070
     8
1070
   179
1070
     2
1070
   271
1070
     2
1070
   173
1070
     1
1070
    41
1040
3.5
1070
   147
1040
0.428571428571
1070
   140
1040
3.0
1070
   178
1070
    18
1070
   177
1070
    18
1070
   176
1070
    18
1002
}
  0
INSERT
  5
237
330
1F
100
AcDbEntity
  8
0
100
AcDbBlockReference
  2
SW_NOTE_0_nNn017
 10
0.0
 20
0.0
 30
0.0
  0
TEXT
  5
238
330
1F
100
AcDbEntity
  8
Layer5
  6
AUSGEZOGEN
 62
    18
420
        0
370
    18
100
AcDbText
 10
142.529295533812
 20
38.463864716377
 30
0.0
 40
4.25
  1
24V
 41
0.851510760204
  7
Arial
 72
     5
 11
151.515075708553
 21
38.463864716377
 31
0.0
100
AcDbText
  0
TEXT
  5
239
330
1F
100
AcDbEntity
  8
Layer5
  6
AUSGEZOGEN
 62
    18
420
        0
370
    18
100
AcDbText
 10
119.018253289413
 20
38.463864716377
 30
0.0
 40
4.25
  1
4240023
 41
0.876017415546
  7
Arial
 72
     5
 11
139.241991344704
 21
38.463864716377
 31
0.0
100
AcDbText
  0
TEXT
  5
23A
330
1F
100
AcDbEntity
  8
Layer5
  6
AUSGEZOGEN
 62
    18
420
        0
370
    18
100
AcDbText
 10
103.532026168848
 20
38.463864716377
 30
0.0
 40
4.25
  1
12V
 41
0.775525696509
  7
Arial
 72
     5
 11
111.715954962682
 21
38.463864716377
 31
0.0
100
AcDbText
  0
TEXT
  5
23B
330
1F
100
AcDbEntity
  8
Layer5
  6
AUSGEZOGEN
 62
    18
420
        0
370
    18
100
AcDbText
 10
80.124302570464
 20
38.463864716377
 30
0.0
 40
4.25
  1
4230023
 41
0.876017415546
  7
Arial
 72
     5
 11
100.348040625754
 21
38.463864716377
 31
0.0
100
AcDbText
  0
LINE
  5
23C
330
1F
100
AcDbEntity
  8
Layer1
  6
AUSGEZOGEN
 62
    18
420
        0
370
    18
100
AcDbLine
 10
141.203985193096
 20
44.09085026868
 30
0.0
 11
141.203985193096
 21
37.161512325827
 31
0.0
  0
LINE
  5
23D
330
1F
100
AcDbEntity
  8
Layer1
  6
AUSGEZOGEN
 62
    18
420
        0
370
    18
100
AcDbLine
 10
102.275017495504
 20
44.09085026868
 30
0.0
 11
102.275017495504
 21
37.161512325827
 31
0.0
  0
LINE
  5
23E
330
1F
100
AcDbEntity
  8
Layer1
  6
AUSGEZOGEN
 62
    18
420
        0
370
    18
100
AcDbLine
 10
115.844915270667
 20
48.811083917825
 30
0.0
 11
115.844915270667
 21
36.061083917825
 31
0.0
  0
ENDSEC
  0
SECTION
  2
OBJECTS
  0
DICTIONARY
  5
C
330
0
100
AcDbDictionary
281
     1
  3
ACAD_DETAILVIEWSTYLE
350
277
  3
ACAD_GROUP
350
D
  3
ACAD_LAYOUT
350
1A
  3
ACAD_MATERIAL
350
43
  3
ACAD_MLEADERSTYLE
350
6B
  3
ACAD_MLINESTYLE
350
17
  3
ACAD_PLOTSETTINGS
350
19
  3
ACAD_PLOTSTYLENAME
350
E
  3
ACAD_SCALELIST
350
47
  3
ACAD_SECTIONVIEWSTYLE
350
278
  3
ACAD_TABLESTYLE
350
69
  3
ACAD_VISUALSTYLE
350
2A
  3
ACAD_WIPEOUT_VARS
350
274
  3
ACDB_RECOMPOSE_DATA
350
273
  3
AcDbVariableDictionary
350
23F
  0
SUN
  5
6D
330
29
100
AcDbSun
 90
        1
290
     0
 63
     7
421
 16777215
 40
1.0
291
     1
 91
  2455826
 92
 54000000
292
     0
 70
     2
 71
   256
280
     1
  0
DICTIONARY
  5
277
102
{ACAD_REACTORS
330
C
102
}
330
C
100
AcDbDictionary
281
     1
  0
DICTIONARY
  5
D
102
{ACAD_REACTORS
330
C
102
}
330
C
100
AcDbDictionary
281
     1
  0
DICTIONARY
  5
1A
102
{ACAD_REACTORS
330
C
102
}
330
C
100
AcDbDictionary
281
     1
  3
Layout1
350
1E
  3
Layout2
350
26
  3
Model
350
22
  0
DICTIONARY
  5
43
102
{ACAD_REACTORS
330
C
102
}
330
C
100
AcDbDictionary
281
     1
  3
ByBlock
350
45
  3
ByLayer
350
44
  3
Global
350
46
  0
DICTIONARY
  5
6B
102
{ACAD_REACTORS
330
C
102
}
330
C
100
AcDbDictionary
281
     1
  3
Standard
350
6C
  0
DICTIONARY
  5
17
102
{ACAD_REACTORS
330
C
102
}
330
C
100
AcDbDictionary
281
     1
  3
Standard
350
18
  0
DICTIONARY
  5
19
102
{ACAD_REACTORS
330
C
102
}
330
C
100
AcDbDictionary
281
     1
  0
ACDBDICTIONARYWDFLT
  5
E
102
{ACAD_REACTORS
330
C
102
}
330
C
100
AcDbDictionary
281
     1
  3
Normal
350
F
100
AcDbDictionaryWithDefault
340
F
  0
DICTIONARY
  5
47
102
{ACAD_REACTORS
330
C
102
}
330
C
100
AcDbDictionary
281
     1
  3
A0
350
48
  3
A1
350
49
  3
A2
350
4A
  3
A3
350
4B
  3
A4
350
4C
  3
A5
350
4D
  3
A6
350
4E
  3
A7
350
4F
  3
A8
350
50
  3
A9
350
51
  3
B0
350
52
  3
B1
350
53
  3
B2
350
54
  3
B3
350
55
  3
B4
350
56
  3
B5
350
57
  3
B6
350
58
  3
B7
350
59
  3
B8
350
5A
  3
B9
350
5B
  3
C0
350
5C
  3
C1
350
5D
  3
C2
350
5E
  3
C3
350
5F
  3
C4
350
60
  3
C5
350
61
  3
C6
350
62
  3
C7
350
63
  3
C8
350
64
  3
C9
350
65
  3
D0
350
66
  3
D1
350
67
  3
D2
350
68
  0
DICTIONARY
  5
278
102
{ACAD_REACTORS
330
C
102
}
330
C
100
AcDbDictionary
281
     1
  0
DICTIONARY
  5
69
102
{ACAD_REACTORS
330
C
102
}
330
C
100
AcDbDictionary
281
     1
  3
Standard
350
6A
  0
DICTIONARY
  5
2A
102
{ACAD_REACTORS
330
C
102
}
330
C
100
AcDbDictionary
281
     1
  3
2dWireframe
350
2F
  3
Basic
350
32
  3
Brighten
350
36
  3
ColorChange
350
3A
  3
Conceptual
350
34
  3
Dim
350
35
  3
EdgeColorOff
350
3D
  3
Facepattern
350
39
  3
Flat
350
2B
  3
FlatWithEdges
350
2C
  3
Gouraud
350
2D
  3
GouraudWithEdges
350
2E
  3
Hidden
350
31
  3
JitterOff
350
3B
  3
Linepattern
350
38
  3
OverhangOff
350
3C
  3
Realistic
350
33
  3
Shaded
350
42
  3
Shaded with edges
350
41
  3
Shades of Gray
350
3E
  3
Sketchy
350
3F
  3
Thicken
350
37
  3
Wireframe
350
30
  3
X-Ray
350
40
  0
WIPEOUTVARIABLES
  5
274
102
{ACAD_REACTORS
330
C
102
}
330
C
100
AcDbWipeoutVariables
 70
     0
  0
XRECORD
  5
273
102
{ACAD_REACTORS
330
C
102
}
330
C
100
AcDbXrecord
280
     1
 90
        1
330
6A
  0
DICTIONARY
  5
23F
102
{ACAD_REACTORS
330
C
102
}
330
C
100
AcDbDictionary
281
     1
  3
CANNOSCALE
350
240
  3
CMLEADERSTYLE
350
276
  3
CTABLESTYLE
350
275
  3
SECTIONTHICKNESSINC
350
27A
  3
WIPEOUTFRAME
350
279
  0
LAYOUT
  5
1E
102
{ACAD_REACTORS
330
1A
102
}
330
1A
100
AcDbPlotSettings
  1

  2
none_device
  4

  6

 40
0.0
 41
0.0
 42
0.0
 43
0.0
 44
0.0
 45
0.0
 46
0.0
 47
0.0
 48
0.0
 49
0.0
140
0.0
141
0.0
142
1.0
143
1.0
 70
   688
 72
     1
 73
     0
 74
     5
  7

 75
    16
 76
     0
 77
     2
 78
   300
147
1.0
148
0.0
149
0.0
100
AcDbLayout
  1
Layout1
 70
     1
 71
     1
 10
0.0
 20
0.0
 11
420.0
 21
297.0
 12
0.0
 22
0.0
 32
0.0
 14
1.000000000000E+20
 24
1.000000000000E+20
 34
1.000000000000E+20
 15
-1.000000000000E+20
 25
-1.000000000000E+20
 35
-1.000000000000E+20
146
0.0
 13
0.0
 23
0.0
 33
0.0
 16
1.0
 26
0.0
 36
0.0
 17
0.0
 27
1.0
 37
0.0
 76
     0
330
1B
  0
LAYOUT
  5
26
102
{ACAD_REACTORS
330
1A
102
}
330
1A
100
AcDbPlotSettings
  1

  2
none_device
  4

  6

 40
0.0
 41
0.0
 42
0.0
 43
0.0
 44
0.0
 45
0.0
 46
0.0
 47
0.0
 48
0.0
 49
0.0
140
0.0
141
0.0
142
1.0
143
1.0
 70
   688
 72
     1
 73
     0
 74
     5
  7

 75
    16
 76
     0
 77
     2
 78
   300
147
1.0
148
0.0
149
0.0
100
AcDbLayout
  1
Layout2
 70
     1
 71
     2
 10
0.0
 20
0.0
 11
0.0
 21
0.0
 12
0.0
 22
0.0
 32
0.0
 14
0.0
 24
0.0
 34
0.0
 15
0.0
 25
0.0
 35
0.0
146
0.0
 13
0.0
 23
0.0
 33
0.0
 16
1.0
 26
0.0
 36
0.0
 17
0.0
 27
1.0
 37
0.0
 76
     0
330
23
  0
LAYOUT
  5
22
102
{ACAD_REACTORS
330
1A
102
}
330
1A
100
AcDbPlotSettings
  1

  2
none_device
  4
Letter_(8.50_x_11.00_Inches)
  6

 40
6.35
 41
6.35
 42
6.35000508
 43
6.35000508
 44
215.9
 45
279.4
 46
0.0
 47
0.0
 48
0.0
 49
0.0
140
0.0
141
0.0
142
1.0
143
1.0
 70
  1712
 72
     1
 73
     0
 74
     0
  7

 75
     0
 76
     0
 77
     2
 78
   300
147
1.0
148
0.0
149
0.0
100
AcDbLayout
  1
Model
 70
     1
 71
     0
 10
0.0
 20
0.0
 11
420.0
 21
297.0
 12
0.0
 22
0.0
 32
0.0
 14
-314.326250525373
 24
17.00088970765
 34
0.0
 15
435.648043987683
 25
332.463162614749
 35
0.0
146
0.0
 13
0.0
 23
0.0
 33
0.0
 16
1.0
 26
0.0
 36
0.0
 17
0.0
 27
1.0
 37
0.0
 76
     0
330
1F
331
29
  0
MATERIAL
  5
45
102
{ACAD_REACTORS
330
43
102
}
330
43
100
AcDbMaterial
  1
ByBlock
 72
     1
 94
      127
  0
MATERIAL
  5
44
102
{ACAD_REACTORS
330
43
102
}
330
43
100
AcDbMaterial
  1
ByLayer
 72
     1
 94
      127
  0
MATERIAL
  5
46
102
{ACAD_REACTORS
330
43
102
}
330
43
100
AcDbMaterial
  1
Global
 72
     1
 94
      127
  0
MLEADERSTYLE
  5
6C
102
{ACAD_REACTORS
330
6B
102
}
330
6B
100
AcDbMLeaderStyle
179
     2
170
     2
171
     1
172
     0
 90
        2
 40
0.0
 41
0.0
173
     1
 91
-1056964608
340
14
 92
       -2
290
     1
 42
2.0
291
     1
 43
8.0
  3
Standard
341
0
 44
4.0
300

342
11
174
     1
178
     6
175
     1
176
     0
 93
-1056964608
 45
4.0
292
     0
297
     0
 46
4.0
343
0
 94
-1056964608
 47
1.0
 49
1.0
140
1.0
293
     1
141
0.0
294
     1
177
     0
142
1.0
295
     0
296
     0
143
3.75
271
     0
272
     9
273
     9
  0
MLINESTYLE
  5
18
102
{ACAD_REACTORS
330
17
102
}
330
17
100
AcDbMlineStyle
  2
Standard
 70
     0
  3

 62
   256
 51
90.0
 52
90.0
 71
     2
 49
0.5
 62
   256
  6
BYLAYER
 49
-0.5
 62
   256
  6
BYLAYER
  0
ACDBPLACEHOLDER
  5
F
102
{ACAD_REACTORS
330
E
102
}
330
E
  0
SCALE
  5
48
102
{ACAD_REACTORS
330
47
102
}
330
47
100
AcDbScale
 70
     0
300
1:1
140
1.0
141
1.0
290
     1
  0
SCALE
  5
49
102
{ACAD_REACTORS
330
47
102
}
330
47
100
AcDbScale
 70
     0
300
1:2
140
1.0
141
2.0
290
     0
  0
SCALE
  5
4A
102
{ACAD_REACTORS
330
47
102
}
330
47
100
AcDbScale
 70
     0
300
1:4
140
1.0
141
4.0
290
     0
  0
SCALE
  5
4B
102
{ACAD_REACTORS
330
47
102
}
330
47
100
AcDbScale
 70
     0
300
1:5
140
1.0
141
5.0
290
     0
  0
SCALE
  5
4C
102
{ACAD_REACTORS
330
47
102
}
330
47
100
AcDbScale
 70
     0
300
1:8
140
1.0
141
8.0
290
     0
  0
SCALE
  5
4D
102
{ACAD_REACTORS
330
47
102
}
330
47
100
AcDbScale
 70
     0
300
1:10
140
1.0
141
10.0
290
     0
  0
SCALE
  5
4E
102
{ACAD_REACTORS
330
47
102
}
330
47
100
AcDbScale
 70
     0
300
1:16
140
1.0
141
16.0
290
     0
  0
SCALE
  5
4F
102
{ACAD_REACTORS
330
47
102
}
330
47
100
AcDbScale
 70
     0
300
1:20
140
1.0
141
20.0
290
     0
  0
SCALE
  5
50
102
{ACAD_REACTORS
330
47
102
}
330
47
100
AcDbScale
 70
     0
300
1:30
140
1.0
141
30.0
290
     0
  0
SCALE
  5
51
102
{ACAD_REACTORS
330
47
102
}
330
47
100
AcDbScale
 70
     0
300
1:40
140
1.0
141
40.0
290
     0
  0
SCALE
  5
52
102
{ACAD_REACTORS
330
47
102
}
330
47
100
AcDbScale
 70
     0
300
1:50
140
1.0
141
50.0
290
     0
  0
SCALE
  5
53
102
{ACAD_REACTORS
330
47
102
}
330
47
100
AcDbScale
 70
     0
300
1:100
140
1.0
141
100.0
290
     0
  0
SCALE
  5
54
102
{ACAD_REACTORS
330
47
102
}
330
47
100
AcDbScale
 70
     0
300
2:1
140
2.0
141
1.0
290
     0
  0
SCALE
  5
55
102
{ACAD_REACTORS
330
47
102
}
330
47
100
AcDbScale
 70
     0
300
4:1
140
4.0
141
1.0
290
     0
  0
SCALE
  5
56
102
{ACAD_REACTORS
330
47
102
}
330
47
100
AcDbScale
 70
     0
300
8:1
140
8.0
141
1.0
290
     0
  0
SCALE
  5
57
102
{ACAD_REACTORS
330
47
102
}
330
47
100
AcDbScale
 70
     0
300
10:1
140
10.0
141
1.0
290
     0
  0
SCALE
  5
58
102
{ACAD_REACTORS
330
47
102
}
330
47
100
AcDbScale
 70
     0
300
100:1
140
100.0
141
1.0
290
     0
  0
SCALE
  5
59
102
{ACAD_REACTORS
330
47
102
}
330
47
100
AcDbScale
 70
     0
300
1/128" = 1'-0"
140
0.0078125
141
12.0
290
     0
  0
SCALE
  5
5A
102
{ACAD_REACTORS
330
47
102
}
330
47
100
AcDbScale
 70
     0
300
1/64" = 1'-0"
140
0.015625
141
12.0
290
     0
  0
SCALE
  5
5B
102
{ACAD_REACTORS
330
47
102
}
330
47
100
AcDbScale
 70
     0
300
1/32" = 1'-0"
140
0.03125
141
12.0
290
     0
  0
SCALE
  5
5C
102
{ACAD_REACTORS
330
47
102
}
330
47
100
AcDbScale
 70
     0
300
1/16" = 1'-0"
140
0.0625
141
12.0
290
     0
  0
SCALE
  5
5D
102
{ACAD_REACTORS
330
47
102
}
330
47
100
AcDbScale
 70
     0
300
3/32" = 1'-0"
140
0.09375
141
12.0
290
     0
  0
SCALE
  5
5E
102
{ACAD_REACTORS
330
47
102
}
330
47
100
AcDbScale
 70
     0
300
1/8" = 1'-0"
140
0.125
141
12.0
290
     0
  0
SCALE
  5
5F
102
{ACAD_REACTORS
330
47
102
}
330
47
100
AcDbScale
 70
     0
300
3/16" = 1'-0"
140
0.1875
141
12.0
290
     0
  0
SCALE
  5
60
102
{ACAD_REACTORS
330
47
102
}
330
47
100
AcDbScale
 70
     0
300
1/4" = 1'-0"
140
0.25
141
12.0
290
     0
  0
SCALE
  5
61
102
{ACAD_REACTORS
330
47
102
}
330
47
100
AcDbScale
 70
     0
300
3/8" = 1'-0"
140
0.375
141
12.0
290
     0
  0
SCALE
  5
62
102
{ACAD_REACTORS
330
47
102
}
330
47
100
AcDbScale
 70
     0
300
1/2" = 1'-0"
140
0.5
141
12.0
290
     0
  0
SCALE
  5
63
102
{ACAD_REACTORS
330
47
102
}
330
47
100
AcDbScale
 70
     0
300
3/4" = 1'-0"
140
0.75
141
12.0
290
     0
  0
SCALE
  5
64
102
{ACAD_REACTORS
330
47
102
}
330
47
100
AcDbScale
 70
     0
300
1" = 1'-0"
140
1.0
141
12.0
290
     0
  0
SCALE
  5
65
102
{ACAD_REACTORS
330
47
102
}
330
47
100
AcDbScale
 70
     0
300
1-1/2" = 1'-0"
140
1.5
141
12.0
290
     0
  0
SCALE
  5
66
102
{ACAD_REACTORS
330
47
102
}
330
47
100
AcDbScale
 70
     0
300
3" = 1'-0"
140
3.0
141
12.0
290
     0
  0
SCALE
  5
67
102
{ACAD_REACTORS
330
47
102
}
330
47
100
AcDbScale
 70
     0
300
6" = 1'-0"
140
6.0
141
12.0
290
     0
  0
SCALE
  5
68
102
{ACAD_REACTORS
330
47
102
}
330
47
100
AcDbScale
 70
     0
300
1'-0" = 1'-0"
140
12.0
141
12.0
290
     0
  0
TABLESTYLE
  5
6A
102
{ACAD_REACTORS
330
69
102
}
102
{ACAD_XDICTIONARY
360
271
102
}
330
69
100
AcDbTableStyle
  3
Standard
 70
     0
 71
     0
 40
0.06
 41
0.06
280
     0
281
     0
  7
Standard
140
4.5
170
     2
 62
     0
 63
   257
283
     0
 90
        4
 91
        0
  1

274
    -2
284
     1
 64
     0
275
    -2
285
     1
 65
     0
276
    -2
286
     1
 66
     0
277
    -2
287
     1
 67
     0
278
    -2
288
     1
 68
     0
279
    -2
289
     1
 69
     0
  7
Standard
140
6.0
170
     5
 62
     0
 63
   257
283
     0
 90
        4
 91
        0
  1

274
    -2
284
     1
 64
     0
275
    -2
285
     1
 65
     0
276
    -2
286
     1
 66
     0
277
    -2
287
     1
 67
     0
278
    -2
288
     1
 68
     0
279
    -2
289
     1
 69
     0
  7
Standard
140
4.5
170
     5
 62
     0
 63
   257
283
     0
 90
        4
 91
        0
  1

274
    -2
284
     1
 64
     0
275
    -2
285
     1
 65
     0
276
    -2
286
     1
 66
     0
277
    -2
287
     1
 67
     0
278
    -2
288
     1
 68
     0
279
    -2
289
     1
 69
     0
  0
VISUALSTYLE
  5
2F
102
{ACAD_REACTORS
330
2A
102
}
102
{ACAD_XDICTIONARY
360
249
102
}
330
2A
100
AcDbVisualStyle
  2
2dWireframe
 70
     4
177
     2
291
     0
 71
     0
176
     1
 72
     2
176
     1
 73
     0
176
     1
 90
        0
176
     1
 40
0.6
176
     1
 41
30.0
176
     1
 62
     5
 63
     7
421
 16777215
176
     1
 74
     1
176
     1
 91
        4
176
     1
 64
     7
176
     1
 65
   257
176
     1
 75
     1
176
     1
175
     1
176
     1
 42
1.0
176
     1
 92
        0
176
     1
 66
   257
176
     1
 43
1.0
176
     1
 76
     1
176
     1
 77
     6
176
     1
 78
     2
176
     1
 67
     7
176
     1
 79
     5
176
     1
170
     0
176
     1
171
     0
176
     1
290
     0
176
     1
 93
        1
176
     1
 44
0.0
176
     1
173
     0
176
     1
  0
VISUALSTYLE
  5
32
102
{ACAD_REACTORS
330
2A
102
}
102
{ACAD_XDICTIONARY
360
24F
102
}
330
2A
100
AcDbVisualStyle
  2
Basic
 70
     7
177
     2
291
     1
 71
     1
176
     1
 72
     0
176
     1
 73
     1
176
     1
 90
        0
176
     1
 40
0.6
176
     1
 41
30.0
176
     1
 62
     5
 63
     7
421
 16777215
176
     1
 74
     0
176
     1
 91
        4
176
     1
 64
     7
176
     1
 65
   257
176
     1
 75
     1
176
     1
175
     1
176
     1
 42
1.0
176
     1
 92
        8
176
     1
 66
     7
176
     1
 43
1.0
176
     1
 76
     1
176
     1
 77
     6
176
     1
 78
     2
176
     1
 67
     7
176
     1
 79
     5
176
     1
170
     0
176
     1
171
     0
176
     1
290
     0
176
     1
 93
        1
176
     1
 44
0.0
176
     1
173
     0
176
     1
  0
VISUALSTYLE
  5
36
102
{ACAD_REACTORS
330
2A
102
}
102
{ACAD_XDICTIONARY
360
257
102
}
330
2A
100
AcDbVisualStyle
  2
Brighten
 70
    12
177
     2
291
     1
 71
     2
176
     1
 72
     2
176
     1
 73
     0
176
     1
 90
        0
176
     1
 40
0.6
176
     1
 41
30.0
176
     1
 62
     5
 63
     7
421
 16777215
176
     1
 74
     1
176
     1
 91
        4
176
     1
 64
     7
176
     1
 65
   257
176
     1
 75
     1
176
     1
175
     1
176
     1
 42
1.0
176
     1
 92
        8
176
     1
 66
     7
176
     1
 43
1.0
176
     1
 76
     1
176
     1
 77
     6
176
     1
 78
     2
176
     1
 67
     7
176
     1
 79
     5
176
     1
170
     0
176
     1
171
     0
176
     1
290
     0
176
     1
 93
        1
176
     1
 44
50.0
176
     1
173
     0
176
     1
  0
VISUALSTYLE
  5
3A
102
{ACAD_REACTORS
330
2A
102
}
102
{ACAD_XDICTIONARY
360
25F
102
}
330
2A
100
AcDbVisualStyle
  2
ColorChange
 70
    16
177
     2
291
     1
 71
     2
176
     1
 72
     2
176
     1
 73
     3
176
     1
 90
        0
176
     1
 40
0.6
176
     1
 41
30.0
176
     1
 62
     5
 63
     8
421
  8421504
176
     1
 74
     1
176
     1
 91
        4
176
     1
 64
     7
176
     1
 65
   257
176
     1
 75
     1
176
     1
175
     1
176
     1
 42
1.0
176
     1
 92
        8
176
     1
 66
     8
424
  8421504
176
     1
 43
1.0
176
     1
 76
     1
176
     1
 77
     6
176
     1
 78
     2
176
     1
 67
     7
176
     1
 79
     5
176
     1
170
     0
176
     1
171
     0
176
     1
290
     0
176
     1
 93
        1
176
     1
 44
0.0
176
     1
173
     0
176
     1
  0
VISUALSTYLE
  5
34
102
{ACAD_REACTORS
330
2A
102
}
102
{ACAD_XDICTIONARY
360
253
102
}
330
2A
100
AcDbVisualStyle
  2
Conceptual
 70
     9
177
     2
291
     0
 71
     3
176
     1
 72
     2
176
     1
 73
     0
176
     1
 90
        0
176
     1
 40
0.6
176
     1
 41
30.0
176
     1
 62
     5
 63
     7
421
 16777215
176
     1
 74
     2
176
     1
 91
        2
176
     1
 64
     7
176
     1
 65
   257
176
     1
 75
     1
176
     1
175
     1
176
     1
 42
179.0
176
     1
 92
        8
176
     1
 66
     7
176
     1
 43
1.0
176
     1
 76
     1
176
     1
 77
     6
176
     1
 78
     2
176
     1
 67
     7
176
     1
 79
     3
176
     1
170
     0
176
     1
171
     0
176
     1
290
     0
176
     1
 93
        1
176
     1
 44
0.0
176
     1
173
     0
176
     1
  0
VISUALSTYLE
  5
35
102
{ACAD_REACTORS
330
2A
102
}
102
{ACAD_XDICTIONARY
360
255
102
}
330
2A
100
AcDbVisualStyle
  2
Dim
 70
    11
177
     2
291
     1
 71
     2
176
     1
 72
     2
176
     1
 73
     0
176
     1
 90
        0
176
     1
 40
0.6
176
     1
 41
30.0
176
     1
 62
     5
 63
     7
421
 16777215
176
     1
 74
     1
176
     1
 91
        4
176
     1
 64
     7
176
     1
 65
   257
176
     1
 75
     1
176
     1
175
     1
176
     1
 42
1.0
176
     1
 92
        8
176
     1
 66
     7
176
     1
 43
1.0
176
     1
 76
     1
176
     1
 77
     6
176
     1
 78
     2
176
     1
 67
     7
176
     1
 79
     5
176
     1
170
     0
176
     1
171
     0
176
     1
290
     0
176
     1
 93
        1
176
     1
 44
-50.0
176
     1
173
     0
176
     1
  0
VISUALSTYLE
  5
3D
102
{ACAD_REACTORS
330
2A
102
}
102
{ACAD_XDICTIONARY
360
265
102
}
330
2A
100
AcDbVisualStyle
  2
EdgeColorOff
 70
    22
177
     2
291
     1
 71
     2
176
     0
 72
     2
176
     0
 73
     0
176
     0
 90
        0
176
     0
 40
0.6
176
     0
 41
30.0
176
     0
 62
     5
 63
     7
421
 16777215
176
     0
 74
     1
176
     0
 91
        4
176
     0
 64
     7
176
     0
 65
   257
176
     0
 75
     1
176
     0
175
     1
176
     0
 42
1.0
176
     0
 92
        8
176
     2
 66
     7
176
     0
 43
1.0
176
     0
 76
     1
176
     0
 77
     6
176
     0
 78
     2
176
     0
 67
     7
176
     0
 79
     5
176
     0
170
     0
176
     0
171
     0
176
     0
290
     0
176
     0
 93
        1
176
     0
 44
0.0
176
     0
173
     0
176
     0
  0
VISUALSTYLE
  5
39
102
{ACAD_REACTORS
330
2A
102
}
102
{ACAD_XDICTIONARY
360
25D
102
}
330
2A
100
AcDbVisualStyle
  2
Facepattern
 70
    15
177
     2
291
     1
 71
     2
176
     1
 72
     2
176
     1
 73
     0
176
     1
 90
        0
176
     1
 40
0.6
176
     1
 41
30.0
176
     1
 62
     5
 63
     7
421
 16777215
176
     1
 74
     1
176
     1
 91
        4
176
     1
 64
     7
176
     1
 65
   257
176
     1
 75
     1
176
     1
175
     1
176
     1
 42
1.0
176
     1
 92
        8
176
     1
 66
     7
176
     1
 43
1.0
176
     1
 76
     1
176
     1
 77
     6
176
     1
 78
     2
176
     1
 67
     7
176
     1
 79
     5
176
     1
170
     0
176
     1
171
     0
176
     1
290
     0
176
     1
 93
        1
176
     1
 44
0.0
176
     1
173
     0
176
     1
  0
VISUALSTYLE
  5
2B
102
{ACAD_REACTORS
330
2A
102
}
102
{ACAD_XDICTIONARY
360
241
102
}
330
2A
100
AcDbVisualStyle
  2
Flat
 70
     0
177
     2
291
     1
 71
     2
176
     1
 72
     1
176
     1
 73
     1
176
     1
 90
        2
176
     1
 40
0.6
176
     1
 41
30.0
176
     1
 62
     5
 63
     7
421
 16777215
176
     1
 74
     0
176
     1
 91
        0
176
     1
 64
     7
176
     1
 65
   257
176
     1
 75
     1
176
     1
175
     1
176
     1
 42
1.0
176
     1
 92
        8
176
     1
 66
     7
176
     1
 43
1.0
176
     1
 76
     1
176
     1
 77
     6
176
     1
 78
     2
176
     1
 67
     7
176
     1
 79
     5
176
     1
170
     0
176
     1
171
     0
176
     1
290
     0
176
     1
 93
       13
176
     1
 44
0.0
176
     1
173
     0
176
     1
  0
VISUALSTYLE
  5
2C
102
{ACAD_REACTORS
330
2A
102
}
102
{ACAD_XDICTIONARY
360
243
102
}
330
2A
100
AcDbVisualStyle
  2
FlatWithEdges
 70
     1
177
     2
291
     1
 71
     2
176
     1
 72
     1
176
     1
 73
     1
176
     1
 90
        2
176
     1
 40
0.6
176
     1
 41
30.0
176
     1
 62
     5
 63
     7
421
 16777215
176
     1
 74
     1
176
     1
 91
        0
176
     1
 64
     7
176
     1
 65
   257
176
     1
 75
     1
176
     1
175
     1
176
     1
 42
1.0
176
     1
 92
        0
176
     1
 66
   257
176
     1
 43
1.0
176
     1
 76
     1
176
     1
 77
     6
176
     1
 78
     2
176
     1
 67
     7
176
     1
 79
     5
176
     1
170
     0
176
     1
171
     0
176
     1
290
     0
176
     1
 93
       13
176
     1
 44
0.0
176
     1
173
     0
176
     1
  0
VISUALSTYLE
  5
2D
102
{ACAD_REACTORS
330
2A
102
}
102
{ACAD_XDICTIONARY
360
245
102
}
330
2A
100
AcDbVisualStyle
  2
Gouraud
 70
     2
177
     2
291
     1
 71
     2
176
     1
 72
     2
176
     1
 73
     1
176
     1
 90
        2
176
     1
 40
0.6
176
     1
 41
30.0
176
     1
 62
     5
 63
     7
421
 16777215
176
     1
 74
     0
176
     1
 91
        0
176
     1
 64
     7
176
     1
 65
   257
176
     1
 75
     1
176
     1
175
     1
176
     1
 42
1.0
176
     1
 92
        0
176
     1
 66
     7
176
     1
 43
1.0
176
     1
 76
     1
176
     1
 77
     6
176
     1
 78
     2
176
     1
 67
     7
176
     1
 79
     5
176
     1
170
     0
176
     1
171
     0
176
     1
290
     0
176
     1
 93
       13
176
     1
 44
0.0
176
     1
173
     0
176
     1
  0
VISUALSTYLE
  5
2E
102
{ACAD_REACTORS
330
2A
102
}
102
{ACAD_XDICTIONARY
360
247
102
}
330
2A
100
AcDbVisualStyle
  2
GouraudWithEdges
 70
     3
177
     2
291
     1
 71
     2
176
     1
 72
     2
176
     1
 73
     1
176
     1
 90
        2
176
     1
 40
0.6
176
     1
 41
30.0
176
     1
 62
     5
 63
     7
421
 16777215
176
     1
 74
     1
176
     1
 91
        0
176
     1
 64
     7
176
     1
 65
   257
176
     1
 75
     1
176
     1
175
     1
176
     1
 42
1.0
176
     1
 92
        0
176
     1
 66
   257
176
     1
 43
1.0
176
     1
 76
     1
176
     1
 77
     6
176
     1
 78
     2
176
     1
 67
     7
176
     1
 79
     5
176
     1
170
     0
176
     1
171
     0
176
     1
290
     0
176
     1
 93
       13
176
     1
 44
0.0
176
     1
173
     0
176
     1
  0
VISUALSTYLE
  5
31
102
{ACAD_REACTORS
330
2A
102
}
102
{ACAD_XDICTIONARY
360
24D
102
}
330
2A
100
AcDbVisualStyle
  2
Hidden
 70
     6
177
     2
291
     0
 71
     1
176
     1
 72
     2
176
     1
 73
     2
176
     1
 90
        0
176
     1
 40
0.6
176
     1
 41
30.0
176
     1
 62
     5
 63
     7
421
 16777215
176
     1
 74
     2
176
     1
 91
        2
176
     1
 64
     7
176
     1
 65
   257
176
     1
 75
     2
176
     1
175
     1
176
     1
 42
40.0
176
     1
 92
        0
176
     1
 66
   257
176
     1
 43
1.0
176
     1
 76
     1
176
     1
 77
     6
176
     1
 78
     2
176
     1
 67
     7
176
     1
 79
     3
176
     1
170
     0
176
     1
171
     0
176
     1
290
     0
176
     1
 93
        1
176
     1
 44
0.0
176
     1
173
     0
176
     1
  0
VISUALSTYLE
  5
3B
102
{ACAD_REACTORS
330
2A
102
}
102
{ACAD_XDICTIONARY
360
261
102
}
330
2A
100
AcDbVisualStyle
  2
JitterOff
 70
    20
177
     2
291
     1
 71
     2
176
     0
 72
     2
176
     0
 73
     0
176
     0
 90
        0
176
     0
 40
0.6
176
     0
 41
30.0
176
     0
 62
     5
 63
     7
421
 16777215
176
     0
 74
     1
176
     0
 91
        4
176
     0
 64
     7
176
     0
 65
   257
176
     0
 75
     1
176
     0
175
     1
176
     0
 42
1.0
176
     0
 92
       10
176
     2
 66
     7
176
     0
 43
1.0
176
     0
 76
     1
176
     0
 77
     6
176
     0
 78
     2
176
     0
 67
     7
176
     0
 79
     5
176
     0
170
     0
176
     0
171
     0
176
     0
290
     0
176
     0
 93
        1
176
     0
 44
0.0
176
     0
173
     0
176
     0
  0
VISUALSTYLE
  5
38
102
{ACAD_REACTORS
330
2A
102
}
102
{ACAD_XDICTIONARY
360
25B
102
}
330
2A
100
AcDbVisualStyle
  2
Linepattern
 70
    14
177
     2
291
     1
 71
     2
176
     1
 72
     2
176
     1
 73
     0
176
     1
 90
        0
176
     1
 40
0.6
176
     1
 41
30.0
176
     1
 62
     5
 63
     7
421
 16777215
176
     1
 74
     1
176
     1
 91
        4
176
     1
 64
     7
176
     1
 65
   257
176
     1
 75
     7
176
     1
175
     7
176
     1
 42
1.0
176
     1
 92
        8
176
     1
 66
     7
176
     1
 43
1.0
176
     1
 76
     1
176
     1
 77
     6
176
     1
 78
     2
176
     1
 67
     7
176
     1
 79
     5
176
     1
170
     0
176
     1
171
     0
176
     1
290
     0
176
     1
 93
        1
176
     1
 44
0.0
176
     1
173
     0
176
     1
  0
VISUALSTYLE
  5
3C
102
{ACAD_REACTORS
330
2A
102
}
102
{ACAD_XDICTIONARY
360
263
102
}
330
2A
100
AcDbVisualStyle
  2
OverhangOff
 70
    21
177
     2
291
     1
 71
     2
176
     0
 72
     2
176
     0
 73
     0
176
     0
 90
        0
176
     0
 40
0.6
176
     0
 41
30.0
176
     0
 62
     5
 63
     7
421
 16777215
176
     0
 74
     1
176
     0
 91
        4
176
     0
 64
     7
176
     0
 65
   257
176
     0
 75
     1
176
     0
175
     1
176
     0
 42
1.0
176
     0
 92
        9
176
     2
 66
     7
176
     0
 43
1.0
176
     0
 76
     1
176
     0
 77
     6
176
     0
 78
     2
176
     0
 67
     7
176
     0
 79
     5
176
     0
170
     0
176
     0
171
     0
176
     0
290
     0
176
     0
 93
        1
176
     0
 44
0.0
176
     0
173
     0
176
     0
  0
VISUALSTYLE
  5
33
102
{ACAD_REACTORS
330
2A
102
}
102
{ACAD_XDICTIONARY
360
251
102
}
330
2A
100
AcDbVisualStyle
  2
Realistic
 70
     8
177
     2
291
     0
 71
     2
176
     1
 72
     3
176
     1
 73
     0
176
     1
 90
        2
176
     1
 40
0.6
176
     1
 41
30.0
176
     1
 62
     5
 63
     7
421
 16777215
176
     1
 74
     0
176
     1
 91
        0
176
     1
 64
     7
176
     1
 65
   257
176
     1
 75
     1
176
     1
175
     1
176
     1
 42
1.0
176
     1
 92
        8
176
     1
 66
   257
176
     1
 43
1.0
176
     1
 76
     1
176
     1
 77
     6
176
     1
 78
     2
176
     1
 67
     7
176
     1
 79
     3
176
     1
170
     0
176
     1
171
     0
176
     1
290
     0
176
     1
 93
       13
176
     1
 44
0.0
176
     1
173
     0
176
     1
  0
VISUALSTYLE
  5
42
102
{ACAD_REACTORS
330
2A
102
}
102
{ACAD_XDICTIONARY
360
26F
102
}
330
2A
100
AcDbVisualStyle
  2
Shaded
 70
    27
177
     2
291
     0
 71
     2
176
     1
 72
     2
176
     1
 73
     1
176
     1
 90
        2
176
     1
 40
0.6
176
     1
 41
30.0
176
     1
 62
     5
 63
     7
421
 16777215
176
     1
 74
     0
176
     1
 91
        4
176
     1
 64
     7
176
     1
 65
   257
176
     1
 75
     1
176
     1
175
     1
176
     1
 42
1.0
176
     1
 92
        8
176
     1
 66
   257
176
     1
 43
1.0
176
     1
 76
     1
176
     1
 77
     6
176
     1
 78
     2
176
     1
 67
     8
425
  7895160
176
     1
 79
     3
176
     1
170
     0
176
     1
171
     0
176
     1
290
     0
176
     1
 93
        5
176
     1
 44
0.0
176
     1
173
     0
176
     1
  0
VISUALSTYLE
  5
41
102
{ACAD_REACTORS
330
2A
102
}
102
{ACAD_XDICTIONARY
360
26D
102
}
330
2A
100
AcDbVisualStyle
  2
Shaded with edges
 70
    26
177
     2
291
     0
 71
     2
176
     1
 72
     2
176
     1
 73
     1
176
     1
 90
        2
176
     1
 40
0.6
176
     1
 41
30.0
176
     1
 62
     5
 63
     7
421
 16777215
176
     1
 74
     1
176
     1
 91
       10
176
     1
 64
     7
176
     1
 65
   257
176
     1
 75
     2
176
     1
175
     1
176
     1
 42
1.0
176
     1
 92
        8
176
     1
 66
   257
176
     1
 43
1.0
176
     1
 76
     1
176
     1
 77
     6
176
     1
 78
     2
176
     1
 67
     7
176
     1
 79
     3
176
     1
170
     0
176
     1
171
     0
176
     1
290
     0
176
     1
 93
        5
176
     1
 44
0.0
176
     1
173
     0
176
     1
  0
VISUALSTYLE
  5
3E
102
{ACAD_REACTORS
330
2A
102
}
102
{ACAD_XDICTIONARY
360
267
102
}
330
2A
100
AcDbVisualStyle
  2
Shades of Gray
 70
    23
177
     2
291
     0
 71
     2
176
     1
 72
     2
176
     1
 73
     3
176
     1
 90
        0
176
     1
 40
0.6
176
     1
 41
30.0
176
     1
 62
     5
 63
     7
421
 16777215
176
     1
 74
     2
176
     1
 91
        2
176
     1
 64
     7
176
     1
 65
     7
176
     1
 75
     1
176
     1
175
     1
176
     1
 42
40.0
176
     1
 92
        8
176
     1
 66
     7
176
     1
 43
1.0
176
     1
 76
     1
176
     1
 77
     6
176
     1
 78
     2
176
     1
 67
     7
176
     1
 79
     3
176
     1
170
     0
176
     1
171
     0
176
     1
290
     0
176
     1
 93
        1
176
     1
 44
0.0
176
     1
173
     0
176
     1
  0
VISUALSTYLE
  5
3F
102
{ACAD_REACTORS
330
2A
102
}
102
{ACAD_XDICTIONARY
360
269
102
}
330
2A
100
AcDbVisualStyle
  2
Sketchy
 70
    24
177
     2
291
     0
 71
     1
176
     1
 72
     2
176
     1
 73
     2
176
     1
 90
        0
176
     1
 40
0.6
176
     1
 41
30.0
176
     1
 62
     5
 63
     7
421
 16777215
176
     1
 74
     2
176
     1
 91
        2
176
     1
 64
     7
176
     1
 65
     7
176
     1
 75
     1
176
     1
175
     1
176
     1
 42
40.0
176
     1
 92
       11
176
     1
 66
     7
176
     1
 43
1.0
176
     1
 76
     1
176
     1
 77
     6
176
     1
 78
     2
176
     1
 67
     7
176
     1
 79
     6
176
     1
170
     0
176
     1
171
     0
176
     1
290
     0
176
     1
 93
        1
176
     1
 44
0.0
176
     1
173
     0
176
     1
  0
VISUALSTYLE
  5
37
102
{ACAD_REACTORS
330
2A
102
}
102
{ACAD_XDICTIONARY
360
259
102
}
330
2A
100
AcDbVisualStyle
  2
Thicken
 70
    13
177
     2
291
     1
 71
     2
176
     1
 72
     2
176
     1
 73
     0
176
     1
 90
        0
176
     1
 40
0.6
176
     1
 41
30.0
176
     1
 62
     5
 63
     7
421
 16777215
176
     1
 74
     1
176
     1
 91
        4
176
     1
 64
     7
176
     1
 65
   257
176
     1
 75
     1
176
     1
175
     1
176
     1
 42
1.0
176
     1
 92
       12
176
     1
 66
     7
176
     1
 43
1.0
176
     1
 76
     1
176
     1
 77
     6
176
     1
 78
     2
176
     1
 67
     7
176
     1
 79
     5
176
     1
170
     0
176
     1
171
     0
176
     1
290
     0
176
     1
 93
        1
176
     1
 44
0.0
176
     1
173
     0
176
     1
  0
VISUALSTYLE
  5
30
102
{ACAD_REACTORS
330
2A
102
}
102
{ACAD_XDICTIONARY
360
24B
102
}
330
2A
100
AcDbVisualStyle
  2
Wireframe
 70
     5
177
     2
291
     0
 71
     0
176
     1
 72
     2
176
     1
 73
     0
176
     1
 90
        0
176
     1
 40
0.6
176
     1
 41
30.0
176
     1
 62
     5
 63
     7
421
 16777215
176
     1
 74
     1
176
     1
 91
        4
176
     1
 64
     7
176
     1
 65
   257
176
     1
 75
     1
176
     1
175
     1
176
     1
 42
1.0
176
     1
 92
        0
176
     1
 66
   257
176
     1
 43
1.0
176
     1
 76
     1
176
     1
 77
     6
176
     1
 78
     2
176
     1
 67
     7
176
     1
 79
     3
176
     1
170
     0
176
     1
171
     0
176
     1
290
     0
176
     1
 93
        1
176
     1
 44
0.0
176
     1
173
     0
176
     1
  0
VISUALSTYLE
  5
40
102
{ACAD_REACTORS
330
2A
102
}
102
{ACAD_XDICTIONARY
360
26B
102
}
330
2A
100
AcDbVisualStyle
  2
X-Ray
 70
    25
177
     2
291
     0
 71
     2
176
     1
 72
     2
176
     1
 73
     1
176
     1
 90
        1
176
     1
 40
0.5
176
     1
 41
30.0
176
     1
 62
     5
 63
     7
421
 16777215
176
     1
 74
     1
176
     1
 91
        0
176
     1
 64
     7
176
     1
 65
   257
176
     1
 75
     1
176
     1
175
     1
176
     1
 42
1.0
176
     1
 92
        8
176
     1
 66
     7
176
     1
 43
1.0
176
     1
 76
     1
176
     1
 77
     6
176
     1
 78
     2
176
     1
 67
     7
176
     1
 79
     3
176
     1
170
     0
176
     1
171
     0
176
     1
290
     0
176
     1
 93
       13
176
     1
 44
0.0
176
     1
173
     0
176
     1
  0
DICTIONARYVAR
  5
240
102
{ACAD_REACTORS
330
23F
102
}
330
23F
100
DictionaryVariables
280
     0
  1
1:1
  0
DICTIONARYVAR
  5
276
102
{ACAD_REACTORS
330
23F
102
}
330
23F
100
DictionaryVariables
280
     0
  1
Standard
  0
DICTIONARYVAR
  5
275
102
{ACAD_REACTORS
330
23F
102
}
330
23F
100
DictionaryVariables
280
     0
  1
Standard
  0
DICTIONARYVAR
  5
27A
102
{ACAD_REACTORS
330
23F
102
}
330
23F
100
DictionaryVariables
280
     0
  1
6.000000
  0
DICTIONARYVAR
  5
279
102
{ACAD_REACTORS
330
23F
102
}
330
23F
100
DictionaryVariables
280
     0
  1
0
  0
DICTIONARY
  5
271
330
6A
100
AcDbDictionary
280
     1
281
     1
  3
ACAD_ROUNDTRIP_2008_TABLESTYLE_CELLSTYLEMAP
360
272
  0
DICTIONARY
  5
249
330
2F
100
AcDbDictionary
280
     1
281
     1
  3
ACAD_XREC_ROUNDTRIP
360
24A
  0
DICTIONARY
  5
24F
330
32
100
AcDbDictionary
280
     1
281
     1
  3
ACAD_XREC_ROUNDTRIP
360
250
  0
DICTIONARY
  5
257
330
36
100
AcDbDictionary
280
     1
281
     1
  3
ACAD_XREC_ROUNDTRIP
360
258
  0
DICTIONARY
  5
25F
330
3A
100
AcDbDictionary
280
     1
281
     1
  3
ACAD_XREC_ROUNDTRIP
360
260
  0
DICTIONARY
  5
253
330
34
100
AcDbDictionary
280
     1
281
     1
  3
ACAD_XREC_ROUNDTRIP
360
254
  0
DICTIONARY
  5
255
330
35
100
AcDbDictionary
280
     1
281
     1
  3
ACAD_XREC_ROUNDTRIP
360
256
  0
DICTIONARY
  5
265
330
3D
100
AcDbDictionary
280
     1
281
     1
  3
ACAD_XREC_ROUNDTRIP
360
266
  0
DICTIONARY
  5
25D
330
39
100
AcDbDictionary
280
     1
281
     1
  3
ACAD_XREC_ROUNDTRIP
360
25E
  0
DICTIONARY
  5
241
330
2B
100
AcDbDictionary
280
     1
281
     1
  3
ACAD_XREC_ROUNDTRIP
360
242
  0
DICTIONARY
  5
243
330
2C
100
AcDbDictionary
280
     1
281
     1
  3
ACAD_XREC_ROUNDTRIP
360
244
  0
DICTIONARY
  5
245
330
2D
100
AcDbDictionary
280
     1
281
     1
  3
ACAD_XREC_ROUNDTRIP
360
246
  0
DICTIONARY
  5
247
330
2E
100
AcDbDictionary
280
     1
281
     1
  3
ACAD_XREC_ROUNDTRIP
360
248
  0
DICTIONARY
  5
24D
330
31
100
AcDbDictionary
280
     1
281
     1
  3
ACAD_XREC_ROUNDTRIP
360
24E
  0
DICTIONARY
  5
261
330
3B
100
AcDbDictionary
280
     1
281
     1
  3
ACAD_XREC_ROUNDTRIP
360
262
  0
DICTIONARY
  5
25B
330
38
100
AcDbDictionary
280
     1
281
     1
  3
ACAD_XREC_ROUNDTRIP
360
25C
  0
DICTIONARY
  5
263
330
3C
100
AcDbDictionary
280
     1
281
     1
  3
ACAD_XREC_ROUNDTRIP
360
264
  0
DICTIONARY
  5
251
330
33
100
AcDbDictionary
280
     1
281
     1
  3
ACAD_XREC_ROUNDTRIP
360
252
  0
DICTIONARY
  5
26F
330
42
100
AcDbDictionary
280
     1
281
     1
  3
ACAD_XREC_ROUNDTRIP
360
270
  0
DICTIONARY
  5
26D
330
41
100
AcDbDictionary
280
     1
281
     1
  3
ACAD_XREC_ROUNDTRIP
360
26E
  0
DICTIONARY
  5
267
330
3E
100
AcDbDictionary
280
     1
281
     1
  3
ACAD_XREC_ROUNDTRIP
360
268
  0
DICTIONARY
  5
269
330
3F
100
AcDbDictionary
280
     1
281
     1
  3
ACAD_XREC_ROUNDTRIP
360
26A
  0
DICTIONARY
  5
259
330
37
100
AcDbDictionary
280
     1
281
     1
  3
ACAD_XREC_ROUNDTRIP
360
25A
  0
DICTIONARY
  5
24B
330
30
100
AcDbDictionary
280
     1
281
     1
  3
ACAD_XREC_ROUNDTRIP
360
24C
  0
DICTIONARY
  5
26B
330
40
100
AcDbDictionary
280
     1
281
     1
  3
ACAD_XREC_ROUNDTRIP
360
26C
  0
CELLSTYLEMAP
  5
272
102
{ACAD_REACTORS
330
271
102
}
330
271
100
AcDbCellStyleMap
 90
        3
300
CELLSTYLE
  1
TABLEFORMAT_BEGIN
 90
        5
170
     1
 91
        0
 92
    32768
 62
   257
 93
        1
300
CONTENTFORMAT
  1
CONTENTFORMAT_BEGIN
 90
        0
 91
        0
 92
        4
 93
        0
300

 40
0.0
140
1.0
 94
        5
 62
     0
340
11
144
6.0
309
CONTENTFORMAT_END
171
     1
301
MARGIN
  1
CELLMARGIN_BEGIN
 40
1.5
 40
1.5
 40
1.5
 40
1.5
 40
1.5
 40
1.5
309
CELLMARGIN_END
 94
        6
 95
        1
302
GRIDFORMAT
  1
GRIDFORMAT_BEGIN
 90
        0
 91
        1
 62
     0
 92
       -2
340
14
 93
        0
 40
0.045
309
GRIDFORMAT_END
 95
        2
302
GRIDFORMAT
  1
GRIDFORMAT_BEGIN
 90
        0
 91
        1
 62
     0
 92
       -2
340
14
 93
        0
 40
0.045
309
GRIDFORMAT_END
 95
        4
302
GRIDFORMAT
  1
GRIDFORMAT_BEGIN
 90
        0
 91
        1
 62
     0
 92
       -2
340
14
 93
        0
 40
0.045
309
GRIDFORMAT_END
 95
        8
302
GRIDFORMAT
  1
GRIDFORMAT_BEGIN
 90
        0
 91
        1
 62
     0
 92
       -2
340
14
 93
        0
 40
0.045
309
GRIDFORMAT_END
 95
       16
302
GRIDFORMAT
  1
GRIDFORMAT_BEGIN
 90
        0
 91
        1
 62
     0
 92
       -2
340
14
 93
        0
 40
0.045
309
GRIDFORMAT_END
 95
       32
302
GRIDFORMAT
  1
GRIDFORMAT_BEGIN
 90
        0
 91
        1
 62
     0
 92
       -2
340
14
 93
        0
 40
0.045
309
GRIDFORMAT_END
309
TABLEFORMAT_END
  1
CELLSTYLE_BEGIN
 90
        1
 91
        1
300
_TITLE
309
CELLSTYLE_END
300
CELLSTYLE
  1
TABLEFORMAT_BEGIN
 90
        5
170
     1
 91
        0
 92
        0
 62
   257
 93
        1
300
CONTENTFORMAT
  1
CONTENTFORMAT_BEGIN
 90
        0
 91
        0
 92
        4
 93
        0
300

 40
0.0
140
1.0
 94
        5
 62
     0
340
11
144
4.5
309
CONTENTFORMAT_END
171
     1
301
MARGIN
  1
CELLMARGIN_BEGIN
 40
1.5
 40
1.5
 40
1.5
 40
1.5
 40
1.5
 40
1.5
309
CELLMARGIN_END
 94
        6
 95
        1
302
GRIDFORMAT
  1
GRIDFORMAT_BEGIN
 90
        0
 91
        1
 62
     0
 92
       -2
340
14
 93
        0
 40
0.045
309
GRIDFORMAT_END
 95
        2
302
GRIDFORMAT
  1
GRIDFORMAT_BEGIN
 90
        0
 91
        1
 62
     0
 92
       -2
340
14
 93
        0
 40
0.045
309
GRIDFORMAT_END
 95
        4
302
GRIDFORMAT
  1
GRIDFORMAT_BEGIN
 90
        0
 91
        1
 62
     0
 92
       -2
340
14
 93
        0
 40
0.045
309
GRIDFORMAT_END
 95
        8
302
GRIDFORMAT
  1
GRIDFORMAT_BEGIN
 90
        0
 91
        1
 62
     0
 92
       -2
340
14
 93
        0
 40
0.045
309
GRIDFORMAT_END
 95
       16
302
GRIDFORMAT
  1
GRIDFORMAT_BEGIN
 90
        0
 91
        1
 62
     0
 92
       -2
340
14
 93
        0
 40
0.045
309
GRIDFORMAT_END
 95
       32
302
GRIDFORMAT
  1
GRIDFORMAT_BEGIN
 90
        0
 91
        1
 62
     0
 92
       -2
340
14
 93
        0
 40
0.045
309
GRIDFORMAT_END
309
TABLEFORMAT_END
  1
CELLSTYLE_BEGIN
 90
        2
 91
        1
300
_HEADER
309
CELLSTYLE_END
300
CELLSTYLE
  1
TABLEFORMAT_BEGIN
 90
        5
170
     1
 91
        0
 92
        0
 62
   257
 93
        1
300
CONTENTFORMAT
  1
CONTENTFORMAT_BEGIN
 90
        0
 91
        0
 92
        4
 93
        0
300

 40
0.0
140
1.0
 94
        2
 62
     0
340
11
144
4.5
309
CONTENTFORMAT_END
171
     1
301
MARGIN
  1
CELLMARGIN_BEGIN
 40
1.5
 40
1.5
 40
1.5
 40
1.5
 40
1.5
 40
1.5
309
CELLMARGIN_END
 94
        6
 95
        1
302
GRIDFORMAT
  1
GRIDFORMAT_BEGIN
 90
        0
 91
        1
 62
     0
 92
       -2
340
14
 93
        0
 40
0.045
309
GRIDFORMAT_END
 95
        2
302
GRIDFORMAT
  1
GRIDFORMAT_BEGIN
 90
        0
 91
        1
 62
     0
 92
       -2
340
14
 93
        0
 40
0.045
309
GRIDFORMAT_END
 95
        4
302
GRIDFORMAT
  1
GRIDFORMAT_BEGIN
 90
        0
 91
        1
 62
     0
 92
       -2
340
14
 93
        0
 40
0.045
309
GRIDFORMAT_END
 95
        8
302
GRIDFORMAT
  1
GRIDFORMAT_BEGIN
 90
        0
 91
        1
 62
     0
 92
       -2
340
14
 93
        0
 40
0.045
309
GRIDFORMAT_END
 95
       16
302
GRIDFORMAT
  1
GRIDFORMAT_BEGIN
 90
        0
 91
        1
 62
     0
 92
       -2
340
14
 93
        0
 40
0.045
309
GRIDFORMAT_END
 95
       32
302
GRIDFORMAT
  1
GRIDFORMAT_BEGIN
 90
        0
 91
        1
 62
     0
 92
       -2
340
14
 93
        0
 40
0.045
309
GRIDFORMAT_END
309
TABLEFORMAT_END
  1
CELLSTYLE_BEGIN
 90
        3
 91
        2
300
_DATA
309
CELLSTYLE_END
  0
XRECORD
  5
24A
102
{ACAD_REACTORS
330
249
102
}
330
249
100
AcDbXrecord
280
     1
102
RTVSPost2010Prop28
280
     1
102
RTVSPost2010PropOp28
 70
     1
102
RTVSPost2010Prop29
280
     1
102
RTVSPost2010PropOp29
 70
     1
102
RTVSPost2010Prop30
280
     0
102
RTVSPost2010PropOp30
 70
     1
102
RTVSPost2010Prop31
280
     0
102
RTVSPost2010PropOp31
 70
     1
102
RTVSPost2010Prop32
280
     0
102
RTVSPost2010PropOp32
 70
     1
102
RTVSPost2010Prop33
280
     0
102
RTVSPost2010PropOp33
 70
     1
102
RTVSPost2010Prop34
280
     0
102
RTVSPost2010PropOp34
 70
     1
102
RTVSPost2010Prop35
280
     0
102
RTVSPost2010PropOp35
 70
     1
102
RTVSPost2010Prop36
280
     0
102
RTVSPost2010PropOp36
 70
     1
102
RTVSPost2010Prop37
 90
       50
102
RTVSPost2010PropOp37
 70
     1
102
RTVSPost2010Prop38
140
0.0
102
RTVSPost2010PropOp38
 70
     1
102
RTVSPost2010Prop39
140
1.0
102
RTVSPost2010PropOp39
 70
     1
102
RTVSPost2010Prop40
 90
        0
102
RTVSPost2010PropOp40
 70
     1
102
RTVSPost2010Prop41ColorIndex
 90
       18
102
RTVSPost2010Prop41ColorRGB
 90
        0
102
RTVSPost2010PropOp41
 70
     1
102
RTVSPost2010Prop42
 90
       50
102
RTVSPost2010PropOp42
 70
     1
102
RTVSPost2010Prop43
 90
        3
102
RTVSPost2010PropOp43
 70
     1
102
RTVSPost2010Prop44ColorIndex
 90
        5
102
RTVSPost2010Prop44ColorRGB
 90
      255
102
RTVSPost2010PropOp44
 70
     1
102
RTVSPost2010Prop45
280
     0
102
RTVSPost2010PropOp45
 70
     1
102
RTVSPost2010Prop46
 90
       50
102
RTVSPost2010PropOp46
 70
     1
102
RTVSPost2010Prop47
 90
       50
102
RTVSPost2010PropOp47
 70
     1
102
RTVSPost2010Prop48
 90
       50
102
RTVSPost2010PropOp48
 70
     1
102
RTVSPost2010Prop49
280
     0
102
RTVSPost2010PropOp49
 70
     1
102
RTVSPost2010Prop50
 90
       50
102
RTVSPost2010PropOp50
 70
     1
102
RTVSPost2010Prop51ColorIndex
 90
      256
102
RTVSPost2010Prop51ColorRGB
 90
-16777216
102
RTVSPost2010PropOp51
 70
     0
102
RTVSPost2010Prop52
140
1.0
102
RTVSPost2010PropOp52
 70
     0
102
RTVSPost2010Prop53
 90
        2
102
RTVSPost2010PropOp53
 70
     1
102
RTVSPost2010Prop54
  1
strokes_ogs.tif
102
RTVSPost2010PropOp54
 70
     1
102
RTVSPost2010Prop55
280
     0
102
RTVSPost2010PropOp55
 70
     1
102
RTVSPost2010Prop56
140
1.0
102
RTVSPost2010PropOp56
 70
     1
102
RTVSPost2010Prop57
140
1.0
102
RTVSPost2010PropOp57
 70
     1
  0
XRECORD
  5
250
102
{ACAD_REACTORS
330
24F
102
}
330
24F
100
AcDbXrecord
280
     1
102
RTVSPost2010Prop28
280
     0
102
RTVSPost2010PropOp28
 70
     1
102
RTVSPost2010Prop29
280
     1
102
RTVSPost2010PropOp29
 70
     1
102
RTVSPost2010Prop30
280
     1
102
RTVSPost2010PropOp30
 70
     1
102
RTVSPost2010Prop31
280
     0
102
RTVSPost2010PropOp31
 70
     1
102
RTVSPost2010Prop32
280
     0
102
RTVSPost2010PropOp32
 70
     1
102
RTVSPost2010Prop33
280
     0
102
RTVSPost2010PropOp33
 70
     1
102
RTVSPost2010Prop34
280
     0
102
RTVSPost2010PropOp34
 70
     1
102
RTVSPost2010Prop35
280
     0
102
RTVSPost2010PropOp35
 70
     1
102
RTVSPost2010Prop36
280
     0
102
RTVSPost2010PropOp36
 70
     1
102
RTVSPost2010Prop37
 90
       50
102
RTVSPost2010PropOp37
 70
     1
102
RTVSPost2010Prop38
140
0.0
102
RTVSPost2010PropOp38
 70
     1
102
RTVSPost2010Prop39
140
1.0
102
RTVSPost2010PropOp39
 70
     1
102
RTVSPost2010Prop40
 90
        0
102
RTVSPost2010PropOp40
 70
     1
102
RTVSPost2010Prop41ColorIndex
 90
       18
102
RTVSPost2010Prop41ColorRGB
 90
        0
102
RTVSPost2010PropOp41
 70
     1
102
RTVSPost2010Prop42
 90
       50
102
RTVSPost2010PropOp42
 70
     1
102
RTVSPost2010Prop43
 90
        3
102
RTVSPost2010PropOp43
 70
     1
102
RTVSPost2010Prop44ColorIndex
 90
        5
102
RTVSPost2010Prop44ColorRGB
 90
      255
102
RTVSPost2010PropOp44
 70
     1
102
RTVSPost2010Prop45
280
     0
102
RTVSPost2010PropOp45
 70
     1
102
RTVSPost2010Prop46
 90
       50
102
RTVSPost2010PropOp46
 70
     1
102
RTVSPost2010Prop47
 90
       50
102
RTVSPost2010PropOp47
 70
     1
102
RTVSPost2010Prop48
 90
       50
102
RTVSPost2010PropOp48
 70
     1
102
RTVSPost2010Prop49
280
     0
102
RTVSPost2010PropOp49
 70
     1
102
RTVSPost2010Prop50
 90
       50
102
RTVSPost2010PropOp50
 70
     1
102
RTVSPost2010Prop51ColorIndex
 90
      256
102
RTVSPost2010Prop51ColorRGB
 90
-16777216
102
RTVSPost2010PropOp51
 70
     0
102
RTVSPost2010Prop52
140
1.0
102
RTVSPost2010PropOp52
 70
     0
102
RTVSPost2010Prop53
 90
        2
102
RTVSPost2010PropOp53
 70
     1
102
RTVSPost2010Prop54
  1
strokes_ogs.tif
102
RTVSPost2010PropOp54
 70
     1
102
RTVSPost2010Prop55
280
     0
102
RTVSPost2010PropOp55
 70
     1
102
RTVSPost2010Prop56
140
1.0
102
RTVSPost2010PropOp56
 70
     1
102
RTVSPost2010Prop57
140
1.0
102
RTVSPost2010PropOp57
 70
     1
  0
XRECORD
  5
258
102
{ACAD_REACTORS
330
257
102
}
330
257
100
AcDbXrecord
280
     1
102
RTVSPost2010Prop28
280
     0
102
RTVSPost2010PropOp28
 70
     1
102
RTVSPost2010Prop29
280
     1
102
RTVSPost2010PropOp29
 70
     1
102
RTVSPost2010Prop30
280
     1
102
RTVSPost2010PropOp30
 70
     1
102
RTVSPost2010Prop31
280
     0
102
RTVSPost2010PropOp31
 70
     1
102
RTVSPost2010Prop32
280
     0
102
RTVSPost2010PropOp32
 70
     1
102
RTVSPost2010Prop33
280
     0
102
RTVSPost2010PropOp33
 70
     1
102
RTVSPost2010Prop34
280
     0
102
RTVSPost2010PropOp34
 70
     1
102
RTVSPost2010Prop35
280
     0
102
RTVSPost2010PropOp35
 70
     1
102
RTVSPost2010Prop36
280
     0
102
RTVSPost2010PropOp36
 70
     1
102
RTVSPost2010Prop37
 90
       50
102
RTVSPost2010PropOp37
 70
     1
102
RTVSPost2010Prop38
140
0.0
102
RTVSPost2010PropOp38
 70
     1
102
RTVSPost2010Prop39
140
1.0
102
RTVSPost2010PropOp39
 70
     1
102
RTVSPost2010Prop40
 90
        0
102
RTVSPost2010PropOp40
 70
     1
102
RTVSPost2010Prop41ColorIndex
 90
       18
102
RTVSPost2010Prop41ColorRGB
 90
        0
102
RTVSPost2010PropOp41
 70
     1
102
RTVSPost2010Prop42
 90
       50
102
RTVSPost2010PropOp42
 70
     1
102
RTVSPost2010Prop43
 90
        3
102
RTVSPost2010PropOp43
 70
     1
102
RTVSPost2010Prop44ColorIndex
 90
        5
102
RTVSPost2010Prop44ColorRGB
 90
      255
102
RTVSPost2010PropOp44
 70
     1
102
RTVSPost2010Prop45
280
     0
102
RTVSPost2010PropOp45
 70
     1
102
RTVSPost2010Prop46
 90
       50
102
RTVSPost2010PropOp46
 70
     1
102
RTVSPost2010Prop47
 90
       50
102
RTVSPost2010PropOp47
 70
     1
102
RTVSPost2010Prop48
 90
       50
102
RTVSPost2010PropOp48
 70
     1
102
RTVSPost2010Prop49
280
     0
102
RTVSPost2010PropOp49
 70
     1
102
RTVSPost2010Prop50
 90
       50
102
RTVSPost2010PropOp50
 70
     1
102
RTVSPost2010Prop51ColorIndex
 90
      256
102
RTVSPost2010Prop51ColorRGB
 90
-16777216
102
RTVSPost2010PropOp51
 70
     0
102
RTVSPost2010Prop52
140
1.0
102
RTVSPost2010PropOp52
 70
     0
102
RTVSPost2010Prop53
 90
        2
102
RTVSPost2010PropOp53
 70
     1
102
RTVSPost2010Prop54
  1
strokes_ogs.tif
102
RTVSPost2010PropOp54
 70
     1
102
RTVSPost2010Prop55
280
     0
102
RTVSPost2010PropOp55
 70
     1
102
RTVSPost2010Prop56
140
1.0
102
RTVSPost2010PropOp56
 70
     1
102
RTVSPost2010Prop57
140
1.0
102
RTVSPost2010PropOp57
 70
     1
  0
XRECORD
  5
260
102
{ACAD_REACTORS
330
25F
102
}
330
25F
100
AcDbXrecord
280
     1
102
RTVSPost2010Prop28
280
     0
102
RTVSPost2010PropOp28
 70
     1
102
RTVSPost2010Prop29
280
     1
102
RTVSPost2010PropOp29
 70
     1
102
RTVSPost2010Prop30
280
     1
102
RTVSPost2010PropOp30
 70
     1
102
RTVSPost2010Prop31
280
     0
102
RTVSPost2010PropOp31
 70
     1
102
RTVSPost2010Prop32
280
     0
102
RTVSPost2010PropOp32
 70
     1
102
RTVSPost2010Prop33
280
     0
102
RTVSPost2010PropOp33
 70
     1
102
RTVSPost2010Prop34
280
     0
102
RTVSPost2010PropOp34
 70
     1
102
RTVSPost2010Prop35
280
     0
102
RTVSPost2010PropOp35
 70
     1
102
RTVSPost2010Prop36
280
     0
102
RTVSPost2010PropOp36
 70
     1
102
RTVSPost2010Prop37
 90
       50
102
RTVSPost2010PropOp37
 70
     1
102
RTVSPost2010Prop38
140
0.0
102
RTVSPost2010PropOp38
 70
     1
102
RTVSPost2010Prop39
140
1.0
102
RTVSPost2010PropOp39
 70
     1
102
RTVSPost2010Prop40
 90
        0
102
RTVSPost2010PropOp40
 70
     1
102
RTVSPost2010Prop41ColorIndex
 90
       18
102
RTVSPost2010Prop41ColorRGB
 90
        0
102
RTVSPost2010PropOp41
 70
     1
102
RTVSPost2010Prop42
 90
       50
102
RTVSPost2010PropOp42
 70
     1
102
RTVSPost2010Prop43
 90
        3
102
RTVSPost2010PropOp43
 70
     1
102
RTVSPost2010Prop44ColorIndex
 90
        5
102
RTVSPost2010Prop44ColorRGB
 90
      255
102
RTVSPost2010PropOp44
 70
     1
102
RTVSPost2010Prop45
280
     0
102
RTVSPost2010PropOp45
 70
     1
102
RTVSPost2010Prop46
 90
       50
102
RTVSPost2010PropOp46
 70
     1
102
RTVSPost2010Prop47
 90
       50
102
RTVSPost2010PropOp47
 70
     1
102
RTVSPost2010Prop48
 90
       50
102
RTVSPost2010PropOp48
 70
     1
102
RTVSPost2010Prop49
280
     0
102
RTVSPost2010PropOp49
 70
     1
102
RTVSPost2010Prop50
 90
       50
102
RTVSPost2010PropOp50
 70
     1
102
RTVSPost2010Prop51ColorIndex
 90
      256
102
RTVSPost2010Prop51ColorRGB
 90
-16777216
102
RTVSPost2010PropOp51
 70
     0
102
RTVSPost2010Prop52
140
1.0
102
RTVSPost2010PropOp52
 70
     0
102
RTVSPost2010Prop53
 90
        2
102
RTVSPost2010PropOp53
 70
     1
102
RTVSPost2010Prop54
  1
strokes_ogs.tif
102
RTVSPost2010PropOp54
 70
     1
102
RTVSPost2010Prop55
280
     0
102
RTVSPost2010PropOp55
 70
     1
102
RTVSPost2010Prop56
140
1.0
102
RTVSPost2010PropOp56
 70
     1
102
RTVSPost2010Prop57
140
1.0
102
RTVSPost2010PropOp57
 70
     1
  0
XRECORD
  5
254
102
{ACAD_REACTORS
330
253
102
}
330
253
100
AcDbXrecord
280
     1
102
RTVSPost2010Prop28
280
     0
102
RTVSPost2010PropOp28
 70
     1
102
RTVSPost2010Prop29
280
     1
102
RTVSPost2010PropOp29
 70
     1
102
RTVSPost2010Prop30
280
     1
102
RTVSPost2010PropOp30
 70
     1
102
RTVSPost2010Prop31
280
     0
102
RTVSPost2010PropOp31
 70
     1
102
RTVSPost2010Prop32
280
     0
102
RTVSPost2010PropOp32
 70
     1
102
RTVSPost2010Prop33
280
     0
102
RTVSPost2010PropOp33
 70
     1
102
RTVSPost2010Prop34
280
     0
102
RTVSPost2010PropOp34
 70
     1
102
RTVSPost2010Prop35
280
     0
102
RTVSPost2010PropOp35
 70
     1
102
RTVSPost2010Prop36
280
     0
102
RTVSPost2010PropOp36
 70
     1
102
RTVSPost2010Prop37
 90
       50
102
RTVSPost2010PropOp37
 70
     1
102
RTVSPost2010Prop38
140
0.0
102
RTVSPost2010PropOp38
 70
     1
102
RTVSPost2010Prop39
140
1.0
102
RTVSPost2010PropOp39
 70
     1
102
RTVSPost2010Prop40
 90
        0
102
RTVSPost2010PropOp40
 70
     1
102
RTVSPost2010Prop41ColorIndex
 90
       18
102
RTVSPost2010Prop41ColorRGB
 90
        0
102
RTVSPost2010PropOp41
 70
     1
102
RTVSPost2010Prop42
 90
       50
102
RTVSPost2010PropOp42
 70
     1
102
RTVSPost2010Prop43
 90
        3
102
RTVSPost2010PropOp43
 70
     1
102
RTVSPost2010Prop44ColorIndex
 90
        5
102
RTVSPost2010Prop44ColorRGB
 90
      255
102
RTVSPost2010PropOp44
 70
     1
102
RTVSPost2010Prop45
280
     0
102
RTVSPost2010PropOp45
 70
     1
102
RTVSPost2010Prop46
 90
       50
102
RTVSPost2010PropOp46
 70
     1
102
RTVSPost2010Prop47
 90
       50
102
RTVSPost2010PropOp47
 70
     1
102
RTVSPost2010Prop48
 90
       50
102
RTVSPost2010PropOp48
 70
     1
102
RTVSPost2010Prop49
280
     0
102
RTVSPost2010PropOp49
 70
     1
102
RTVSPost2010Prop50
 90
       50
102
RTVSPost2010PropOp50
 70
     1
102
RTVSPost2010Prop51ColorIndex
 90
      256
102
RTVSPost2010Prop51ColorRGB
 90
-16777216
102
RTVSPost2010PropOp51
 70
     0
102
RTVSPost2010Prop52
140
1.0
102
RTVSPost2010PropOp52
 70
     0
102
RTVSPost2010Prop53
 90
        2
102
RTVSPost2010PropOp53
 70
     1
102
RTVSPost2010Prop54
  1
strokes_ogs.tif
102
RTVSPost2010PropOp54
 70
     1
102
RTVSPost2010Prop55
280
     0
102
RTVSPost2010PropOp55
 70
     1
102
RTVSPost2010Prop56
140
1.0
102
RTVSPost2010PropOp56
 70
     1
102
RTVSPost2010Prop57
140
1.0
102
RTVSPost2010PropOp57
 70
     1
  0
XRECORD
  5
256
102
{ACAD_REACTORS
330
255
102
}
330
255
100
AcDbXrecord
280
     1
102
RTVSPost2010Prop28
280
     0
102
RTVSPost2010PropOp28
 70
     1
102
RTVSPost2010Prop29
280
     1
102
RTVSPost2010PropOp29
 70
     1
102
RTVSPost2010Prop30
280
     1
102
RTVSPost2010PropOp30
 70
     1
102
RTVSPost2010Prop31
280
     0
102
RTVSPost2010PropOp31
 70
     1
102
RTVSPost2010Prop32
280
     0
102
RTVSPost2010PropOp32
 70
     1
102
RTVSPost2010Prop33
280
     0
102
RTVSPost2010PropOp33
 70
     1
102
RTVSPost2010Prop34
280
     0
102
RTVSPost2010PropOp34
 70
     1
102
RTVSPost2010Prop35
280
     0
102
RTVSPost2010PropOp35
 70
     1
102
RTVSPost2010Prop36
280
     0
102
RTVSPost2010PropOp36
 70
     1
102
RTVSPost2010Prop37
 90
       50
102
RTVSPost2010PropOp37
 70
     1
102
RTVSPost2010Prop38
140
0.0
102
RTVSPost2010PropOp38
 70
     1
102
RTVSPost2010Prop39
140
1.0
102
RTVSPost2010PropOp39
 70
     1
102
RTVSPost2010Prop40
 90
        0
102
RTVSPost2010PropOp40
 70
     1
102
RTVSPost2010Prop41ColorIndex
 90
       18
102
RTVSPost2010Prop41ColorRGB
 90
        0
102
RTVSPost2010PropOp41
 70
     1
102
RTVSPost2010Prop42
 90
       50
102
RTVSPost2010PropOp42
 70
     1
102
RTVSPost2010Prop43
 90
        3
102
RTVSPost2010PropOp43
 70
     1
102
RTVSPost2010Prop44ColorIndex
 90
        5
102
RTVSPost2010Prop44ColorRGB
 90
      255
102
RTVSPost2010PropOp44
 70
     1
102
RTVSPost2010Prop45
280
     0
102
RTVSPost2010PropOp45
 70
     1
102
RTVSPost2010Prop46
 90
       50
102
RTVSPost2010PropOp46
 70
     1
102
RTVSPost2010Prop47
 90
       50
102
RTVSPost2010PropOp47
 70
     1
102
RTVSPost2010Prop48
 90
       50
102
RTVSPost2010PropOp48
 70
     1
102
RTVSPost2010Prop49
280
     0
102
RTVSPost2010PropOp49
 70
     1
102
RTVSPost2010Prop50
 90
       50
102
RTVSPost2010PropOp50
 70
     1
102
RTVSPost2010Prop51ColorIndex
 90
      256
102
RTVSPost2010Prop51ColorRGB
 90
-16777216
102
RTVSPost2010PropOp51
 70
     0
102
RTVSPost2010Prop52
140
1.0
102
RTVSPost2010PropOp52
 70
     0
102
RTVSPost2010Prop53
 90
        2
102
RTVSPost2010PropOp53
 70
     1
102
RTVSPost2010Prop54
  1
strokes_ogs.tif
102
RTVSPost2010PropOp54
 70
     1
102
RTVSPost2010Prop55
280
     0
102
RTVSPost2010PropOp55
 70
     1
102
RTVSPost2010Prop56
140
1.0
102
RTVSPost2010PropOp56
 70
     1
102
RTVSPost2010Prop57
140
1.0
102
RTVSPost2010PropOp57
 70
     1
  0
XRECORD
  5
266
102
{ACAD_REACTORS
330
265
102
}
330
265
100
AcDbXrecord
280
     1
102
RTVSPost2010Prop28
280
     0
102
RTVSPost2010PropOp28
 70
     0
102
RTVSPost2010Prop29
280
     1
102
RTVSPost2010PropOp29
 70
     0
102
RTVSPost2010Prop30
280
     1
102
RTVSPost2010PropOp30
 70
     0
102
RTVSPost2010Prop31
280
     0
102
RTVSPost2010PropOp31
 70
     0
102
RTVSPost2010Prop32
280
     0
102
RTVSPost2010PropOp32
 70
     0
102
RTVSPost2010Prop33
280
     0
102
RTVSPost2010PropOp33
 70
     0
102
RTVSPost2010Prop34
280
     0
102
RTVSPost2010PropOp34
 70
     0
102
RTVSPost2010Prop35
280
     0
102
RTVSPost2010PropOp35
 70
     0
102
RTVSPost2010Prop36
280
     0
102
RTVSPost2010PropOp36
 70
     0
102
RTVSPost2010Prop37
 90
       50
102
RTVSPost2010PropOp37
 70
     0
102
RTVSPost2010Prop38
140
0.0
102
RTVSPost2010PropOp38
 70
     0
102
RTVSPost2010Prop39
140
1.0
102
RTVSPost2010PropOp39
 70
     0
102
RTVSPost2010Prop40
 90
        0
102
RTVSPost2010PropOp40
 70
     0
102
RTVSPost2010Prop41ColorIndex
 90
       18
102
RTVSPost2010Prop41ColorRGB
 90
        0
102
RTVSPost2010PropOp41
 70
     0
102
RTVSPost2010Prop42
 90
       50
102
RTVSPost2010PropOp42
 70
     0
102
RTVSPost2010Prop43
 90
        3
102
RTVSPost2010PropOp43
 70
     0
102
RTVSPost2010Prop44ColorIndex
 90
        5
102
RTVSPost2010Prop44ColorRGB
 90
      255
102
RTVSPost2010PropOp44
 70
     0
102
RTVSPost2010Prop45
280
     0
102
RTVSPost2010PropOp45
 70
     0
102
RTVSPost2010Prop46
 90
       50
102
RTVSPost2010PropOp46
 70
     0
102
RTVSPost2010Prop47
 90
       50
102
RTVSPost2010PropOp47
 70
     0
102
RTVSPost2010Prop48
 90
       50
102
RTVSPost2010PropOp48
 70
     0
102
RTVSPost2010Prop49
280
     0
102
RTVSPost2010PropOp49
 70
     0
102
RTVSPost2010Prop50
 90
       50
102
RTVSPost2010PropOp50
 70
     0
102
RTVSPost2010Prop51ColorIndex
 90
      256
102
RTVSPost2010Prop51ColorRGB
 90
-16777216
102
RTVSPost2010PropOp51
 70
     0
102
RTVSPost2010Prop52
140
1.0
102
RTVSPost2010PropOp52
 70
     0
102
RTVSPost2010Prop53
 90
        2
102
RTVSPost2010PropOp53
 70
     0
102
RTVSPost2010Prop54
  1
strokes_ogs.tif
102
RTVSPost2010PropOp54
 70
     0
102
RTVSPost2010Prop55
280
     0
102
RTVSPost2010PropOp55
 70
     0
102
RTVSPost2010Prop56
140
1.0
102
RTVSPost2010PropOp56
 70
     0
102
RTVSPost2010Prop57
140
1.0
102
RTVSPost2010PropOp57
 70
     0
  0
XRECORD
  5
25E
102
{ACAD_REACTORS
330
25D
102
}
330
25D
100
AcDbXrecord
280
     1
102
RTVSPost2010Prop28
280
     0
102
RTVSPost2010PropOp28
 70
     1
102
RTVSPost2010Prop29
280
     1
102
RTVSPost2010PropOp29
 70
     1
102
RTVSPost2010Prop30
280
     1
102
RTVSPost2010PropOp30
 70
     1
102
RTVSPost2010Prop31
280
     0
102
RTVSPost2010PropOp31
 70
     1
102
RTVSPost2010Prop32
280
     0
102
RTVSPost2010PropOp32
 70
     1
102
RTVSPost2010Prop33
280
     0
102
RTVSPost2010PropOp33
 70
     1
102
RTVSPost2010Prop34
280
     0
102
RTVSPost2010PropOp34
 70
     1
102
RTVSPost2010Prop35
280
     0
102
RTVSPost2010PropOp35
 70
     1
102
RTVSPost2010Prop36
280
     0
102
RTVSPost2010PropOp36
 70
     1
102
RTVSPost2010Prop37
 90
       50
102
RTVSPost2010PropOp37
 70
     1
102
RTVSPost2010Prop38
140
0.0
102
RTVSPost2010PropOp38
 70
     1
102
RTVSPost2010Prop39
140
1.0
102
RTVSPost2010PropOp39
 70
     1
102
RTVSPost2010Prop40
 90
        0
102
RTVSPost2010PropOp40
 70
     1
102
RTVSPost2010Prop41ColorIndex
 90
       18
102
RTVSPost2010Prop41ColorRGB
 90
        0
102
RTVSPost2010PropOp41
 70
     1
102
RTVSPost2010Prop42
 90
       50
102
RTVSPost2010PropOp42
 70
     1
102
RTVSPost2010Prop43
 90
        3
102
RTVSPost2010PropOp43
 70
     1
102
RTVSPost2010Prop44ColorIndex
 90
        5
102
RTVSPost2010Prop44ColorRGB
 90
      255
102
RTVSPost2010PropOp44
 70
     1
102
RTVSPost2010Prop45
280
     0
102
RTVSPost2010PropOp45
 70
     1
102
RTVSPost2010Prop46
 90
       50
102
RTVSPost2010PropOp46
 70
     1
102
RTVSPost2010Prop47
 90
       50
102
RTVSPost2010PropOp47
 70
     1
102
RTVSPost2010Prop48
 90
       50
102
RTVSPost2010PropOp48
 70
     1
102
RTVSPost2010Prop49
280
     0
102
RTVSPost2010PropOp49
 70
     1
102
RTVSPost2010Prop50
 90
       50
102
RTVSPost2010PropOp50
 70
     1
102
RTVSPost2010Prop51ColorIndex
 90
      256
102
RTVSPost2010Prop51ColorRGB
 90
-16777216
102
RTVSPost2010PropOp51
 70
     0
102
RTVSPost2010Prop52
140
1.0
102
RTVSPost2010PropOp52
 70
     0
102
RTVSPost2010Prop53
 90
        2
102
RTVSPost2010PropOp53
 70
     1
102
RTVSPost2010Prop54
  1
strokes_ogs.tif
102
RTVSPost2010PropOp54
 70
     1
102
RTVSPost2010Prop55
280
     0
102
RTVSPost2010PropOp55
 70
     1
102
RTVSPost2010Prop56
140
1.0
102
RTVSPost2010PropOp56
 70
     1
102
RTVSPost2010Prop57
140
1.0
102
RTVSPost2010PropOp57
 70
     1
  0
XRECORD
  5
242
102
{ACAD_REACTORS
330
241
102
}
330
241
100
AcDbXrecord
280
     1
102
RTVSPost2010Prop28
280
     0
102
RTVSPost2010PropOp28
 70
     1
102
RTVSPost2010Prop29
280
     1
102
RTVSPost2010PropOp29
 70
     1
102
RTVSPost2010Prop30
280
     1
102
RTVSPost2010PropOp30
 70
     1
102
RTVSPost2010Prop31
280
     0
102
RTVSPost2010PropOp31
 70
     1
102
RTVSPost2010Prop32
280
     0
102
RTVSPost2010PropOp32
 70
     1
102
RTVSPost2010Prop33
280
     0
102
RTVSPost2010PropOp33
 70
     1
102
RTVSPost2010Prop34
280
     0
102
RTVSPost2010PropOp34
 70
     1
102
RTVSPost2010Prop35
280
     0
102
RTVSPost2010PropOp35
 70
     1
102
RTVSPost2010Prop36
280
     0
102
RTVSPost2010PropOp36
 70
     1
102
RTVSPost2010Prop37
 90
       50
102
RTVSPost2010PropOp37
 70
     1
102
RTVSPost2010Prop38
140
0.0
102
RTVSPost2010PropOp38
 70
     1
102
RTVSPost2010Prop39
140
1.0
102
RTVSPost2010PropOp39
 70
     1
102
RTVSPost2010Prop40
 90
        0
102
RTVSPost2010PropOp40
 70
     1
102
RTVSPost2010Prop41ColorIndex
 90
       18
102
RTVSPost2010Prop41ColorRGB
 90
        0
102
RTVSPost2010PropOp41
 70
     1
102
RTVSPost2010Prop42
 90
       50
102
RTVSPost2010PropOp42
 70
     1
102
RTVSPost2010Prop43
 90
        3
102
RTVSPost2010PropOp43
 70
     1
102
RTVSPost2010Prop44ColorIndex
 90
        5
102
RTVSPost2010Prop44ColorRGB
 90
      255
102
RTVSPost2010PropOp44
 70
     1
102
RTVSPost2010Prop45
280
     0
102
RTVSPost2010PropOp45
 70
     1
102
RTVSPost2010Prop46
 90
       50
102
RTVSPost2010PropOp46
 70
     1
102
RTVSPost2010Prop47
 90
       50
102
RTVSPost2010PropOp47
 70
     1
102
RTVSPost2010Prop48
 90
       50
102
RTVSPost2010PropOp48
 70
     1
102
RTVSPost2010Prop49
280
     0
102
RTVSPost2010PropOp49
 70
     1
102
RTVSPost2010Prop50
 90
       50
102
RTVSPost2010PropOp50
 70
     1
102
RTVSPost2010Prop51ColorIndex
 90
      256
102
RTVSPost2010Prop51ColorRGB
 90
-16777216
102
RTVSPost2010PropOp51
 70
     0
102
RTVSPost2010Prop52
140
1.0
102
RTVSPost2010PropOp52
 70
     0
102
RTVSPost2010Prop53
 90
        2
102
RTVSPost2010PropOp53
 70
     1
102
RTVSPost2010Prop54
  1
strokes_ogs.tif
102
RTVSPost2010PropOp54
 70
     1
102
RTVSPost2010Prop55
280
     0
102
RTVSPost2010PropOp55
 70
     1
102
RTVSPost2010Prop56
140
1.0
102
RTVSPost2010PropOp56
 70
     1
102
RTVSPost2010Prop57
140
1.0
102
RTVSPost2010PropOp57
 70
     1
  0
XRECORD
  5
244
102
{ACAD_REACTORS
330
243
102
}
330
243
100
AcDbXrecord
280
     1
102
RTVSPost2010Prop28
280
     0
102
RTVSPost2010PropOp28
 70
     1
102
RTVSPost2010Prop29
280
     1
102
RTVSPost2010PropOp29
 70
     1
102
RTVSPost2010Prop30
280
     1
102
RTVSPost2010PropOp30
 70
     1
102
RTVSPost2010Prop31
280
     0
102
RTVSPost2010PropOp31
 70
     1
102
RTVSPost2010Prop32
280
     0
102
RTVSPost2010PropOp32
 70
     1
102
RTVSPost2010Prop33
280
     0
102
RTVSPost2010PropOp33
 70
     1
102
RTVSPost2010Prop34
280
     0
102
RTVSPost2010PropOp34
 70
     1
102
RTVSPost2010Prop35
280
     0
102
RTVSPost2010PropOp35
 70
     1
102
RTVSPost2010Prop36
280
     0
102
RTVSPost2010PropOp36
 70
     1
102
RTVSPost2010Prop37
 90
       50
102
RTVSPost2010PropOp37
 70
     1
102
RTVSPost2010Prop38
140
0.0
102
RTVSPost2010PropOp38
 70
     1
102
RTVSPost2010Prop39
140
1.0
102
RTVSPost2010PropOp39
 70
     1
102
RTVSPost2010Prop40
 90
        0
102
RTVSPost2010PropOp40
 70
     1
102
RTVSPost2010Prop41ColorIndex
 90
       18
102
RTVSPost2010Prop41ColorRGB
 90
        0
102
RTVSPost2010PropOp41
 70
     1
102
RTVSPost2010Prop42
 90
       50
102
RTVSPost2010PropOp42
 70
     1
102
RTVSPost2010Prop43
 90
        3
102
RTVSPost2010PropOp43
 70
     1
102
RTVSPost2010Prop44ColorIndex
 90
        5
102
RTVSPost2010Prop44ColorRGB
 90
      255
102
RTVSPost2010PropOp44
 70
     1
102
RTVSPost2010Prop45
280
     0
102
RTVSPost2010PropOp45
 70
     1
102
RTVSPost2010Prop46
 90
       50
102
RTVSPost2010PropOp46
 70
     1
102
RTVSPost2010Prop47
 90
       50
102
RTVSPost2010PropOp47
 70
     1
102
RTVSPost2010Prop48
 90
       50
102
RTVSPost2010PropOp48
 70
     1
102
RTVSPost2010Prop49
280
     0
102
RTVSPost2010PropOp49
 70
     1
102
RTVSPost2010Prop50
 90
       50
102
RTVSPost2010PropOp50
 70
     1
102
RTVSPost2010Prop51ColorIndex
 90
      256
102
RTVSPost2010Prop51ColorRGB
 90
-16777216
102
RTVSPost2010PropOp51
 70
     0
102
RTVSPost2010Prop52
140
1.0
102
RTVSPost2010PropOp52
 70
     0
102
RTVSPost2010Prop53
 90
        2
102
RTVSPost2010PropOp53
 70
     1
102
RTVSPost2010Prop54
  1
strokes_ogs.tif
102
RTVSPost2010PropOp54
 70
     1
102
RTVSPost2010Prop55
280
     0
102
RTVSPost2010PropOp55
 70
     1
102
RTVSPost2010Prop56
140
1.0
102
RTVSPost2010PropOp56
 70
     1
102
RTVSPost2010Prop57
140
1.0
102
RTVSPost2010PropOp57
 70
     1
  0
XRECORD
  5
246
102
{ACAD_REACTORS
330
245
102
}
330
245
100
AcDbXrecord
280
     1
102
RTVSPost2010Prop28
280
     0
102
RTVSPost2010PropOp28
 70
     1
102
RTVSPost2010Prop29
280
     1
102
RTVSPost2010PropOp29
 70
     1
102
RTVSPost2010Prop30
280
     1
102
RTVSPost2010PropOp30
 70
     1
102
RTVSPost2010Prop31
280
     0
102
RTVSPost2010PropOp31
 70
     1
102
RTVSPost2010Prop32
280
     0
102
RTVSPost2010PropOp32
 70
     1
102
RTVSPost2010Prop33
280
     0
102
RTVSPost2010PropOp33
 70
     1
102
RTVSPost2010Prop34
280
     0
102
RTVSPost2010PropOp34
 70
     1
102
RTVSPost2010Prop35
280
     0
102
RTVSPost2010PropOp35
 70
     1
102
RTVSPost2010Prop36
280
     0
102
RTVSPost2010PropOp36
 70
     1
102
RTVSPost2010Prop37
 90
       50
102
RTVSPost2010PropOp37
 70
     1
102
RTVSPost2010Prop38
140
0.0
102
RTVSPost2010PropOp38
 70
     1
102
RTVSPost2010Prop39
140
1.0
102
RTVSPost2010PropOp39
 70
     1
102
RTVSPost2010Prop40
 90
        0
102
RTVSPost2010PropOp40
 70
     1
102
RTVSPost2010Prop41ColorIndex
 90
       18
102
RTVSPost2010Prop41ColorRGB
 90
        0
102
RTVSPost2010PropOp41
 70
     1
102
RTVSPost2010Prop42
 90
       50
102
RTVSPost2010PropOp42
 70
     1
102
RTVSPost2010Prop43
 90
        3
102
RTVSPost2010PropOp43
 70
     1
102
RTVSPost2010Prop44ColorIndex
 90
        5
102
RTVSPost2010Prop44ColorRGB
 90
      255
102
RTVSPost2010PropOp44
 70
     1
102
RTVSPost2010Prop45
280
     0
102
RTVSPost2010PropOp45
 70
     1
102
RTVSPost2010Prop46
 90
       50
102
RTVSPost2010PropOp46
 70
     1
102
RTVSPost2010Prop47
 90
       50
102
RTVSPost2010PropOp47
 70
     1
102
RTVSPost2010Prop48
 90
       50
102
RTVSPost2010PropOp48
 70
     1
102
RTVSPost2010Prop49
280
     0
102
RTVSPost2010PropOp49
 70
     1
102
RTVSPost2010Prop50
 90
       50
102
RTVSPost2010PropOp50
 70
     1
102
RTVSPost2010Prop51ColorIndex
 90
      256
102
RTVSPost2010Prop51ColorRGB
 90
-16777216
102
RTVSPost2010PropOp51
 70
     0
102
RTVSPost2010Prop52
140
1.0
102
RTVSPost2010PropOp52
 70
     0
102
RTVSPost2010Prop53
 90
        2
102
RTVSPost2010PropOp53
 70
     1
102
RTVSPost2010Prop54
  1
strokes_ogs.tif
102
RTVSPost2010PropOp54
 70
     1
102
RTVSPost2010Prop55
280
     0
102
RTVSPost2010PropOp55
 70
     1
102
RTVSPost2010Prop56
140
1.0
102
RTVSPost2010PropOp56
 70
     1
102
RTVSPost2010Prop57
140
1.0
102
RTVSPost2010PropOp57
 70
     1
  0
XRECORD
  5
248
102
{ACAD_REACTORS
330
247
102
}
330
247
100
AcDbXrecord
280
     1
102
RTVSPost2010Prop28
280
     0
102
RTVSPost2010PropOp28
 70
     1
102
RTVSPost2010Prop29
280
     1
102
RTVSPost2010PropOp29
 70
     1
102
RTVSPost2010Prop30
280
     1
102
RTVSPost2010PropOp30
 70
     1
102
RTVSPost2010Prop31
280
     0
102
RTVSPost2010PropOp31
 70
     1
102
RTVSPost2010Prop32
280
     0
102
RTVSPost2010PropOp32
 70
     1
102
RTVSPost2010Prop33
280
     0
102
RTVSPost2010PropOp33
 70
     1
102
RTVSPost2010Prop34
280
     0
102
RTVSPost2010PropOp34
 70
     1
102
RTVSPost2010Prop35
280
     0
102
RTVSPost2010PropOp35
 70
     1
102
RTVSPost2010Prop36
280
     0
102
RTVSPost2010PropOp36
 70
     1
102
RTVSPost2010Prop37
 90
       50
102
RTVSPost2010PropOp37
 70
     1
102
RTVSPost2010Prop38
140
0.0
102
RTVSPost2010PropOp38
 70
     1
102
RTVSPost2010Prop39
140
1.0
102
RTVSPost2010PropOp39
 70
     1
102
RTVSPost2010Prop40
 90
        0
102
RTVSPost2010PropOp40
 70
     1
102
RTVSPost2010Prop41ColorIndex
 90
       18
102
RTVSPost2010Prop41ColorRGB
 90
        0
102
RTVSPost2010PropOp41
 70
     1
102
RTVSPost2010Prop42
 90
       50
102
RTVSPost2010PropOp42
 70
     1
102
RTVSPost2010Prop43
 90
        3
102
RTVSPost2010PropOp43
 70
     1
102
RTVSPost2010Prop44ColorIndex
 90
        5
102
RTVSPost2010Prop44ColorRGB
 90
      255
102
RTVSPost2010PropOp44
 70
     1
102
RTVSPost2010Prop45
280
     0
102
RTVSPost2010PropOp45
 70
     1
102
RTVSPost2010Prop46
 90
       50
102
RTVSPost2010PropOp46
 70
     1
102
RTVSPost2010Prop47
 90
       50
102
RTVSPost2010PropOp47
 70
     1
102
RTVSPost2010Prop48
 90
       50
102
RTVSPost2010PropOp48
 70
     1
102
RTVSPost2010Prop49
280
     0
102
RTVSPost2010PropOp49
 70
     1
102
RTVSPost2010Prop50
 90
       50
102
RTVSPost2010PropOp50
 70
     1
102
RTVSPost2010Prop51ColorIndex
 90
      256
102
RTVSPost2010Prop51ColorRGB
 90
-16777216
102
RTVSPost2010PropOp51
 70
     0
102
RTVSPost2010Prop52
140
1.0
102
RTVSPost2010PropOp52
 70
     0
102
RTVSPost2010Prop53
 90
        2
102
RTVSPost2010PropOp53
 70
     1
102
RTVSPost2010Prop54
  1
strokes_ogs.tif
102
RTVSPost2010PropOp54
 70
     1
102
RTVSPost2010Prop55
280
     0
102
RTVSPost2010PropOp55
 70
     1
102
RTVSPost2010Prop56
140
1.0
102
RTVSPost2010PropOp56
 70
     1
102
RTVSPost2010Prop57
140
1.0
102
RTVSPost2010PropOp57
 70
     1
  0
XRECORD
  5
24E
102
{ACAD_REACTORS
330
24D
102
}
330
24D
100
AcDbXrecord
280
     1
102
RTVSPost2010Prop28
280
     0
102
RTVSPost2010PropOp28
 70
     1
102
RTVSPost2010Prop29
280
     1
102
RTVSPost2010PropOp29
 70
     1
102
RTVSPost2010Prop30
280
     1
102
RTVSPost2010PropOp30
 70
     1
102
RTVSPost2010Prop31
280
     0
102
RTVSPost2010PropOp31
 70
     1
102
RTVSPost2010Prop32
280
     0
102
RTVSPost2010PropOp32
 70
     1
102
RTVSPost2010Prop33
280
     0
102
RTVSPost2010PropOp33
 70
     1
102
RTVSPost2010Prop34
280
     0
102
RTVSPost2010PropOp34
 70
     1
102
RTVSPost2010Prop35
280
     0
102
RTVSPost2010PropOp35
 70
     1
102
RTVSPost2010Prop36
280
     0
102
RTVSPost2010PropOp36
 70
     1
102
RTVSPost2010Prop37
 90
       50
102
RTVSPost2010PropOp37
 70
     1
102
RTVSPost2010Prop38
140
0.0
102
RTVSPost2010PropOp38
 70
     1
102
RTVSPost2010Prop39
140
1.0
102
RTVSPost2010PropOp39
 70
     1
102
RTVSPost2010Prop40
 90
        0
102
RTVSPost2010PropOp40
 70
     1
102
RTVSPost2010Prop41ColorIndex
 90
       18
102
RTVSPost2010Prop41ColorRGB
 90
        0
102
RTVSPost2010PropOp41
 70
     1
102
RTVSPost2010Prop42
 90
       50
102
RTVSPost2010PropOp42
 70
     1
102
RTVSPost2010Prop43
 90
        3
102
RTVSPost2010PropOp43
 70
     1
102
RTVSPost2010Prop44ColorIndex
 90
        5
102
RTVSPost2010Prop44ColorRGB
 90
      255
102
RTVSPost2010PropOp44
 70
     1
102
RTVSPost2010Prop45
280
     0
102
RTVSPost2010PropOp45
 70
     1
102
RTVSPost2010Prop46
 90
       50
102
RTVSPost2010PropOp46
 70
     1
102
RTVSPost2010Prop47
 90
       50
102
RTVSPost2010PropOp47
 70
     1
102
RTVSPost2010Prop48
 90
       50
102
RTVSPost2010PropOp48
 70
     1
102
RTVSPost2010Prop49
280
     0
102
RTVSPost2010PropOp49
 70
     1
102
RTVSPost2010Prop50
 90
       50
102
RTVSPost2010PropOp50
 70
     1
102
RTVSPost2010Prop51ColorIndex
 90
      256
102
RTVSPost2010Prop51ColorRGB
 90
-16777216
102
RTVSPost2010PropOp51
 70
     0
102
RTVSPost2010Prop52
140
1.0
102
RTVSPost2010PropOp52
 70
     0
102
RTVSPost2010Prop53
 90
        2
102
RTVSPost2010PropOp53
 70
     1
102
RTVSPost2010Prop54
  1
strokes_ogs.tif
102
RTVSPost2010PropOp54
 70
     1
102
RTVSPost2010Prop55
280
     0
102
RTVSPost2010PropOp55
 70
     1
102
RTVSPost2010Prop56
140
1.0
102
RTVSPost2010PropOp56
 70
     1
102
RTVSPost2010Prop57
140
1.0
102
RTVSPost2010PropOp57
 70
     1
  0
XRECORD
  5
262
102
{ACAD_REACTORS
330
261
102
}
330
261
100
AcDbXrecord
280
     1
102
RTVSPost2010Prop28
280
     0
102
RTVSPost2010PropOp28
 70
     0
102
RTVSPost2010Prop29
280
     1
102
RTVSPost2010PropOp29
 70
     0
102
RTVSPost2010Prop30
280
     1
102
RTVSPost2010PropOp30
 70
     0
102
RTVSPost2010Prop31
280
     0
102
RTVSPost2010PropOp31
 70
     0
102
RTVSPost2010Prop32
280
     0
102
RTVSPost2010PropOp32
 70
     0
102
RTVSPost2010Prop33
280
     0
102
RTVSPost2010PropOp33
 70
     0
102
RTVSPost2010Prop34
280
     0
102
RTVSPost2010PropOp34
 70
     0
102
RTVSPost2010Prop35
280
     0
102
RTVSPost2010PropOp35
 70
     0
102
RTVSPost2010Prop36
280
     0
102
RTVSPost2010PropOp36
 70
     0
102
RTVSPost2010Prop37
 90
       50
102
RTVSPost2010PropOp37
 70
     0
102
RTVSPost2010Prop38
140
0.0
102
RTVSPost2010PropOp38
 70
     0
102
RTVSPost2010Prop39
140
1.0
102
RTVSPost2010PropOp39
 70
     0
102
RTVSPost2010Prop40
 90
        0
102
RTVSPost2010PropOp40
 70
     0
102
RTVSPost2010Prop41ColorIndex
 90
       18
102
RTVSPost2010Prop41ColorRGB
 90
        0
102
RTVSPost2010PropOp41
 70
     0
102
RTVSPost2010Prop42
 90
       50
102
RTVSPost2010PropOp42
 70
     0
102
RTVSPost2010Prop43
 90
        3
102
RTVSPost2010PropOp43
 70
     0
102
RTVSPost2010Prop44ColorIndex
 90
        5
102
RTVSPost2010Prop44ColorRGB
 90
      255
102
RTVSPost2010PropOp44
 70
     0
102
RTVSPost2010Prop45
280
     0
102
RTVSPost2010PropOp45
 70
     0
102
RTVSPost2010Prop46
 90
       50
102
RTVSPost2010PropOp46
 70
     0
102
RTVSPost2010Prop47
 90
       50
102
RTVSPost2010PropOp47
 70
     0
102
RTVSPost2010Prop48
 90
       50
102
RTVSPost2010PropOp48
 70
     0
102
RTVSPost2010Prop49
280
     0
102
RTVSPost2010PropOp49
 70
     0
102
RTVSPost2010Prop50
 90
       50
102
RTVSPost2010PropOp50
 70
     0
102
RTVSPost2010Prop51ColorIndex
 90
      256
102
RTVSPost2010Prop51ColorRGB
 90
-16777216
102
RTVSPost2010PropOp51
 70
     0
102
RTVSPost2010Prop52
140
1.0
102
RTVSPost2010PropOp52
 70
     0
102
RTVSPost2010Prop53
 90
        2
102
RTVSPost2010PropOp53
 70
     0
102
RTVSPost2010Prop54
  1
strokes_ogs.tif
102
RTVSPost2010PropOp54
 70
     0
102
RTVSPost2010Prop55
280
     0
102
RTVSPost2010PropOp55
 70
     0
102
RTVSPost2010Prop56
140
1.0
102
RTVSPost2010PropOp56
 70
     0
102
RTVSPost2010Prop57
140
1.0
102
RTVSPost2010PropOp57
 70
     0
  0
XRECORD
  5
25C
102
{ACAD_REACTORS
330
25B
102
}
330
25B
100
AcDbXrecord
280
     1
102
RTVSPost2010Prop28
280
     0
102
RTVSPost2010PropOp28
 70
     1
102
RTVSPost2010Prop29
280
     1
102
RTVSPost2010PropOp29
 70
     1
102
RTVSPost2010Prop30
280
     1
102
RTVSPost2010PropOp30
 70
     1
102
RTVSPost2010Prop31
280
     0
102
RTVSPost2010PropOp31
 70
     1
102
RTVSPost2010Prop32
280
     0
102
RTVSPost2010PropOp32
 70
     1
102
RTVSPost2010Prop33
280
     0
102
RTVSPost2010PropOp33
 70
     1
102
RTVSPost2010Prop34
280
     0
102
RTVSPost2010PropOp34
 70
     1
102
RTVSPost2010Prop35
280
     0
102
RTVSPost2010PropOp35
 70
     1
102
RTVSPost2010Prop36
280
     0
102
RTVSPost2010PropOp36
 70
     1
102
RTVSPost2010Prop37
 90
       50
102
RTVSPost2010PropOp37
 70
     1
102
RTVSPost2010Prop38
140
0.0
102
RTVSPost2010PropOp38
 70
     1
102
RTVSPost2010Prop39
140
1.0
102
RTVSPost2010PropOp39
 70
     1
102
RTVSPost2010Prop40
 90
        0
102
RTVSPost2010PropOp40
 70
     1
102
RTVSPost2010Prop41ColorIndex
 90
       18
102
RTVSPost2010Prop41ColorRGB
 90
        0
102
RTVSPost2010PropOp41
 70
     1
102
RTVSPost2010Prop42
 90
       50
102
RTVSPost2010PropOp42
 70
     1
102
RTVSPost2010Prop43
 90
        3
102
RTVSPost2010PropOp43
 70
     1
102
RTVSPost2010Prop44ColorIndex
 90
        5
102
RTVSPost2010Prop44ColorRGB
 90
      255
102
RTVSPost2010PropOp44
 70
     1
102
RTVSPost2010Prop45
280
     0
102
RTVSPost2010PropOp45
 70
     1
102
RTVSPost2010Prop46
 90
       50
102
RTVSPost2010PropOp46
 70
     1
102
RTVSPost2010Prop47
 90
       50
102
RTVSPost2010PropOp47
 70
     1
102
RTVSPost2010Prop48
 90
       50
102
RTVSPost2010PropOp48
 70
     1
102
RTVSPost2010Prop49
280
     0
102
RTVSPost2010PropOp49
 70
     1
102
RTVSPost2010Prop50
 90
       50
102
RTVSPost2010PropOp50
 70
     1
102
RTVSPost2010Prop51ColorIndex
 90
      256
102
RTVSPost2010Prop51ColorRGB
 90
-16777216
102
RTVSPost2010PropOp51
 70
     0
102
RTVSPost2010Prop52
140
1.0
102
RTVSPost2010PropOp52
 70
     0
102
RTVSPost2010Prop53
 90
        2
102
RTVSPost2010PropOp53
 70
     1
102
RTVSPost2010Prop54
  1
strokes_ogs.tif
102
RTVSPost2010PropOp54
 70
     1
102
RTVSPost2010Prop55
280
     0
102
RTVSPost2010PropOp55
 70
     1
102
RTVSPost2010Prop56
140
1.0
102
RTVSPost2010PropOp56
 70
     1
102
RTVSPost2010Prop57
140
1.0
102
RTVSPost2010PropOp57
 70
     1
  0
XRECORD
  5
264
102
{ACAD_REACTORS
330
263
102
}
330
263
100
AcDbXrecord
280
     1
102
RTVSPost2010Prop28
280
     0
102
RTVSPost2010PropOp28
 70
     0
102
RTVSPost2010Prop29
280
     1
102
RTVSPost2010PropOp29
 70
     0
102
RTVSPost2010Prop30
280
     1
102
RTVSPost2010PropOp30
 70
     0
102
RTVSPost2010Prop31
280
     0
102
RTVSPost2010PropOp31
 70
     0
102
RTVSPost2010Prop32
280
     0
102
RTVSPost2010PropOp32
 70
     0
102
RTVSPost2010Prop33
280
     0
102
RTVSPost2010PropOp33
 70
     0
102
RTVSPost2010Prop34
280
     0
102
RTVSPost2010PropOp34
 70
     0
102
RTVSPost2010Prop35
280
     0
102
RTVSPost2010PropOp35
 70
     0
102
RTVSPost2010Prop36
280
     0
102
RTVSPost2010PropOp36
 70
     0
102
RTVSPost2010Prop37
 90
       50
102
RTVSPost2010PropOp37
 70
     0
102
RTVSPost2010Prop38
140
0.0
102
RTVSPost2010PropOp38
 70
     0
102
RTVSPost2010Prop39
140
1.0
102
RTVSPost2010PropOp39
 70
     0
102
RTVSPost2010Prop40
 90
        0
102
RTVSPost2010PropOp40
 70
     0
102
RTVSPost2010Prop41ColorIndex
 90
       18
102
RTVSPost2010Prop41ColorRGB
 90
        0
102
RTVSPost2010PropOp41
 70
     0
102
RTVSPost2010Prop42
 90
       50
102
RTVSPost2010PropOp42
 70
     0
102
RTVSPost2010Prop43
 90
        3
102
RTVSPost2010PropOp43
 70
     0
102
RTVSPost2010Prop44ColorIndex
 90
        5
102
RTVSPost2010Prop44ColorRGB
 90
      255
102
RTVSPost2010PropOp44
 70
     0
102
RTVSPost2010Prop45
280
     0
102
RTVSPost2010PropOp45
 70
     0
102
RTVSPost2010Prop46
 90
       50
102
RTVSPost2010PropOp46
 70
     0
102
RTVSPost2010Prop47
 90
       50
102
RTVSPost2010PropOp47
 70
     0
102
RTVSPost2010Prop48
 90
       50
102
RTVSPost2010PropOp48
 70
     0
102
RTVSPost2010Prop49
280
     0
102
RTVSPost2010PropOp49
 70
     0
102
RTVSPost2010Prop50
 90
       50
102
RTVSPost2010PropOp50
 70
     0
102
RTVSPost2010Prop51ColorIndex
 90
      256
102
RTVSPost2010Prop51ColorRGB
 90
-16777216
102
RTVSPost2010PropOp51
 70
     0
102
RTVSPost2010Prop52
140
1.0
102
RTVSPost2010PropOp52
 70
     0
102
RTVSPost2010Prop53
 90
        2
102
RTVSPost2010PropOp53
 70
     0
102
RTVSPost2010Prop54
  1
strokes_ogs.tif
102
RTVSPost2010PropOp54
 70
     0
102
RTVSPost2010Prop55
280
     0
102
RTVSPost2010PropOp55
 70
     0
102
RTVSPost2010Prop56
140
1.0
102
RTVSPost2010PropOp56
 70
     0
102
RTVSPost2010Prop57
140
1.0
102
RTVSPost2010PropOp57
 70
     0
  0
XRECORD
  5
252
102
{ACAD_REACTORS
330
251
102
}
330
251
100
AcDbXrecord
280
     1
102
RTVSPost2010Prop28
280
     0
102
RTVSPost2010PropOp28
 70
     1
102
RTVSPost2010Prop29
280
     1
102
RTVSPost2010PropOp29
 70
     1
102
RTVSPost2010Prop30
280
     1
102
RTVSPost2010PropOp30
 70
     1
102
RTVSPost2010Prop31
280
     0
102
RTVSPost2010PropOp31
 70
     1
102
RTVSPost2010Prop32
280
     0
102
RTVSPost2010PropOp32
 70
     1
102
RTVSPost2010Prop33
280
     0
102
RTVSPost2010PropOp33
 70
     1
102
RTVSPost2010Prop34
280
     0
102
RTVSPost2010PropOp34
 70
     1
102
RTVSPost2010Prop35
280
     0
102
RTVSPost2010PropOp35
 70
     1
102
RTVSPost2010Prop36
280
     0
102
RTVSPost2010PropOp36
 70
     1
102
RTVSPost2010Prop37
 90
       50
102
RTVSPost2010PropOp37
 70
     1
102
RTVSPost2010Prop38
140
0.0
102
RTVSPost2010PropOp38
 70
     1
102
RTVSPost2010Prop39
140
1.0
102
RTVSPost2010PropOp39
 70
     1
102
RTVSPost2010Prop40
 90
        0
102
RTVSPost2010PropOp40
 70
     1
102
RTVSPost2010Prop41ColorIndex
 90
       18
102
RTVSPost2010Prop41ColorRGB
 90
        0
102
RTVSPost2010PropOp41
 70
     1
102
RTVSPost2010Prop42
 90
       50
102
RTVSPost2010PropOp42
 70
     1
102
RTVSPost2010Prop43
 90
        3
102
RTVSPost2010PropOp43
 70
     1
102
RTVSPost2010Prop44ColorIndex
 90
        5
102
RTVSPost2010Prop44ColorRGB
 90
      255
102
RTVSPost2010PropOp44
 70
     1
102
RTVSPost2010Prop45
280
     0
102
RTVSPost2010PropOp45
 70
     1
102
RTVSPost2010Prop46
 90
       50
102
RTVSPost2010PropOp46
 70
     1
102
RTVSPost2010Prop47
 90
       50
102
RTVSPost2010PropOp47
 70
     1
102
RTVSPost2010Prop48
 90
       50
102
RTVSPost2010PropOp48
 70
     1
102
RTVSPost2010Prop49
280
     0
102
RTVSPost2010PropOp49
 70
     1
102
RTVSPost2010Prop50
 90
       50
102
RTVSPost2010PropOp50
 70
     1
102
RTVSPost2010Prop51ColorIndex
 90
      256
102
RTVSPost2010Prop51ColorRGB
 90
-16777216
102
RTVSPost2010PropOp51
 70
     0
102
RTVSPost2010Prop52
140
1.0
102
RTVSPost2010PropOp52
 70
     0
102
RTVSPost2010Prop53
 90
        2
102
RTVSPost2010PropOp53
 70
     1
102
RTVSPost2010Prop54
  1
strokes_ogs.tif
102
RTVSPost2010PropOp54
 70
     1
102
RTVSPost2010Prop55
280
     0
102
RTVSPost2010PropOp55
 70
     1
102
RTVSPost2010Prop56
140
1.0
102
RTVSPost2010PropOp56
 70
     1
102
RTVSPost2010Prop57
140
1.0
102
RTVSPost2010PropOp57
 70
     1
  0
XRECORD
  5
270
102
{ACAD_REACTORS
330
26F
102
}
330
26F
100
AcDbXrecord
280
     1
102
RTVSPost2010Prop28
280
     0
102
RTVSPost2010PropOp28
 70
     1
102
RTVSPost2010Prop29
280
     1
102
RTVSPost2010PropOp29
 70
     1
102
RTVSPost2010Prop30
280
     1
102
RTVSPost2010PropOp30
 70
     1
102
RTVSPost2010Prop31
280
     0
102
RTVSPost2010PropOp31
 70
     1
102
RTVSPost2010Prop32
280
     0
102
RTVSPost2010PropOp32
 70
     1
102
RTVSPost2010Prop33
280
     0
102
RTVSPost2010PropOp33
 70
     1
102
RTVSPost2010Prop34
280
     0
102
RTVSPost2010PropOp34
 70
     1
102
RTVSPost2010Prop35
280
     0
102
RTVSPost2010PropOp35
 70
     1
102
RTVSPost2010Prop36
280
     0
102
RTVSPost2010PropOp36
 70
     1
102
RTVSPost2010Prop37
 90
       50
102
RTVSPost2010PropOp37
 70
     1
102
RTVSPost2010Prop38
140
0.0
102
RTVSPost2010PropOp38
 70
     1
102
RTVSPost2010Prop39
140
1.0
102
RTVSPost2010PropOp39
 70
     1
102
RTVSPost2010Prop40
 90
        0
102
RTVSPost2010PropOp40
 70
     1
102
RTVSPost2010Prop41ColorIndex
 90
       18
102
RTVSPost2010Prop41ColorRGB
 90
        0
102
RTVSPost2010PropOp41
 70
     1
102
RTVSPost2010Prop42
 90
       50
102
RTVSPost2010PropOp42
 70
     1
102
RTVSPost2010Prop43
 90
        3
102
RTVSPost2010PropOp43
 70
     1
102
RTVSPost2010Prop44ColorIndex
 90
        5
102
RTVSPost2010Prop44ColorRGB
 90
      255
102
RTVSPost2010PropOp44
 70
     1
102
RTVSPost2010Prop45
280
     0
102
RTVSPost2010PropOp45
 70
     1
102
RTVSPost2010Prop46
 90
       50
102
RTVSPost2010PropOp46
 70
     1
102
RTVSPost2010Prop47
 90
       50
102
RTVSPost2010PropOp47
 70
     1
102
RTVSPost2010Prop48
 90
       50
102
RTVSPost2010PropOp48
 70
     1
102
RTVSPost2010Prop49
280
     0
102
RTVSPost2010PropOp49
 70
     1
102
RTVSPost2010Prop50
 90
       50
102
RTVSPost2010PropOp50
 70
     1
102
RTVSPost2010Prop51ColorIndex
 90
      256
102
RTVSPost2010Prop51ColorRGB
 90
-16777216
102
RTVSPost2010PropOp51
 70
     0
102
RTVSPost2010Prop52
140
1.0
102
RTVSPost2010PropOp52
 70
     0
102
RTVSPost2010Prop53
 90
        2
102
RTVSPost2010PropOp53
 70
     1
102
RTVSPost2010Prop54
  1
strokes_ogs.tif
102
RTVSPost2010PropOp54
 70
     1
102
RTVSPost2010Prop55
280
     0
102
RTVSPost2010PropOp55
 70
     1
102
RTVSPost2010Prop56
140
1.0
102
RTVSPost2010PropOp56
 70
     1
102
RTVSPost2010Prop57
140
1.0
102
RTVSPost2010PropOp57
 70
     1
  0
XRECORD
  5
26E
102
{ACAD_REACTORS
330
26D
102
}
330
26D
100
AcDbXrecord
280
     1
102
RTVSPost2010Prop28
280
     0
102
RTVSPost2010PropOp28
 70
     1
102
RTVSPost2010Prop29
280
     1
102
RTVSPost2010PropOp29
 70
     1
102
RTVSPost2010Prop30
280
     1
102
RTVSPost2010PropOp30
 70
     1
102
RTVSPost2010Prop31
280
     0
102
RTVSPost2010PropOp31
 70
     1
102
RTVSPost2010Prop32
280
     0
102
RTVSPost2010PropOp32
 70
     1
102
RTVSPost2010Prop33
280
     0
102
RTVSPost2010PropOp33
 70
     1
102
RTVSPost2010Prop34
280
     0
102
RTVSPost2010PropOp34
 70
     1
102
RTVSPost2010Prop35
280
     0
102
RTVSPost2010PropOp35
 70
     1
102
RTVSPost2010Prop36
280
     0
102
RTVSPost2010PropOp36
 70
     1
102
RTVSPost2010Prop37
 90
       50
102
RTVSPost2010PropOp37
 70
     1
102
RTVSPost2010Prop38
140
0.0
102
RTVSPost2010PropOp38
 70
     1
102
RTVSPost2010Prop39
140
1.0
102
RTVSPost2010PropOp39
 70
     1
102
RTVSPost2010Prop40
 90
        0
102
RTVSPost2010PropOp40
 70
     1
102
RTVSPost2010Prop41ColorIndex
 90
       18
102
RTVSPost2010Prop41ColorRGB
 90
        0
102
RTVSPost2010PropOp41
 70
     1
102
RTVSPost2010Prop42
 90
       50
102
RTVSPost2010PropOp42
 70
     1
102
RTVSPost2010Prop43
 90
        3
102
RTVSPost2010PropOp43
 70
     1
102
RTVSPost2010Prop44ColorIndex
 90
        5
102
RTVSPost2010Prop44ColorRGB
 90
      255
102
RTVSPost2010PropOp44
 70
     1
102
RTVSPost2010Prop45
280
     0
102
RTVSPost2010PropOp45
 70
     1
102
RTVSPost2010Prop46
 90
       50
102
RTVSPost2010PropOp46
 70
     1
102
RTVSPost2010Prop47
 90
       50
102
RTVSPost2010PropOp47
 70
     1
102
RTVSPost2010Prop48
 90
       50
102
RTVSPost2010PropOp48
 70
     1
102
RTVSPost2010Prop49
280
     0
102
RTVSPost2010PropOp49
 70
     1
102
RTVSPost2010Prop50
 90
       50
102
RTVSPost2010PropOp50
 70
     1
102
RTVSPost2010Prop51ColorIndex
 90
      256
102
RTVSPost2010Prop51ColorRGB
 90
-16777216
102
RTVSPost2010PropOp51
 70
     0
102
RTVSPost2010Prop52
140
1.0
102
RTVSPost2010PropOp52
 70
     0
102
RTVSPost2010Prop53
 90
        2
102
RTVSPost2010PropOp53
 70
     1
102
RTVSPost2010Prop54
  1
strokes_ogs.tif
102
RTVSPost2010PropOp54
 70
     1
102
RTVSPost2010Prop55
280
     0
102
RTVSPost2010PropOp55
 70
     1
102
RTVSPost2010Prop56
140
1.0
102
RTVSPost2010PropOp56
 70
     1
102
RTVSPost2010Prop57
140
1.0
102
RTVSPost2010PropOp57
 70
     1
  0
XRECORD
  5
268
102
{ACAD_REACTORS
330
267
102
}
330
267
100
AcDbXrecord
280
     1
102
RTVSPost2010Prop28
280
     0
102
RTVSPost2010PropOp28
 70
     1
102
RTVSPost2010Prop29
280
     1
102
RTVSPost2010PropOp29
 70
     1
102
RTVSPost2010Prop30
280
     1
102
RTVSPost2010PropOp30
 70
     1
102
RTVSPost2010Prop31
280
     0
102
RTVSPost2010PropOp31
 70
     1
102
RTVSPost2010Prop32
280
     0
102
RTVSPost2010PropOp32
 70
     1
102
RTVSPost2010Prop33
280
     0
102
RTVSPost2010PropOp33
 70
     1
102
RTVSPost2010Prop34
280
     0
102
RTVSPost2010PropOp34
 70
     1
102
RTVSPost2010Prop35
280
     0
102
RTVSPost2010PropOp35
 70
     1
102
RTVSPost2010Prop36
280
     0
102
RTVSPost2010PropOp36
 70
     1
102
RTVSPost2010Prop37
 90
       50
102
RTVSPost2010PropOp37
 70
     1
102
RTVSPost2010Prop38
140
0.0
102
RTVSPost2010PropOp38
 70
     1
102
RTVSPost2010Prop39
140
1.0
102
RTVSPost2010PropOp39
 70
     1
102
RTVSPost2010Prop40
 90
        0
102
RTVSPost2010PropOp40
 70
     1
102
RTVSPost2010Prop41ColorIndex
 90
       18
102
RTVSPost2010Prop41ColorRGB
 90
        0
102
RTVSPost2010PropOp41
 70
     1
102
RTVSPost2010Prop42
 90
       50
102
RTVSPost2010PropOp42
 70
     1
102
RTVSPost2010Prop43
 90
        3
102
RTVSPost2010PropOp43
 70
     1
102
RTVSPost2010Prop44ColorIndex
 90
        5
102
RTVSPost2010Prop44ColorRGB
 90
      255
102
RTVSPost2010PropOp44
 70
     1
102
RTVSPost2010Prop45
280
     0
102
RTVSPost2010PropOp45
 70
     1
102
RTVSPost2010Prop46
 90
       50
102
RTVSPost2010PropOp46
 70
     1
102
RTVSPost2010Prop47
 90
       50
102
RTVSPost2010PropOp47
 70
     1
102
RTVSPost2010Prop48
 90
       50
102
RTVSPost2010PropOp48
 70
     1
102
RTVSPost2010Prop49
280
     0
102
RTVSPost2010PropOp49
 70
     1
102
RTVSPost2010Prop50
 90
       50
102
RTVSPost2010PropOp50
 70
     1
102
RTVSPost2010Prop51ColorIndex
 90
      256
102
RTVSPost2010Prop51ColorRGB
 90
-16777216
102
RTVSPost2010PropOp51
 70
     0
102
RTVSPost2010Prop52
140
1.0
102
RTVSPost2010PropOp52
 70
     0
102
RTVSPost2010Prop53
 90
        2
102
RTVSPost2010PropOp53
 70
     1
102
RTVSPost2010Prop54
  1
strokes_ogs.tif
102
RTVSPost2010PropOp54
 70
     1
102
RTVSPost2010Prop55
280
     0
102
RTVSPost2010PropOp55
 70
     1
102
RTVSPost2010Prop56
140
1.0
102
RTVSPost2010PropOp56
 70
     1
102
RTVSPost2010Prop57
140
1.0
102
RTVSPost2010PropOp57
 70
     1
  0
XRECORD
  5
26A
102
{ACAD_REACTORS
330
269
102
}
330
269
100
AcDbXrecord
280
     1
102
RTVSPost2010Prop28
280
     0
102
RTVSPost2010PropOp28
 70
     1
102
RTVSPost2010Prop29
280
     1
102
RTVSPost2010PropOp29
 70
     1
102
RTVSPost2010Prop30
280
     1
102
RTVSPost2010PropOp30
 70
     1
102
RTVSPost2010Prop31
280
     0
102
RTVSPost2010PropOp31
 70
     1
102
RTVSPost2010Prop32
280
     0
102
RTVSPost2010PropOp32
 70
     1
102
RTVSPost2010Prop33
280
     0
102
RTVSPost2010PropOp33
 70
     1
102
RTVSPost2010Prop34
280
     0
102
RTVSPost2010PropOp34
 70
     1
102
RTVSPost2010Prop35
280
     0
102
RTVSPost2010PropOp35
 70
     1
102
RTVSPost2010Prop36
280
     0
102
RTVSPost2010PropOp36
 70
     1
102
RTVSPost2010Prop37
 90
       50
102
RTVSPost2010PropOp37
 70
     1
102
RTVSPost2010Prop38
140
0.0
102
RTVSPost2010PropOp38
 70
     1
102
RTVSPost2010Prop39
140
1.0
102
RTVSPost2010PropOp39
 70
     1
102
RTVSPost2010Prop40
 90
        0
102
RTVSPost2010PropOp40
 70
     1
102
RTVSPost2010Prop41ColorIndex
 90
       18
102
RTVSPost2010Prop41ColorRGB
 90
        0
102
RTVSPost2010PropOp41
 70
     1
102
RTVSPost2010Prop42
 90
       50
102
RTVSPost2010PropOp42
 70
     1
102
RTVSPost2010Prop43
 90
        3
102
RTVSPost2010PropOp43
 70
     1
102
RTVSPost2010Prop44ColorIndex
 90
        5
102
RTVSPost2010Prop44ColorRGB
 90
      255
102
RTVSPost2010PropOp44
 70
     1
102
RTVSPost2010Prop45
280
     0
102
RTVSPost2010PropOp45
 70
     1
102
RTVSPost2010Prop46
 90
       50
102
RTVSPost2010PropOp46
 70
     1
102
RTVSPost2010Prop47
 90
       50
102
RTVSPost2010PropOp47
 70
     1
102
RTVSPost2010Prop48
 90
       50
102
RTVSPost2010PropOp48
 70
     1
102
RTVSPost2010Prop49
280
     0
102
RTVSPost2010PropOp49
 70
     1
102
RTVSPost2010Prop50
 90
       50
102
RTVSPost2010PropOp50
 70
     1
102
RTVSPost2010Prop51ColorIndex
 90
      256
102
RTVSPost2010Prop51ColorRGB
 90
-16777216
102
RTVSPost2010PropOp51
 70
     0
102
RTVSPost2010Prop52
140
1.0
102
RTVSPost2010PropOp52
 70
     0
102
RTVSPost2010Prop53
 90
        2
102
RTVSPost2010PropOp53
 70
     1
102
RTVSPost2010Prop54
  1
strokes_ogs.tif
102
RTVSPost2010PropOp54
 70
     1
102
RTVSPost2010Prop55
280
     0
102
RTVSPost2010PropOp55
 70
     1
102
RTVSPost2010Prop56
140
1.0
102
RTVSPost2010PropOp56
 70
     1
102
RTVSPost2010Prop57
140
1.0
102
RTVSPost2010PropOp57
 70
     1
  0
XRECORD
  5
25A
102
{ACAD_REACTORS
330
259
102
}
330
259
100
AcDbXrecord
280
     1
102
RTVSPost2010Prop28
280
     0
102
RTVSPost2010PropOp28
 70
     1
102
RTVSPost2010Prop29
280
     1
102
RTVSPost2010PropOp29
 70
     1
102
RTVSPost2010Prop30
280
     1
102
RTVSPost2010PropOp30
 70
     1
102
RTVSPost2010Prop31
280
     0
102
RTVSPost2010PropOp31
 70
     1
102
RTVSPost2010Prop32
280
     0
102
RTVSPost2010PropOp32
 70
     1
102
RTVSPost2010Prop33
280
     0
102
RTVSPost2010PropOp33
 70
     1
102
RTVSPost2010Prop34
280
     0
102
RTVSPost2010PropOp34
 70
     1
102
RTVSPost2010Prop35
280
     0
102
RTVSPost2010PropOp35
 70
     1
102
RTVSPost2010Prop36
280
     0
102
RTVSPost2010PropOp36
 70
     1
102
RTVSPost2010Prop37
 90
       50
102
RTVSPost2010PropOp37
 70
     1
102
RTVSPost2010Prop38
140
0.0
102
RTVSPost2010PropOp38
 70
     1
102
RTVSPost2010Prop39
140
1.0
102
RTVSPost2010PropOp39
 70
     1
102
RTVSPost2010Prop40
 90
        0
102
RTVSPost2010PropOp40
 70
     1
102
RTVSPost2010Prop41ColorIndex
 90
       18
102
RTVSPost2010Prop41ColorRGB
 90
        0
102
RTVSPost2010PropOp41
 70
     1
102
RTVSPost2010Prop42
 90
       50
102
RTVSPost2010PropOp42
 70
     1
102
RTVSPost2010Prop43
 90
        3
102
RTVSPost2010PropOp43
 70
     1
102
RTVSPost2010Prop44ColorIndex
 90
        5
102
RTVSPost2010Prop44ColorRGB
 90
      255
102
RTVSPost2010PropOp44
 70
     1
102
RTVSPost2010Prop45
280
     0
102
RTVSPost2010PropOp45
 70
     1
102
RTVSPost2010Prop46
 90
       50
102
RTVSPost2010PropOp46
 70
     1
102
RTVSPost2010Prop47
 90
       50
102
RTVSPost2010PropOp47
 70
     1
102
RTVSPost2010Prop48
 90
       50
102
RTVSPost2010PropOp48
 70
     1
102
RTVSPost2010Prop49
280
     0
102
RTVSPost2010PropOp49
 70
     1
102
RTVSPost2010Prop50
 90
       50
102
RTVSPost2010PropOp50
 70
     1
102
RTVSPost2010Prop51ColorIndex
 90
      256
102
RTVSPost2010Prop51ColorRGB
 90
-16777216
102
RTVSPost2010PropOp51
 70
     0
102
RTVSPost2010Prop52
140
1.0
102
RTVSPost2010PropOp52
 70
     0
102
RTVSPost2010Prop53
 90
        2
102
RTVSPost2010PropOp53
 70
     1
102
RTVSPost2010Prop54
  1
strokes_ogs.tif
102
RTVSPost2010PropOp54
 70
     1
102
RTVSPost2010Prop55
280
     0
102
RTVSPost2010PropOp55
 70
     1
102
RTVSPost2010Prop56
140
1.0
102
RTVSPost2010PropOp56
 70
     1
102
RTVSPost2010Prop57
140
1.0
102
RTVSPost2010PropOp57
 70
     1
  0
XRECORD
  5
24C
102
{ACAD_REACTORS
330
24B
102
}
330
24B
100
AcDbXrecord
280
     1
102
RTVSPost2010Prop28
280
     0
102
RTVSPost2010PropOp28
 70
     1
102
RTVSPost2010Prop29
280
     1
102
RTVSPost2010PropOp29
 70
     1
102
RTVSPost2010Prop30
280
     1
102
RTVSPost2010PropOp30
 70
     1
102
RTVSPost2010Prop31
280
     0
102
RTVSPost2010PropOp31
 70
     1
102
RTVSPost2010Prop32
280
     0
102
RTVSPost2010PropOp32
 70
     1
102
RTVSPost2010Prop33
280
     0
102
RTVSPost2010PropOp33
 70
     1
102
RTVSPost2010Prop34
280
     0
102
RTVSPost2010PropOp34
 70
     1
102
RTVSPost2010Prop35
280
     0
102
RTVSPost2010PropOp35
 70
     1
102
RTVSPost2010Prop36
280
     0
102
RTVSPost2010PropOp36
 70
     1
102
RTVSPost2010Prop37
 90
       50
102
RTVSPost2010PropOp37
 70
     1
102
RTVSPost2010Prop38
140
0.0
102
RTVSPost2010PropOp38
 70
     1
102
RTVSPost2010Prop39
140
1.0
102
RTVSPost2010PropOp39
 70
     1
102
RTVSPost2010Prop40
 90
        0
102
RTVSPost2010PropOp40
 70
     1
102
RTVSPost2010Prop41ColorIndex
 90
       18
102
RTVSPost2010Prop41ColorRGB
 90
        0
102
RTVSPost2010PropOp41
 70
     1
102
RTVSPost2010Prop42
 90
       50
102
RTVSPost2010PropOp42
 70
     1
102
RTVSPost2010Prop43
 90
        3
102
RTVSPost2010PropOp43
 70
     1
102
RTVSPost2010Prop44ColorIndex
 90
        5
102
RTVSPost2010Prop44ColorRGB
 90
      255
102
RTVSPost2010PropOp44
 70
     1
102
RTVSPost2010Prop45
280
     0
102
RTVSPost2010PropOp45
 70
     1
102
RTVSPost2010Prop46
 90
       50
102
RTVSPost2010PropOp46
 70
     1
102
RTVSPost2010Prop47
 90
       50
102
RTVSPost2010PropOp47
 70
     1
102
RTVSPost2010Prop48
 90
       50
102
RTVSPost2010PropOp48
 70
     1
102
RTVSPost2010Prop49
280
     0
102
RTVSPost2010PropOp49
 70
     1
102
RTVSPost2010Prop50
 90
       50
102
RTVSPost2010PropOp50
 70
     1
102
RTVSPost2010Prop51ColorIndex
 90
      256
102
RTVSPost2010Prop51ColorRGB
 90
-16777216
102
RTVSPost2010PropOp51
 70
     0
102
RTVSPost2010Prop52
140
1.0
102
RTVSPost2010PropOp52
 70
     0
102
RTVSPost2010Prop53
 90
        2
102
RTVSPost2010PropOp53
 70
     1
102
RTVSPost2010Prop54
  1
strokes_ogs.tif
102
RTVSPost2010PropOp54
 70
     1
102
RTVSPost2010Prop55
280
     0
102
RTVSPost2010PropOp55
 70
     1
102
RTVSPost2010Prop56
140
1.0
102
RTVSPost2010PropOp56
 70
     1
102
RTVSPost2010Prop57
140
1.0
102
RTVSPost2010PropOp57
 70
     1
  0
XRECORD
  5
26C
102
{ACAD_REACTORS
330
26B
102
}
330
26B
100
AcDbXrecord
280
     1
102
RTVSPost2010Prop28
280
     0
102
RTVSPost2010PropOp28
 70
     1
102
RTVSPost2010Prop29
280
     1
102
RTVSPost2010PropOp29
 70
     1
102
RTVSPost2010Prop30
280
     1
102
RTVSPost2010PropOp30
 70
     1
102
RTVSPost2010Prop31
280
     0
102
RTVSPost2010PropOp31
 70
     1
102
RTVSPost2010Prop32
280
     0
102
RTVSPost2010PropOp32
 70
     1
102
RTVSPost2010Prop33
280
     0
102
RTVSPost2010PropOp33
 70
     1
102
RTVSPost2010Prop34
280
     0
102
RTVSPost2010PropOp34
 70
     1
102
RTVSPost2010Prop35
280
     0
102
RTVSPost2010PropOp35
 70
     1
102
RTVSPost2010Prop36
280
     0
102
RTVSPost2010PropOp36
 70
     1
102
RTVSPost2010Prop37
 90
       50
102
RTVSPost2010PropOp37
 70
     1
102
RTVSPost2010Prop38
140
0.0
102
RTVSPost2010PropOp38
 70
     1
102
RTVSPost2010Prop39
140
1.0
102
RTVSPost2010PropOp39
 70
     1
102
RTVSPost2010Prop40
 90
        0
102
RTVSPost2010PropOp40
 70
     1
102
RTVSPost2010Prop41ColorIndex
 90
       18
102
RTVSPost2010Prop41ColorRGB
 90
        0
102
RTVSPost2010PropOp41
 70
     1
102
RTVSPost2010Prop42
 90
       50
102
RTVSPost2010PropOp42
 70
     1
102
RTVSPost2010Prop43
 90
        3
102
RTVSPost2010PropOp43
 70
     1
102
RTVSPost2010Prop44ColorIndex
 90
        5
102
RTVSPost2010Prop44ColorRGB
 90
      255
102
RTVSPost2010PropOp44
 70
     1
102
RTVSPost2010Prop45
280
     0
102
RTVSPost2010PropOp45
 70
     1
102
RTVSPost2010Prop46
 90
       50
102
RTVSPost2010PropOp46
 70
     1
102
RTVSPost2010Prop47
 90
       50
102
RTVSPost2010PropOp47
 70
     1
102
RTVSPost2010Prop48
 90
       50
102
RTVSPost2010PropOp48
 70
     1
102
RTVSPost2010Prop49
280
     0
102
RTVSPost2010PropOp49
 70
     1
102
RTVSPost2010Prop50
 90
       50
102
RTVSPost2010PropOp50
 70
     1
102
RTVSPost2010Prop51ColorIndex
 90
      256
102
RTVSPost2010Prop51ColorRGB
 90
-16777216
102
RTVSPost2010PropOp51
 70
     0
102
RTVSPost2010Prop52
140
1.0
102
RTVSPost2010PropOp52
 70
     0
102
RTVSPost2010Prop53
 90
        2
102
RTVSPost2010PropOp53
 70
     1
102
RTVSPost2010Prop54
  1
strokes_ogs.tif
102
RTVSPost2010PropOp54
 70
     1
102
RTVSPost2010Prop55
280
     0
102
RTVSPost2010PropOp55
 70
     1
102
RTVSPost2010Prop56
140
1.0
102
RTVSPost2010PropOp56
 70
     1
102
RTVSPost2010Prop57
140
1.0
102
RTVSPost2010PropOp57
 70
     1
  0
ENDSEC
  0
EOF
