  0
SECTION
  2
HEADER
  9
$ACADVER
  1
AC1024
  9
$ACADMAINTVER
 70
     6
  9
$DWGCODEPAGE
  3
ANSI_1252
  9
$INSBASE
 10
0.0
 20
0.0
 30
0.0
  9
$EXTMIN
 10
-998.942908200628
 20
2.866958961806
 30
0.0
  9
$EXTMAX
 10
-216.427064839408
 20
332.017208961806
 30
0.0
  9
$LIMMIN
 10
0.0
 20
0.0
  9
$LIMMAX
 10
420.0
 20
297.0
  9
$ORTHOMODE
 70
     0
  9
$REGENMODE
 70
     1
  9
$FILLMODE
 70
     1
  9
$QTEXTMODE
 70
     0
  9
$MIRRTEXT
 70
     1
  9
$LTSCALE
 40
5.0
  9
$ATTMODE
 70
     1
  9
$TEXTSIZE
 40
2.5
  9
$TRACEWID
 40
1.0
  9
$TEXTSTYLE
  7
Standard
  9
$CLAYER
  8
0
  9
$CELTYPE
  6
ByLayer
  9
$CECOLOR
 62
   256
  9
$CELTSCALE
 40
1.0
  9
$DISPSILH
 70
     0
  9
$DIMSCALE
 40
1.0
  9
$DIMASZ
 40
2.5
  9
$DIMEXO
 40
0.625
  9
$DIMDLI
 40
3.75
  9
$DIMRND
 40
0.0
  9
$DIMDLE
 40
0.0
  9
$DIMEXE
 40
1.25
  9
$DIMTP
 40
0.0
  9
$DIMTM
 40
0.0
  9
$DIMTXT
 40
2.5
  9
$DIMCEN
 40
2.5
  9
$DIMTSZ
 40
0.0
  9
$DIMTOL
 70
     0
  9
$DIMLIM
 70
     0
  9
$DIMTIH
 70
     0
  9
$DIMTOH
 70
     0
  9
$DIMSE1
 70
     0
  9
$DIMSE2
 70
     0
  9
$DIMTAD
 70
     1
  9
$DIMZIN
 70
     8
  9
$DIMBLK
  1

  9
$DIMASO
 70
     1
  9
$DIMSHO
 70
     1
  9
$DIMPOST
  1

  9
$DIMAPOST
  1

  9
$DIMALT
 70
     0
  9
$DIMALTD
 70
     3
  9
$DIMALTF
 40
0.03937007874
  9
$DIMLFAC
 40
1.0
  9
$DIMTOFL
 70
     1
  9
$DIMTVP
 40
0.0
  9
$DIMTIX
 70
     0
  9
$DIMSOXD
 70
     0
  9
$DIMSAH
 70
     0
  9
$DIMBLK1
  1

  9
$DIMBLK2
  1

  9
$DIMSTYLE
  2
ISO-25
  9
$DIMCLRD
 70
     0
  9
$DIMCLRE
 70
     0
  9
$DIMCLRT
 70
     0
  9
$DIMTFAC
 40
1.0
  9
$DIMGAP
 40
0.625
  9
$DIMJUST
 70
     0
  9
$DIMSD1
 70
     0
  9
$DIMSD2
 70
     0
  9
$DIMTOLJ
 70
     0
  9
$DIMTZIN
 70
     8
  9
$DIMALTZ
 70
     0
  9
$DIMALTTZ
 70
     0
  9
$DIMUPT
 70
     0
  9
$DIMDEC
 70
     2
  9
$DIMTDEC
 70
     2
  9
$DIMALTU
 70
     2
  9
$DIMALTTD
 70
     3
  9
$DIMTXSTY
  7
Standard
  9
$DIMAUNIT
 70
     0
  9
$DIMADEC
 70
     0
  9
$DIMALTRND
 40
0.0
  9
$DIMAZIN
 70
     0
  9
$DIMDSEP
 70
    44
  9
$DIMATFIT
 70
     3
  9
$DIMFRAC
 70
     0
  9
$DIMLDRBLK
  1

  9
$DIMLUNIT
 70
     2
  9
$DIMLWD
 70
    -2
  9
$DIMLWE
 70
    -2
  9
$DIMTMOVE
 70
     0
  9
$DIMFXL
 40
1.0
  9
$DIMFXLON
 70
     0
  9
$DIMJOGANG
 40
0.785398163397
  9
$DIMTFILL
 70
     0
  9
$DIMTFILLCLR
 70
     0
  9
$DIMARCSYM
 70
     0
  9
$DIMLTYPE
  6

  9
$DIMLTEX1
  6

  9
$DIMLTEX2
  6

  9
$DIMTXTDIRECTION
 70
     0
  9
$LUNITS
 70
     2
  9
$LUPREC
 70
     4
  9
$SKETCHINC
 40
1.0
  9
$FILLETRAD
 40
10.0
  9
$AUNITS
 70
     0
  9
$AUPREC
 70
     0
  9
$MENU
  1
.
  9
$ELEVATION
 40
0.0
  9
$PELEVATION
 40
0.0
  9
$THICKNESS
 40
0.0
  9
$LIMCHECK
 70
     0
  9
$CHAMFERA
 40
0.0
  9
$CHAMFERB
 40
0.0
  9
$CHAMFERC
 40
0.0
  9
$CHAMFERD
 40
0.0
  9
$SKPOLY
 70
     0
  9
$TDCREATE
 40
2457955.585095197
  9
$TDUCREATE
 40
2457955.501761863
  9
$TDUPDATE
 40
2457955.585105127
  9
$TDUUPDATE
 40
2457955.501771794
  9
$TDINDWG
 40
0.0000000116
  9
$TDUSRTIMER
 40
0.0000000116
  9
$USRTIMER
 70
     1
  9
$ANGBASE
 50
0.0
  9
$ANGDIR
 70
     0
  9
$PDMODE
 70
     2
  9
$PDSIZE
 40
1.0
  9
$PLINEWID
 40
0.0
  9
$SPLFRAME
 70
     0
  9
$SPLINETYPE
 70
     6
  9
$SPLINESEGS
 70
     8
  9
$HANDSEED
  5
27C
  9
$SURFTAB1
 70
     6
  9
$SURFTAB2
 70
     6
  9
$SURFTYPE
 70
     6
  9
$SURFU
 70
     6
  9
$SURFV
 70
     6
  9
$UCSBASE
  2

  9
$UCSNAME
  2

  9
$UCSORG
 10
0.0
 20
0.0
 30
0.0
  9
$UCSXDIR
 10
1.0
 20
0.0
 30
0.0
  9
$UCSYDIR
 10
0.0
 20
1.0
 30
0.0
  9
$UCSORTHOREF
  2

  9
$UCSORTHOVIEW
 70
     0
  9
$UCSORGTOP
 10
0.0
 20
0.0
 30
0.0
  9
$UCSORGBOTTOM
 10
0.0
 20
0.0
 30
0.0
  9
$UCSORGLEFT
 10
0.0
 20
0.0
 30
0.0
  9
$UCSORGRIGHT
 10
0.0
 20
0.0
 30
0.0
  9
$UCSORGFRONT
 10
0.0
 20
0.0
 30
0.0
  9
$UCSORGBACK
 10
0.0
 20
0.0
 30
0.0
  9
$PUCSBASE
  2

  9
$PUCSNAME
  2

  9
$PUCSORG
 10
0.0
 20
0.0
 30
0.0
  9
$PUCSXDIR
 10
1.0
 20
0.0
 30
0.0
  9
$PUCSYDIR
 10
0.0
 20
1.0
 30
0.0
  9
$PUCSORTHOREF
  2

  9
$PUCSORTHOVIEW
 70
     0
  9
$PUCSORGTOP
 10
0.0
 20
0.0
 30
0.0
  9
$PUCSORGBOTTOM
 10
0.0
 20
0.0
 30
0.0
  9
$PUCSORGLEFT
 10
0.0
 20
0.0
 30
0.0
  9
$PUCSORGRIGHT
 10
0.0
 20
0.0
 30
0.0
  9
$PUCSORGFRONT
 10
0.0
 20
0.0
 30
0.0
  9
$PUCSORGBACK
 10
0.0
 20
0.0
 30
0.0
  9
$USERI1
 70
     0
  9
$USERI2
 70
     0
  9
$USERI3
 70
     0
  9
$USERI4
 70
     0
  9
$USERI5
 70
     0
  9
$USERR1
 40
0.0
  9
$USERR2
 40
0.0
  9
$USERR3
 40
0.0
  9
$USERR4
 40
0.0
  9
$USERR5
 40
0.0
  9
$WORLDVIEW
 70
     1
  9
$SHADEDGE
 70
     3
  9
$SHADEDIF
 70
    70
  9
$TILEMODE
 70
     1
  9
$MAXACTVP
 70
    64
  9
$PINSBASE
 10
0.0
 20
0.0
 30
0.0
  9
$PLIMCHECK
 70
     0
  9
$PEXTMIN
 10
1.000000000000E+20
 20
1.000000000000E+20
 30
1.000000000000E+20
  9
$PEXTMAX
 10
-1.000000000000E+20
 20
-1.000000000000E+20
 30
-1.000000000000E+20
  9
$PLIMMIN
 10
0.0
 20
0.0
  9
$PLIMMAX
 10
420.0
 20
297.0
  9
$UNITMODE
 70
     0
  9
$VISRETAIN
 70
     1
  9
$PLINEGEN
 70
     0
  9
$PSLTSCALE
 70
     1
  9
$TREEDEPTH
 70
  3020
  9
$CMLSTYLE
  2
Standard
  9
$CMLJUST
 70
     0
  9
$CMLSCALE
 40
20.0
  9
$PROXYGRAPHICS
 70
     1
  9
$MEASUREMENT
 70
     1
  9
$CELWEIGHT
370
    -1
  9
$ENDCAPS
280
     0
  9
$JOINSTYLE
280
     0
  9
$LWDISPLAY
290
     0
  9
$INSUNITS
 70
     4
  9
$HYPERLINKBASE
  1

  9
$STYLESHEET
  1

  9
$XEDIT
290
     1
  9
$CEPSNTYPE
380
     0
  9
$PSTYLEMODE
290
     1
  9
$FINGERPRINTGUID
  2
{8923CBBC-ED10-466B-8021-586D9FC03748}
  9
$VERSIONGUID
  2
{FAEB1C32-E019-11D5-929B-00C0DF256EC4}
  9
$EXTNAMES
290
     1
  9
$PSVPSCALE
 40
0.0
  9
$OLESTARTUP
290
     0
  9
$SORTENTS
280
   127
  9
$INDEXCTL
280
     0
  9
$HIDETEXT
280
     1
  9
$XCLIPFRAME
280
     2
  9
$HALOGAP
280
     0
  9
$OBSCOLOR
 70
   257
  9
$OBSLTYPE
280
     0
  9
$INTERSECTIONDISPLAY
280
     0
  9
$INTERSECTIONCOLOR
 70
   257
  9
$DIMASSOC
280
     2
  9
$PROJECTNAME
  1

  9
$CAMERADISPLAY
290
     0
  9
$LENSLENGTH
 40
50.0
  9
$CAMERAHEIGHT
 40
0.0
  9
$STEPSPERSEC
 40
2.0
  9
$STEPSIZE
 40
6.0
  9
$3DDWFPREC
 40
2.0
  9
$PSOLWIDTH
 40
5.0
  9
$PSOLHEIGHT
 40
80.0
  9
$LOFTANG1
 40
1.570796326795
  9
$LOFTANG2
 40
1.570796326795
  9
$LOFTMAG1
 40
0.0
  9
$LOFTMAG2
 40
0.0
  9
$LOFTPARAM
 70
     7
  9
$LOFTNORMALS
280
     1
  9
$LATITUDE
 40
37.795
  9
$LONGITUDE
 40
-122.394
  9
$NORTHDIRECTION
 40
0.0
  9
$TIMEZONE
 70
 -8000
  9
$LIGHTGLYPHDISPLAY
280
     1
  9
$TILEMODELIGHTSYNCH
280
     1
  9
$CMATERIAL
347
44
  9
$SOLIDHIST
280
     0
  9
$SHOWHIST
280
     1
  9
$DWFFRAME
280
     2
  9
$DGNFRAME
280
     2
  9
$REALWORLDSCALE
290
     1
  9
$INTERFERECOLOR
 62
   256
  9
$CSHADOW
280
     0
  9
$SHADOWPLANELOCATION
 40
0.0
  0
ENDSEC
  0
SECTION
  2
CLASSES
  0
CLASS
  1
ACDBDICTIONARYWDFLT
  2
AcDbDictionaryWithDefault
  3
ObjectDBX Classes
 90
        0
 91
        4
280
     0
281
     0
  0
CLASS
  1
VISUALSTYLE
  2
AcDbVisualStyle
  3
ObjectDBX Classes
 90
     4095
 91
        4
280
     0
281
     0
  0
CLASS
  1
MATERIAL
  2
AcDbMaterial
  3
ObjectDBX Classes
 90
     1153
 91
        4
280
     0
281
     0
  0
CLASS
  1
SCALE
  2
AcDbScale
  3
ObjectDBX Classes
 90
     1153
 91
        4
280
     0
281
     0
  0
CLASS
  1
TABLESTYLE
  2
AcDbTableStyle
  3
ObjectDBX Classes
 90
     4095
 91
        4
280
     0
281
     0
  0
CLASS
  1
MLEADERSTYLE
  2
AcDbMLeaderStyle
  3
ACDB_MLEADERSTYLE_CLASS
 90
     4095
 91
        4
280
     0
281
     0
  0
CLASS
  1
SUN
  2
AcDbSun
  3
SCENEOE
 90
     1153
 91
        4
280
     0
281
     0
  0
CLASS
  1
WIPEOUT
  2
AcDbWipeout
  3
WipeOut|AutoCAD Express Tool|expresstools@autodesk.com
 90
      127
 91
        4
280
     0
281
     1
  0
CLASS
  1
DICTIONARYVAR
  2
AcDbDictionaryVar
  3
ObjectDBX Classes
 90
        0
 91
        4
280
     0
281
     0
  0
CLASS
  1
CELLSTYLEMAP
  2
AcDbCellStyleMap
  3
ObjectDBX Classes
 90
     1152
 91
        4
280
     0
281
     0
  0
CLASS
  1
WIPEOUTVARIABLES
  2
AcDbWipeoutVariables
  3
WipeOut|AutoCAD Express Tool|expresstools@autodesk.com
 90
        0
 91
        4
280
     0
281
     0
  0
ENDSEC
  0
SECTION
  2
TABLES
  0
TABLE
  2
VPORT
  5
8
330
0
100
AcDbSymbolTable
 70
     1
  0
VPORT
  5
29
330
8
100
AcDbSymbolTableRecord
100
AcDbViewportTableRecord
  2
*Active
 70
     0
 10
0.0
 20
0.0
 11
1.0
 21
1.0
 12
-607.684986520018
 22
167.442083961806
 13
0.0
 23
0.0
 14
10.0
 24
10.0
 15
10.0
 25
10.0
 16
0.0
 26
0.0
 36
1.0
 17
0.0
 27
0.0
 37
0.0
 40
329.15025
 41
2.377381889764
 42
50.0
 43
0.0
 44
0.0
 50
0.0
 51
0.0
 71
     0
 72
   100
 73
     1
 74
     3
 75
     0
 76
     0
 77
     0
 78
     0
281
     0
 65
     1
110
0.0
120
0.0
130
0.0
111
1.0
121
0.0
131
0.0
112
0.0
122
1.0
132
0.0
 79
     0
146
0.0
348
2F
 60
     3
 61
     5
292
     1
282
     1
141
0.0
142
0.0
 63
   250
361
6D
  0
ENDTAB
  0
TABLE
  2
LTYPE
  5
5
330
0
100
AcDbSymbolTable
 70
     3
  0
LTYPE
  5
14
330
5
100
AcDbSymbolTableRecord
100
AcDbLinetypeTableRecord
  2
ByBlock
 70
     0
  3

 72
    65
 73
     0
 40
0.0
  0
LTYPE
  5
15
330
5
100
AcDbSymbolTableRecord
100
AcDbLinetypeTableRecord
  2
ByLayer
 70
     0
  3

 72
    65
 73
     0
 40
0.0
  0
LTYPE
  5
16
330
5
100
AcDbSymbolTableRecord
100
AcDbLinetypeTableRecord
  2
Continuous
 70
     0
  3
Solid line
 72
    65
 73
     0
 40
0.0
  0
LTYPE
  5
6E
330
5
100
AcDbSymbolTableRecord
100
AcDbLinetypeTableRecord
  2
AUSGEZOGEN
 70
     0
  3

 72
    65
 73
     0
 40
0.0
  0
LTYPE
  5
70
330
5
100
AcDbSymbolTableRecord
100
AcDbLinetypeTableRecord
  2
DASHDOT
 70
     0
  3

 72
    65
 73
     4
 40
1.0
 49
0.5
 74
     0
 49
-0.25
 74
     0
 49
0.0
 74
     0
 49
-0.25
 74
     0
  0
ENDTAB
  0
TABLE
  2
LAYER
  5
2
330
0
100
AcDbSymbolTable
 70
    12
  0
LAYER
  5
10
330
2
100
AcDbSymbolTableRecord
100
AcDbLayerTableRecord
  2
0
 70
     0
 62
     7
  6
Continuous
370
    -3
390
F
347
46
  0
LAYER
  5
73
330
2
100
AcDbSymbolTableRecord
100
AcDbLayerTableRecord
  2
Layer65000
 70
     0
 62
    18
420
        0
  6
Continuous
370
    -3
390
F
347
46
  0
LAYER
  5
74
330
2
100
AcDbSymbolTableRecord
100
AcDbLayerTableRecord
  2
Layer65001
 70
     0
 62
    18
420
        0
  6
Continuous
370
    -3
390
F
347
46
  0
LAYER
  5
75
330
2
100
AcDbSymbolTableRecord
100
AcDbLayerTableRecord
  2
Layer65002
 70
     0
 62
    18
420
        0
  6
Continuous
370
    -3
390
F
347
46
  0
LAYER
  5
76
330
2
100
AcDbSymbolTableRecord
100
AcDbLayerTableRecord
  2
Layer0
 70
     0
 62
     9
420
 12632256
  6
Continuous
370
    -3
390
F
347
46
  0
LAYER
  5
77
330
2
100
AcDbSymbolTableRecord
100
AcDbLayerTableRecord
  2
Layer1
 70
     0
 62
    18
420
        0
  6
Continuous
370
    -3
390
F
347
46
  0
LAYER
  5
78
330
2
100
AcDbSymbolTableRecord
100
AcDbLayerTableRecord
  2
Layer2
 70
     0
 62
    18
420
        0
  6
Continuous
370
    -3
390
F
347
46
  0
LAYER
  5
79
330
2
100
AcDbSymbolTableRecord
100
AcDbLayerTableRecord
  2
Layer3
 70
     0
 62
    18
420
        0
  6
Continuous
370
    -3
390
F
347
46
  0
LAYER
  5
7A
330
2
100
AcDbSymbolTableRecord
100
AcDbLayerTableRecord
  2
Layer5
 70
     0
 62
     8
420
  8421504
  6
Continuous
370
    -3
390
F
347
46
  0
LAYER
  5
7B
330
2
100
AcDbSymbolTableRecord
100
AcDbLayerTableRecord
  2
Layer6
 70
     0
 62
    18
420
        0
  6
Continuous
370
    -3
390
F
347
46
  0
LAYER
  5
7C
330
2
100
AcDbSymbolTableRecord
100
AcDbLayerTableRecord
  2
Layer7
 70
     0
 62
    18
420
        0
  6
Continuous
370
    -3
390
F
347
46
  0
LAYER
  5
7D
330
2
100
AcDbSymbolTableRecord
100
AcDbLayerTableRecord
  2
Layer100
 70
     0
 62
    18
420
        0
  6
Continuous
370
    -3
390
F
347
46
  0
ENDTAB
  0
TABLE
  2
STYLE
  5
3
330
0
100
AcDbSymbolTable
 70
     4
  0
STYLE
  5
11
330
3
100
AcDbSymbolTableRecord
100
AcDbTextStyleTableRecord
  2
Standard
 70
     0
 40
0.0
 41
1.0
 50
0.0
 71
     0
 42
2.5
  3
txt
  4

  0
STYLE
  5
6F
330
3
100
AcDbSymbolTableRecord
100
AcDbTextStyleTableRecord
  2
Verdana
 70
     0
 40
0.0
 41
1.0
 50
0.0
 71
     0
 42
2.5
  3
verdana.ttf
  4

1001
ACAD
1000
Verdana
1071
       34
  0
STYLE
  5
71
330
3
100
AcDbSymbolTableRecord
100
AcDbTextStyleTableRecord
  2
Arial
 70
     0
 40
0.0
 41
1.0
 50
0.0
 71
     0
 42
2.5
  3
arial.ttf
  4

1001
ACAD
1000
Arial
1071
       34
  0
STYLE
  5
72
330
3
100
AcDbSymbolTableRecord
100
AcDbTextStyleTableRecord
  2
Toleranzfont
 70
     0
 40
0.0
 41
1.0
 50
0.0
 71
     0
 42
2.5
  3
IGES1003.SHX
  4

  0
ENDTAB
  0
TABLE
  2
VIEW
  5
6
330
0
100
AcDbSymbolTable
 70
     0
  0
ENDTAB
  0
TABLE
  2
UCS
  5
7
330
0
100
AcDbSymbolTable
 70
     0
  0
ENDTAB
  0
TABLE
  2
APPID
  5
9
330
0
100
AcDbSymbolTable
 70
     1
  0
APPID
  5
12
330
9
100
AcDbSymbolTableRecord
100
AcDbRegAppTableRecord
  2
ACAD
 70
     0
  0
ENDTAB
  0
TABLE
  2
DIMSTYLE
  5
A
330
0
100
AcDbSymbolTable
 70
     1
100
AcDbDimStyleTable
  0
DIMSTYLE
105
27
102
{ACAD_REACTORS
330
D5
330
E2
330
EF
330
145
330
152
102
}
330
A
100
AcDbSymbolTableRecord
100
AcDbDimStyleTableRecord
  2
ISO-25
 70
     0
 41
2.5
 42
0.625
 43
3.75
 44
1.25
 73
     0
 74
     0
 77
     1
 78
     8
140
2.5
141
2.5
143
0.03937007874
147
0.625
171
     3
172
     1
178
     0
271
     2
272
     2
274
     3
278
    44
283
     0
284
     8
340
11
  0
ENDTAB
  0
TABLE
  2
BLOCK_RECORD
  5
1
330
0
100
AcDbSymbolTable
 70
    16
  0
BLOCK_RECORD
  5
1F
330
1
100
AcDbSymbolTableRecord
100
AcDbBlockTableRecord
  2
*Model_Space
340
22
 70
     0
280
     1
281
     0
  0
BLOCK_RECORD
  5
1B
330
1
100
AcDbSymbolTableRecord
100
AcDbBlockTableRecord
  2
*Paper_Space
340
1E
 70
     0
280
     1
281
     0
  0
BLOCK_RECORD
  5
23
330
1
100
AcDbSymbolTableRecord
100
AcDbBlockTableRecord
  2
*Paper_Space0
340
26
 70
     0
280
     1
281
     0
  0
BLOCK_RECORD
  5
7E
330
1
100
AcDbSymbolTableRecord
100
AcDbBlockTableRecord
  2
SW_NOTE_0_nNn00
340
0
102
{BLKREFS
331
85
102
}
 70
     0
280
     1
281
     0
  0
BLOCK_RECORD
  5
CC
330
1
100
AcDbSymbolTableRecord
100
AcDbBlockTableRecord
  2
*D2
340
0
 70
     0
280
     1
281
     0
  0
BLOCK_RECORD
  5
D6
330
1
100
AcDbSymbolTableRecord
100
AcDbBlockTableRecord
  2
*D3
340
0
 70
     0
280
     1
281
     0
  0
BLOCK_RECORD
  5
E3
330
1
100
AcDbSymbolTableRecord
100
AcDbBlockTableRecord
  2
*D4
340
0
 70
     0
280
     1
281
     0
  0
BLOCK_RECORD
  5
108
330
1
100
AcDbSymbolTableRecord
100
AcDbBlockTableRecord
  2
_Dot_nNn04
340
0
102
{BLKREFS
331
10D
102
}
 70
     0
280
     1
281
     0
  0
BLOCK_RECORD
  5
110
330
1
100
AcDbSymbolTableRecord
100
AcDbBlockTableRecord
  2
SW_CENTERMARKSYMBOL_0_nNn05
340
0
102
{BLKREFS
331
11B
102
}
 70
     0
280
     1
281
     0
  0
BLOCK_RECORD
  5
127
330
1
100
AcDbSymbolTableRecord
100
AcDbBlockTableRecord
  2
_Dot_nNn06
340
0
102
{BLKREFS
331
12C
102
}
 70
     0
280
     1
281
     0
  0
BLOCK_RECORD
  5
12F
330
1
100
AcDbSymbolTableRecord
100
AcDbBlockTableRecord
  2
SW_CENTERMARKSYMBOL_1_nNn07
340
0
102
{BLKREFS
331
13A
102
}
 70
     0
280
     1
281
     0
  0
BLOCK_RECORD
  5
13B
330
1
100
AcDbSymbolTableRecord
100
AcDbBlockTableRecord
  2
*D9
340
0
 70
     0
280
     1
281
     0
  0
BLOCK_RECORD
  5
146
330
1
100
AcDbSymbolTableRecord
100
AcDbBlockTableRecord
  2
*D10
340
0
 70
     0
280
     1
281
     0
  0
BLOCK_RECORD
  5
181
330
1
100
AcDbSymbolTableRecord
100
AcDbBlockTableRecord
  2
Schriftfeld_nNn010
340
0
102
{BLKREFS
331
18C
102
}
 70
     0
280
     1
281
     0
  0
BLOCK_RECORD
  5
1B9
330
1
100
AcDbSymbolTableRecord
100
AcDbBlockTableRecord
  2
A4 MMT_nNn011
340
0
102
{BLKREFS
331
225
102
}
 70
     0
280
     1
281
     0
  0
BLOCK_RECORD
  5
1BC
330
1
100
AcDbSymbolTableRecord
100
AcDbBlockTableRecord
  2
Zeichnungsrahmen_nNn012
340
0
102
{BLKREFS
331
1C1
102
}
 70
     0
280
     1
281
     0
  0
BLOCK_RECORD
  5
1C2
330
1
100
AcDbSymbolTableRecord
100
AcDbBlockTableRecord
  2
Schriftfeld_nNn013
340
0
102
{BLKREFS
331
210
102
}
 70
     0
280
     1
281
     0
  0
BLOCK_RECORD
  5
211
330
1
100
AcDbSymbolTableRecord
100
AcDbBlockTableRecord
  2
Beschriftung_nNn014
340
0
102
{BLKREFS
331
222
102
}
 70
     0
280
     1
281
     0
  0
ENDTAB
  0
ENDSEC
  0
SECTION
  2
BLOCKS
  0
BLOCK
  5
20
330
1F
100
AcDbEntity
  8
0
100
AcDbBlockBegin
  2
*Model_Space
 70
     0
 10
0.0
 20
0.0
 30
0.0
  3
*Model_Space
  1

  0
ENDBLK
  5
21
330
1F
100
AcDbEntity
  8
0
100
AcDbBlockEnd
  0
BLOCK
  5
1C
330
1B
100
AcDbEntity
 67
     1
  8
0
100
AcDbBlockBegin
  2
*Paper_Space
 70
     0
 10
0.0
 20
0.0
 30
0.0
  3
*Paper_Space
  1

  0
ENDBLK
  5
1D
330
1B
100
AcDbEntity
 67
     1
  8
0
100
AcDbBlockEnd
  0
BLOCK
  5
24
330
23
100
AcDbEntity
  8
0
100
AcDbBlockBegin
  2
*Paper_Space0
 70
     0
 10
0.0
 20
0.0
 30
0.0
  3
*Paper_Space0
  1

  0
ENDBLK
  5
25
330
23
100
AcDbEntity
  8
0
100
AcDbBlockEnd
  0
BLOCK
  5
7F
330
7E
100
AcDbEntity
  8
0
100
AcDbBlockBegin
  2
SW_NOTE_0_nNn00
 70
     0
 10
0.0
 20
0.0
 30
0.0
  3
SW_NOTE_0_nNn00
  1

  0
TEXT
  5
81
330
7E
100
AcDbEntity
  8
Layer0
  6
AUSGEZOGEN
 62
    18
420
        0
370
    18
100
AcDbText
 10
-493.491860869724
 20
111.293024137462
 30
0.0
 40
4.0
  1
NOTE:
 41
0.905863843964
  7
Verdana
 72
     5
 11
-477.363860991794
 21
111.293024137462
 31
0.0
100
AcDbText
  0
TEXT
  5
82
330
7E
100
AcDbEntity
  8
Layer0
  6
AUSGEZOGEN
 62
    18
420
        0
370
    18
100
AcDbText
 10
-493.491860869724
 20
97.876357599939
 30
0.0
 40
4.0
  1
1. 33W
 41
0.902175219758
  7
Verdana
 72
     5
 11
-475.574661005336
 21
97.876357599939
 31
0.0
100
AcDbText
  0
TEXT
  5
83
330
7E
100
AcDbEntity
  8
Layer0
  6
AUSGEZOGEN
 62
    18
420
        0
370
    18
100
AcDbText
 10
-493.491860869724
 20
91.168024331177
 30
0.0
 40
4.0
  1
2. 0mm stroke, Force is 960N
 41
0.903749811482
  7
Verdana
 72
     5
 11
-418.874661434489
 21
91.168024331177
 31
0.0
100
AcDbText
  0
TEXT
  5
84
330
7E
100
AcDbEntity
  8
Layer0
  6
AUSGEZOGEN
 62
    18
420
        0
370
    18
100
AcDbText
 10
-493.491860869724
 20
84.459691062416
 30
0.0
 40
4.0
  1
3. Duty: 10%
 41
0.903418796581
  7
Verdana
 72
     5
 11
-459.245061128932
 21
84.459691062416
 31
0.0
100
AcDbText
  0
ENDBLK
  5
80
330
7E
100
AcDbEntity
  8
0
100
AcDbBlockEnd
  0
BLOCK
  5
CD
330
CC
100
AcDbEntity
  8
0
100
AcDbBlockBegin
  2
*D2
 70
     1
 10
0.0
 20
0.0
 30
0.0
  3
*D2
  1

  0
HATCH
  5
CF
330
CC
100
AcDbEntity
  8
Layer0
  6
AUSGEZOGEN
 62
    18
420
        0
370
    18
100
AcDbHatch
 10
0.0
 20
0.0
 30
0.0
210
0.0
220
0.0
230
1.0
  2
SOLID
 70
     1
 71
     0
 91
        1
 92
        2
 72
     0
 73
     1
 93
        3
 10
-609.0833441337513
 20
230.7575476287043
 10
-610.6833441337513
 20
231.0775476287043
 10
-610.6833441337513
 20
230.4375476287043
 97
        0
 75
     0
 76
     1
 98
        0
  0
HATCH
  5
D0
330
CC
100
AcDbEntity
  8
Layer0
  6
AUSGEZOGEN
 62
    18
420
        0
370
    18
100
AcDbHatch
 10
0.0
 20
0.0
 30
0.0
210
0.0
220
0.0
230
1.0
  2
SOLID
 70
     1
 71
     0
 91
        1
 92
        2
 72
     0
 73
     1
 93
        3
 10
-637.0833441337513
 20
230.7575476287043
 10
-635.4833441337513
 20
230.4375476287043
 10
-635.4833441337513
 20
231.0775476287043
 97
        0
 75
     0
 76
     1
 98
        0
  0
LINE
  5
D1
330
CC
100
AcDbEntity
  8
Layer0
  6
AUSGEZOGEN
 62
    18
420
        0
370
    18
100
AcDbLine
 10
-635.483344133751
 20
230.757547628704
 30
0.0
 11
-610.683344133751
 21
230.757547628704
 31
0.0
  0
LINE
  5
D2
330
CC
100
AcDbEntity
  8
Layer0
  6
AUSGEZOGEN
 62
    18
420
        0
370
    18
100
AcDbLine
 10
-637.083344133751
 20
199.078686214431
 30
0.0
 11
-637.083344133751
 21
233.043261914419
 31
0.0
  0
LINE
  5
D3
330
CC
100
AcDbEntity
  8
Layer0
  6
AUSGEZOGEN
 62
    18
420
        0
370
    18
100
AcDbLine
 10
-609.083344133751
 20
198.578686214431
 30
0.0
 11
-609.083344133751
 21
233.043261914419
 31
0.0
  0
TEXT
  5
D4
330
CC
100
AcDbEntity
  8
Layer0
  6
AUSGEZOGEN
 62
    18
420
        0
370
    18
100
AcDbText
 10
-626.233344109909
 20
231.557547628704
 30
0.0
 40
4.0
  1
29
 41
0.901029741464
  7
Verdana
 72
     5
 11
-619.933344157593
 21
231.557547628704
 31
0.0
100
AcDbText
  0
ENDBLK
  5
CE
330
CC
100
AcDbEntity
  8
0
100
AcDbBlockEnd
  0
BLOCK
  5
D7
330
D6
100
AcDbEntity
  8
0
100
AcDbBlockBegin
  2
*D3
 70
     1
 10
0.0
 20
0.0
 30
0.0
  3
*D3
  1

  0
HATCH
  5
D9
330
D6
100
AcDbEntity
  8
Layer0
  6
AUSGEZOGEN
 62
    18
420
        0
370
    18
100
AcDbHatch
 10
0.0
 20
0.0
 30
0.0
210
0.0
220
0.0
230
1.0
  2
SOLID
 70
     1
 71
     0
 91
        1
 92
        2
 72
     0
 73
     1
 93
        3
 10
-593.2527389714373
 20
164.0786862144309
 10
-593.5727389714374
 20
162.478686214431
 10
-592.9327389714373
 20
162.478686214431
 97
        0
 75
     0
 76
     1
 98
        0
  0
HATCH
  5
DA
330
D6
100
AcDbEntity
  8
Layer0
  6
AUSGEZOGEN
 62
    18
420
        0
370
    18
100
AcDbHatch
 10
0.0
 20
0.0
 30
0.0
210
0.0
220
0.0
230
1.0
  2
SOLID
 70
     1
 71
     0
 91
        1
 92
        2
 72
     0
 73
     1
 93
        3
 10
-593.2527389714373
 20
172.0786862144309
 10
-592.9327389714373
 20
173.6786862144309
 10
-593.5727389714374
 20
173.6786862144309
 97
        0
 75
     0
 76
     1
 98
        0
  0
LINE
  5
DB
330
D6
100
AcDbEntity
  8
Layer0
  6
AUSGEZOGEN
 62
    18
420
        0
370
    18
100
AcDbLine
 10
-593.252738971437
 20
172.078686214431
 30
0.0
 11
-593.252738971437
 21
164.078686214431
 31
0.0
  0
LINE
  5
DC
330
D6
100
AcDbEntity
  8
Layer0
  6
AUSGEZOGEN
 62
    18
420
        0
370
    18
100
AcDbLine
 10
-593.252738971437
 20
162.478686214431
 30
0.0
 11
-593.252738971437
 21
160.878686214431
 31
0.0
  0
LINE
  5
DD
330
D6
100
AcDbEntity
  8
Layer0
  6
AUSGEZOGEN
 62
    18
420
        0
370
    18
100
AcDbLine
 10
-593.252738971437
 20
173.678686214431
 30
0.0
 11
-593.252738971437
 21
175.278686214431
 31
0.0
  0
LINE
  5
DE
330
D6
100
AcDbEntity
  8
Layer0
  6
AUSGEZOGEN
 62
    18
420
        0
370
    18
100
AcDbLine
 10
-593.252738971437
 20
173.678686214431
 30
0.0
 11
-593.252738971437
 21
187.333199944496
 31
0.0
  0
LINE
  5
DF
330
D6
100
AcDbEntity
  8
Layer0
  6
AUSGEZOGEN
 62
    18
420
        0
370
    18
100
AcDbLine
 10
-617.083344133751
 20
172.078686214431
 30
0.0
 11
-590.967024685723
 21
172.078686214431
 31
0.0
  0
LINE
  5
E0
330
D6
100
AcDbEntity
  8
Layer0
  6
AUSGEZOGEN
 62
    18
420
        0
370
    18
100
AcDbLine
 10
-617.083344133751
 20
164.078686214431
 30
0.0
 11
-590.967024685723
 21
164.078686214431
 31
0.0
  0
TEXT
  5
E1
330
D6
100
AcDbEntity
  8
Layer0
  6
AUSGEZOGEN
 62
    18
420
        0
370
    18
100
AcDbText
 10
-594.052738971437
 20
180.0
 30
0.0
 40
4.0
  1
M8
 50
90.0
 41
0.90177077527
  7
Verdana
 72
     5
 11
-594.052738971437
 21
187.333199944496
 31
0.0
100
AcDbText
  0
ENDBLK
  5
D8
330
D6
100
AcDbEntity
  8
0
100
AcDbBlockEnd
  0
BLOCK
  5
E4
330
E3
100
AcDbEntity
  8
0
100
AcDbBlockBegin
  2
*D4
 70
     1
 10
0.0
 20
0.0
 30
0.0
  3
*D4
  1

  0
HATCH
  5
E6
330
E3
100
AcDbEntity
  8
Layer0
  6
AUSGEZOGEN
 62
    18
420
        0
370
    18
100
AcDbHatch
 10
0.0
 20
0.0
 30
0.0
210
0.0
220
0.0
230
1.0
  2
SOLID
 70
     1
 71
     0
 91
        1
 92
        2
 72
     0
 73
     1
 93
        3
 10
-576.8024958989633
 20
163.0790845702805
 10
-577.1224958989634
 20
161.4790845702805
 10
-576.4824958989633
 20
161.4790845702805
 97
        0
 75
     0
 76
     1
 98
        0
  0
HATCH
  5
E7
330
E3
100
AcDbEntity
  8
Layer0
  6
AUSGEZOGEN
 62
    18
420
        0
370
    18
100
AcDbHatch
 10
0.0
 20
0.0
 30
0.0
210
0.0
220
0.0
230
1.0
  2
SOLID
 70
     1
 71
     0
 91
        1
 92
        2
 72
     0
 73
     1
 93
        3
 10
-576.8024958989633
 20
173.0782878585814
 10
-576.4824958989633
 20
174.6782878585814
 10
-577.1224958989634
 20
174.6782878585814
 97
        0
 75
     0
 76
     1
 98
        0
  0
LINE
  5
E8
330
E3
100
AcDbEntity
  8
Layer0
  6
AUSGEZOGEN
 62
    18
420
        0
370
    18
100
AcDbLine
 10
-576.802495898963
 20
173.078287858581
 30
0.0
 11
-576.802495898963
 21
163.07908457028
 31
0.0
  0
LINE
  5
E9
330
E3
100
AcDbEntity
  8
Layer0
  6
AUSGEZOGEN
 62
    18
420
        0
370
    18
100
AcDbLine
 10
-576.802495898963
 20
161.47908457028
 30
0.0
 11
-576.802495898963
 21
159.87908457028
 31
0.0
  0
LINE
  5
EA
330
E3
100
AcDbEntity
  8
Layer0
  6
AUSGEZOGEN
 62
    18
420
        0
370
    18
100
AcDbLine
 10
-576.802495898963
 20
174.678287858581
 30
0.0
 11
-576.802495898963
 21
176.278287858581
 31
0.0
  0
LINE
  5
EB
330
E3
100
AcDbEntity
  8
Layer0
  6
AUSGEZOGEN
 62
    18
420
        0
370
    18
100
AcDbLine
 10
-576.802495898963
 20
174.678287858581
 30
0.0
 11
-576.802495898963
 21
189.323999929428
 31
0.0
  0
LINE
  5
EC
330
E3
100
AcDbEntity
  8
Layer0
  6
AUSGEZOGEN
 62
    18
420
        0
370
    18
100
AcDbLine
 10
-609.083344133751
 20
173.078287858581
 30
0.0
 11
-574.516781613249
 21
173.078287858581
 31
0.0
  0
LINE
  5
ED
330
E3
100
AcDbEntity
  8
Layer0
  6
AUSGEZOGEN
 62
    18
420
        0
370
    18
100
AcDbLine
 10
-609.083344133751
 20
163.07908457028
 30
0.0
 11
-574.516781613249
 21
163.07908457028
 31
0.0
  0
TEXT
  5
EE
330
E3
100
AcDbEntity
  8
Layer0
  6
AUSGEZOGEN
 62
    18
420
        0
370
    18
100
AcDbText
 10
-577.602495898963
 20
180.0
 30
0.0
 40
4.0
  1
%%c10
 50
90.0
 41
0.823674905427
  7
Verdana
 72
     5
 11
-577.602495898963
 21
189.323999929428
 31
0.0
100
AcDbText
  0
ENDBLK
  5
E5
330
E3
100
AcDbEntity
  8
0
100
AcDbBlockEnd
  0
BLOCK
  5
109
330
108
100
AcDbEntity
  8
0
100
AcDbBlockBegin
  2
_Dot_nNn04
 70
     0
 10
0.0
 20
0.0
 30
0.0
  3
_Dot_nNn04
  1

  0
LWPOLYLINE
  5
10B
330
108
100
AcDbEntity
  8
Layer0
  6
AUSGEZOGEN
 62
    18
420
        0
370
    18
100
AcDbPolyline
 90
        2
 70
     1
 43
0.0
 10
-536.363210148077
 20
186.894939750707
 42
1.0
 10
-536.274601318257
 20
186.75377937009
 42
1.0
  0
LINE
  5
10C
330
108
100
AcDbEntity
  8
Layer0
  6
AUSGEZOGEN
 62
    18
420
        0
370
    18
100
AcDbLine
 10
-536.407514562987
 20
186.965519941015
 30
0.0
 11
-536.496123392807
 21
187.106680321631
 31
0.0
  0
ENDBLK
  5
10A
330
108
100
AcDbEntity
  8
0
100
AcDbBlockEnd
  0
BLOCK
  5
111
330
110
100
AcDbEntity
  8
0
100
AcDbBlockBegin
  2
SW_CENTERMARKSYMBOL_0_nNn05
 70
     0
 10
0.0
 20
0.0
 30
0.0
  3
SW_CENTERMARKSYMBOL_0_nNn05
  1

  0
LINE
  5
113
330
110
100
AcDbEntity
  8
Layer0
  6
AUSGEZOGEN
 62
    18
420
        0
370
    18
100
AcDbLine
 10
-519.047584495608
 20
168.078686214431
 30
0.0
 11
-519.047584495608
 21
170.578686214431
 31
0.0
  0
LINE
  5
114
330
110
100
AcDbEntity
  8
Layer0
  6
AUSGEZOGEN
 62
    18
420
        0
370
    18
100
AcDbLine
 10
-519.047584495608
 20
168.078686214431
 30
0.0
 11
-521.547584495608
 21
168.078686214431
 31
0.0
  0
LINE
  5
115
330
110
100
AcDbEntity
  8
Layer0
  6
AUSGEZOGEN
 62
    18
420
        0
370
    18
100
AcDbLine
 10
-519.047584495608
 20
168.078686214431
 30
0.0
 11
-519.047584495608
 21
165.578686214431
 31
0.0
  0
LINE
  5
116
330
110
100
AcDbEntity
  8
Layer0
  6
AUSGEZOGEN
 62
    18
420
        0
370
    18
100
AcDbLine
 10
-519.047584495608
 20
168.078686214431
 30
0.0
 11
-516.547584495608
 21
168.078686214431
 31
0.0
  0
LINE
  5
117
330
110
100
AcDbEntity
  8
Layer0
  6
AUSGEZOGEN
 62
    18
420
        0
370
    18
100
AcDbLine
 10
-519.047584495608
 20
173.078686214431
 30
0.0
 11
-519.047584495608
 21
202.078686214431
 31
0.0
  0
LINE
  5
118
330
110
100
AcDbEntity
  8
Layer0
  6
AUSGEZOGEN
 62
    18
420
        0
370
    18
100
AcDbLine
 10
-524.047584495608
 20
168.078686214431
 30
0.0
 11
-553.047584495608
 21
168.078686214431
 31
0.0
  0
LINE
  5
119
330
110
100
AcDbEntity
  8
Layer0
  6
AUSGEZOGEN
 62
    18
420
        0
370
    18
100
AcDbLine
 10
-519.047584495608
 20
163.078686214431
 30
0.0
 11
-519.047584495608
 21
134.078686214431
 31
0.0
  0
LINE
  5
11A
330
110
100
AcDbEntity
  8
Layer0
  6
AUSGEZOGEN
 62
    18
420
        0
370
    18
100
AcDbLine
 10
-514.047584495608
 20
168.078686214431
 30
0.0
 11
-485.047584495608
 21
168.078686214431
 31
0.0
  0
ENDBLK
  5
112
330
110
100
AcDbEntity
  8
0
100
AcDbBlockEnd
  0
BLOCK
  5
128
330
127
100
AcDbEntity
  8
0
100
AcDbBlockBegin
  2
_Dot_nNn06
 70
     0
 10
0.0
 20
0.0
 30
0.0
  3
_Dot_nNn06
  1

  0
LWPOLYLINE
  5
12A
330
127
100
AcDbEntity
  8
Layer0
  6
AUSGEZOGEN
 62
    18
420
        0
370
    18
100
AcDbPolyline
 90
        2
 70
     1
 43
0.0
 10
-712.39822629905
 20
176.455082880775
 42
1.0
 10
-712.470395793124
 20
176.30485191891
 42
1.0
  0
LINE
  5
12B
330
127
100
AcDbEntity
  8
Layer0
  6
AUSGEZOGEN
 62
    18
420
        0
370
    18
100
AcDbLine
 10
-712.362141552012
 20
176.530198361707
 30
0.0
 11
-712.289972057938
 21
176.680429323572
 31
0.0
  0
ENDBLK
  5
129
330
127
100
AcDbEntity
  8
0
100
AcDbBlockEnd
  0
BLOCK
  5
130
330
12F
100
AcDbEntity
  8
0
100
AcDbBlockBegin
  2
SW_CENTERMARKSYMBOL_1_nNn07
 70
     0
 10
0.0
 20
0.0
 30
0.0
  3
SW_CENTERMARKSYMBOL_1_nNn07
  1

  0
LINE
  5
132
330
12F
100
AcDbEntity
  8
Layer0
  6
AUSGEZOGEN
 62
    18
420
        0
370
    18
100
AcDbLine
 10
-732.047582344138
 20
168.078686214431
 30
0.0
 11
-732.047582344138
 21
170.578686214431
 31
0.0
  0
LINE
  5
133
330
12F
100
AcDbEntity
  8
Layer0
  6
AUSGEZOGEN
 62
    18
420
        0
370
    18
100
AcDbLine
 10
-732.047582344138
 20
168.078686214431
 30
0.0
 11
-734.547582344138
 21
168.078686214431
 31
0.0
  0
LINE
  5
134
330
12F
100
AcDbEntity
  8
Layer0
  6
AUSGEZOGEN
 62
    18
420
        0
370
    18
100
AcDbLine
 10
-732.047582344138
 20
168.078686214431
 30
0.0
 11
-732.047582344138
 21
165.578686214431
 31
0.0
  0
LINE
  5
135
330
12F
100
AcDbEntity
  8
Layer0
  6
AUSGEZOGEN
 62
    18
420
        0
370
    18
100
AcDbLine
 10
-732.047582344138
 20
168.078686214431
 30
0.0
 11
-729.547582344138
 21
168.078686214431
 31
0.0
  0
LINE
  5
136
330
12F
100
AcDbEntity
  8
Layer0
  6
AUSGEZOGEN
 62
    18
420
        0
370
    18
100
AcDbLine
 10
-732.047582344138
 20
173.078686214431
 30
0.0
 11
-732.047582344138
 21
201.578686214431
 31
0.0
  0
LINE
  5
137
330
12F
100
AcDbEntity
  8
Layer0
  6
AUSGEZOGEN
 62
    18
420
        0
370
    18
100
AcDbLine
 10
-737.047582344138
 20
168.078686214431
 30
0.0
 11
-765.547582344138
 21
168.078686214431
 31
0.0
  0
LINE
  5
138
330
12F
100
AcDbEntity
  8
Layer0
  6
AUSGEZOGEN
 62
    18
420
        0
370
    18
100
AcDbLine
 10
-732.047582344138
 20
163.078686214431
 30
0.0
 11
-732.047582344138
 21
134.578686214431
 31
0.0
  0
LINE
  5
139
330
12F
100
AcDbEntity
  8
Layer0
  6
AUSGEZOGEN
 62
    18
420
        0
370
    18
100
AcDbLine
 10
-727.047582344138
 20
168.078686214431
 30
0.0
 11
-698.547582344138
 21
168.078686214431
 31
0.0
  0
ENDBLK
  5
131
330
12F
100
AcDbEntity
  8
0
100
AcDbBlockEnd
  0
BLOCK
  5
13C
330
13B
100
AcDbEntity
  8
0
100
AcDbBlockBegin
  2
*D9
 70
     1
 10
0.0
 20
0.0
 30
0.0
  3
*D9
  1

  0
HATCH
  5
13E
330
13B
100
AcDbEntity
  8
Layer6
  6
AUSGEZOGEN
 62
    18
420
        0
370
    18
100
AcDbHatch
 10
0.0
 20
0.0
 30
0.0
210
0.0
220
0.0
230
1.0
  2
SOLID
 70
     1
 71
     0
 91
        1
 92
        2
 72
     0
 73
     1
 93
        3
 10
-651.5763280465721
 20
136.5786862144309
 10
-651.0513280465722
 20
140.0786862144309
 10
-652.1013280465721
 20
140.0786862144309
 97
        0
 75
     0
 76
     1
 98
        0
  0
HATCH
  5
13F
330
13B
100
AcDbEntity
  8
Layer6
  6
AUSGEZOGEN
 62
    18
420
        0
370
    18
100
AcDbHatch
 10
0.0
 20
0.0
 30
0.0
210
0.0
220
0.0
230
1.0
  2
SOLID
 70
     1
 71
     0
 91
        1
 92
        2
 72
     0
 73
     1
 93
        3
 10
-651.5763280465721
 20
199.5786862144309
 10
-652.1013280465721
 20
196.0786862144309
 10
-651.0513280465722
 20
196.0786862144309
 97
        0
 75
     0
 76
     1
 98
        0
  0
LINE
  5
140
330
13B
100
AcDbEntity
  8
Layer6
  6
AUSGEZOGEN
 62
    18
420
        0
370
    18
100
AcDbLine
 10
-651.576328046572
 20
196.078686214431
 30
0.0
 11
-651.576328046572
 21
140.078686214431
 31
0.0
  0
LINE
  5
141
330
13B
100
AcDbEntity
  8
Layer6
  6
AUSGEZOGEN
 62
    18
420
        0
370
    18
100
AcDbLine
 10
-636.583344133751
 20
199.578686214431
 30
0.0
 11
-653.862042332286
 21
199.578686214431
 31
0.0
  0
LINE
  5
142
330
13B
100
AcDbEntity
  8
Layer6
  6
AUSGEZOGEN
 62
    18
420
        0
370
    18
100
AcDbLine
 10
-636.583344133751
 20
136.578686214431
 30
0.0
 11
-653.862042332286
 21
136.578686214431
 31
0.0
  0
WIPEOUT
  5
143
330
13B
100
AcDbEntity
  8
Layer6
  6
AUSGEZOGEN
 62
    18
420
        0
370
    18
160
               128
310
80000000020000000C00000014000000010000006C000000070000000400000028CBAD1E695984C010B433CCB79D6440000000000000000028CBAD1E695984C010B4B3655167654000000000000000005CFEE0519C8C84C010B4B3655167654000000000000000005CFEE0519C8C84C010B433CCB79D644000000000000000
310
00
100
AcDbWipeout
 90
        0
 10
-657.576328046572
 20
164.928686238273
 30
0.0
 11
6.399999999999977
 21
0.0
 31
0.0
 12
0.0
 22
6.399999999999977
 32
0.0
 13
1.0
 23
1.0
340
0
 70
     7
280
     1
281
    50
282
    50
283
     0
360
0
 71
     2
 91
        5
 14
0.5
 24
0.5
 14
0.5
 24
-0.484374992549
 14
-0.5
 24
-0.484374992549
 14
-0.5
 24
0.5
 14
0.5
 24
0.5
290
     0
  0
TEXT
  5
144
330
13B
100
AcDbEntity
  8
Layer6
  6
AUSGEZOGEN
 62
    18
420
        0
370
    18
100
AcDbText
 10
-652.376328046572
 20
164.928686238273
 30
0.0
 40
4.0
  1
63
 50
90.0
 41
0.901029741464
  7
Verdana
 72
     5
 11
-652.376328046572
 21
171.228686190589
 31
0.0
100
AcDbText
  0
ENDBLK
  5
13D
330
13B
100
AcDbEntity
  8
0
100
AcDbBlockEnd
  0
BLOCK
  5
147
330
146
100
AcDbEntity
  8
0
100
AcDbBlockBegin
  2
*D10
 70
     1
 10
0.0
 20
0.0
 30
0.0
  3
*D10
  1

  0
HATCH
  5
149
330
146
100
AcDbEntity
  8
Layer6
  6
AUSGEZOGEN
 62
    18
420
        0
370
    18
100
AcDbHatch
 10
0.0
 20
0.0
 30
0.0
210
0.0
220
0.0
230
1.0
  2
SOLID
 70
     1
 71
     0
 91
        1
 92
        2
 72
     0
 73
     1
 93
        3
 10
-609.0833441337513
 20
214.3403690496858
 10
-612.5833441337513
 20
214.8653690496859
 10
-612.5833441337513
 20
213.8153690496858
 97
        0
 75
     0
 76
     1
 98
        0
  0
HATCH
  5
14A
330
146
100
AcDbEntity
  8
Layer6
  6
AUSGEZOGEN
 62
    18
420
        0
370
    18
100
AcDbHatch
 10
0.0
 20
0.0
 30
0.0
210
0.0
220
0.0
230
1.0
  2
SOLID
 70
     1
 71
     0
 91
        1
 92
        2
 72
     0
 73
     1
 93
        3
 10
-627.0833433588909
 20
214.3403690496858
 10
-623.5833433588909
 20
213.8153690496858
 10
-623.5833433588909
 20
214.8653690496859
 97
        0
 75
     0
 76
     1
 98
        0
  0
LINE
  5
14B
330
146
100
AcDbEntity
  8
Layer6
  6
AUSGEZOGEN
 62
    18
420
        0
370
    18
100
AcDbLine
 10
-623.583343358891
 20
214.340369049686
 30
0.0
 11
-612.583344133751
 21
214.340369049686
 31
0.0
  0
LINE
  5
14C
330
146
100
AcDbEntity
  8
Layer6
  6
AUSGEZOGEN
 62
    18
420
        0
370
    18
100
AcDbLine
 10
-627.083343358891
 20
172.07866451834
 30
0.0
 11
-627.083343358891
 21
199.078686214431
 31
0.0
  0
LINE
  5
14D
330
146
100
AcDbEntity
  8
Layer6
  6
AUSGEZOGEN
 62
    18
420
        0
370
    18
100
AcDbLine
 10
-627.083343358891
 20
200.078686214431
 30
0.0
 11
-627.083343358891
 21
216.6260833354
 31
0.0
  0
LINE
  5
14E
330
146
100
AcDbEntity
  8
Layer6
  6
AUSGEZOGEN
 62
    18
420
        0
370
    18
100
AcDbLine
 10
-609.083344133751
 20
181.752741653451
 30
0.0
 11
-609.083344133751
 21
198.078686214431
 31
0.0
  0
LINE
  5
14F
330
146
100
AcDbEntity
  8
Layer6
  6
AUSGEZOGEN
 62
    18
420
        0
370
    18
100
AcDbLine
 10
-609.083344133751
 20
199.078686214431
 30
0.0
 11
-609.083344133751
 21
216.6260833354
 31
0.0
  0
WIPEOUT
  5
150
330
146
100
AcDbEntity
  8
Layer6
  6
AUSGEZOGEN
 62
    18
420
        0
370
    18
160
               128
310
80000000020000000C00000014000000010000006C0000000700000004000000344650E3DD6983C04852D58017BE6A4000000000000000003446F07C773783C04852D58017BE6A4000000000000000003446F07C773783C0141FA24DE48A6B400000000000000000344650E3DD6983C0141FA24DE48A6B4000000000000000
310
00
100
AcDbWipeout
 90
        0
 10
-621.233343722479
 20
213.940369049686
 30
0.0
 11
6.400000000000006
 21
0.0
 31
0.0
 12
0.0
 22
6.400000000000006
 32
0.0
 13
1.0
 23
1.0
340
0
 70
     7
280
     1
281
    50
282
    50
283
     0
360
0
 71
     2
 91
        5
 14
-0.5
 24
0.5
 14
0.484374992549
 24
0.5
 14
0.484374992549
 24
-0.5
 14
-0.5
 24
-0.5
 14
-0.5
 24
0.5
290
     0
  0
TEXT
  5
151
330
146
100
AcDbEntity
  8
Layer6
  6
AUSGEZOGEN
 62
    18
420
        0
370
    18
100
AcDbText
 10
-621.233343722479
 20
215.140369049686
 30
0.0
 40
4.0
  1
18
 41
0.901029741464
  7
Verdana
 72
     5
 11
-614.933343770163
 21
215.140369049686
 31
0.0
100
AcDbText
  0
ENDBLK
  5
148
330
146
100
AcDbEntity
  8
0
100
AcDbBlockEnd
  0
BLOCK
  5
182
330
181
100
AcDbEntity
  8
0
100
AcDbBlockBegin
  2
Schriftfeld_nNn010
 70
     0
 10
0.0
 20
0.0
 30
0.0
  3
Schriftfeld_nNn010
  1

  0
LINE
  5
184
330
181
100
AcDbEntity
  8
Layer65002
  6
AUSGEZOGEN
 62
    18
420
        0
370
    18
100
AcDbLine
 10
-592.178384397819
 20
27.903333961806
 30
0.0
 11
-592.178384397819
 21
68.203333961806
 31
0.0
  0
LINE
  5
185
330
181
100
AcDbEntity
  8
Layer65002
  6
AUSGEZOGEN
 62
    18
420
        0
370
    18
100
AcDbLine
 10
-592.178384397819
 20
27.903333961806
 30
0.0
 11
-410.828384397819
 21
27.903333961806
 31
0.0
  0
WIPEOUT
  5
186
330
181
100
AcDbEntity
  8
Layer65002
  6
AUSGEZOGEN
 62
    18
420
        0
370
    18
160
               128
310
80000000020000000C00000014000000010000006C00000007000000040000002EC9FF87205982C0A87C0685075054400000000000000000679FBBB12C4F82C0A87C0685075054400000000000000000679FBBB12C4F82C0B47E310C1EB9554000000000000000002EC9FF87205982C0B47E310C1EB9554000000000000000
310
00
100
AcDbWipeout
 90
        0
 10
-587.140884397819
 20
81.250458961806
 30
0.0
 11
5.641999999999996
 21
0.0
 31
0.0
 12
0.0
 22
5.641999999999996
 32
0.0
 13
1.0
 23
1.0
340
0
 70
     7
280
     1
281
    50
282
    50
283
     0
360
0
 71
     2
 91
        5
 14
-0.5
 24
0.5
 14
-0.279499995708
 24
0.5
 14
-0.279499995708
 24
-0.5
 14
-0.5
 24
-0.5
 14
-0.5
 24
0.5
290
     0
  0
TEXT
  5
187
330
181
100
AcDbEntity
  8
Layer65002
  6
AUSGEZOGEN
 62
    18
420
        0
370
    18
100
AcDbText
 10
-587.140884397819
 20
82.308333961806
 30
0.0
 40
3.52625
  1
 
 41
0.909278368212
  7
Arial
 72
     5
 11
-585.896823373606
 21
82.308333961806
 31
0.0
100
AcDbText
  0
WIPEOUT
  5
188
330
181
100
AcDbEntity
  8
Layer65002
  6
AUSGEZOGEN
 62
    18
420
        0
370
    18
160
               128
310
80000000020000000C00000014000000010000006C0000000700000004000000C4F86576A7827CC07449D351D4D456400000000000000000FCF092DEC5697CC07449D351D4D456400000000000000000FCF092DEC5697CC0804BFED8EA3D58400000000000000000C4F86576A7827CC0804BFED8EA3D584000000000000000
310
00
100
AcDbWipeout
 90
        0
 10
-456.165884397819
 20
91.325458961806
 30
0.0
 11
5.641999999999996
 21
0.0
 31
0.0
 12
0.0
 22
5.641999999999996
 32
0.0
 13
1.0
 23
1.0
340
0
 70
     7
280
     1
281
    50
282
    50
283
     0
360
0
 71
     2
 91
        5
 14
-0.5
 24
0.5
 14
-0.224374967813
 24
0.5
 14
-0.224374967813
 24
-0.5
 14
-0.5
 24
-0.5
 14
-0.5
 24
0.5
290
     0
  0
TEXT
  5
189
330
181
100
AcDbEntity
  8
Layer65002
  6
AUSGEZOGEN
 62
    18
420
        0
370
    18
100
AcDbText
 10
-456.165884397819
 20
92.383333961806
 30
0.0
 40
3.52625
  1
 
 41
1.136598070872
  7
Arial
 72
     5
 11
-454.610807966222
 21
92.383333961806
 31
0.0
100
AcDbText
  0
WIPEOUT
  5
18A
330
181
100
AcDbEntity
  8
Layer65002
  6
AUSGEZOGEN
 62
    18
420
        0
370
    18
160
               128
310
80000000020000000C00000014000000010000006C0000000700000004000000C4F86576A7827CC0A87C0685075054400000000000000000FCF092DEC5697CC0A87C0685075054400000000000000000FCF092DEC5697CC0B47E310C1EB955400000000000000000C4F86576A7827CC0B47E310C1EB9554000000000000000
310
00
100
AcDbWipeout
 90
        0
 10
-456.165884397819
 20
81.250458961806
 30
0.0
 11
5.641999999999996
 21
0.0
 31
0.0
 12
0.0
 22
5.641999999999996
 32
0.0
 13
1.0
 23
1.0
340
0
 70
     7
280
     1
281
    50
282
    50
283
     0
360
0
 71
     2
 91
        5
 14
-0.5
 24
0.5
 14
-0.224374967813
 24
0.5
 14
-0.224374967813
 24
-0.5
 14
-0.5
 24
-0.5
 14
-0.5
 24
0.5
290
     0
  0
TEXT
  5
18B
330
181
100
AcDbEntity
  8
Layer65002
  6
AUSGEZOGEN
 62
    18
420
        0
370
    18
100
AcDbText
 10
-456.165884397819
 20
82.308333961806
 30
0.0
 40
3.52625
  1
 
 41
1.136598070872
  7
Arial
 72
     5
 11
-454.610807966222
 21
82.308333961806
 31
0.0
100
AcDbText
  0
ENDBLK
  5
183
330
181
100
AcDbEntity
  8
0
100
AcDbBlockEnd
  0
BLOCK
  5
1BA
330
1B9
100
AcDbEntity
  8
0
100
AcDbBlockBegin
  2
A4 MMT_nNn011
 70
     0
 10
0.0
 20
0.0
 30
0.0
  3
A4 MMT_nNn011
  1

  0
INSERT
  5
1C1
330
1B9
100
AcDbEntity
  8
0
100
AcDbBlockReference
  2
Zeichnungsrahmen_nNn012
 10
0.0
 20
0.0
 30
0.0
  0
INSERT
  5
210
330
1B9
100
AcDbEntity
  8
0
100
AcDbBlockReference
  2
Schriftfeld_nNn013
 10
0.0
 20
0.0
 30
0.0
  0
INSERT
  5
222
330
1B9
100
AcDbEntity
  8
0
100
AcDbBlockReference
  2
Beschriftung_nNn014
 10
0.0
 20
0.0
 30
0.0
  0
WIPEOUT
  5
223
330
1B9
100
AcDbEntity
  8
Layer0
  6
AUSGEZOGEN
 62
    18
420
        0
370
    18
160
               128
310
80000000020000000C00000014000000010000006C0000000700000004000000EDA253EC65C780C0F85E3608FBD24E400000000000000000ED22F55CA39980C0F85E3608FBD24E400000000000000000ED22F55CA39980C0FF82D844DB0D50400000000000000000EDA253EC65C780C0FF82D844DB0D504000000000000000
310
00
100
AcDbWipeout
 90
        0
 10
-536.924767163667
 20
61.648285891102
 30
0.0
 11
5.720000017434359
 21
0.0
 31
0.0
 12
0.0
 22
5.720000017434359
 32
0.0
 13
1.0
 23
1.0
340
0
 70
     7
280
     1
281
    50
282
    50
283
     0
360
0
 71
     2
 91
        5
 14
-0.5
 24
0.5
 14
0.5
 24
0.5
 14
0.5
 24
0.051010102379
 14
-0.5
 24
0.051010102379
 14
-0.5
 24
0.5
290
     0
  0
TEXT
  5
224
330
1B9
100
AcDbEntity
  8
Layer0
  6
AUSGEZOGEN
 62
    18
420
        0
370
    18
100
AcDbText
 10
-536.924767163667
 20
62.129827557769
 30
0.0
 40
1.605138888889
  1
2010
 41
1.019323388599
  7
Verdana
 72
     5
 11
-531.204767146233
 21
62.129827557769
 31
0.0
100
AcDbText
  0
ENDBLK
  5
1BB
330
1B9
100
AcDbEntity
  8
0
100
AcDbBlockEnd
  0
BLOCK
  5
1BD
330
1BC
100
AcDbEntity
  8
0
100
AcDbBlockBegin
  2
Zeichnungsrahmen_nNn012
 70
     0
 10
0.0
 20
0.0
 30
0.0
  3
Zeichnungsrahmen_nNn012
  1

  0
LINE
  5
1BF
330
1BC
100
AcDbEntity
  8
Layer100
  6
AUSGEZOGEN
 62
    18
420
        0
370
    18
100
AcDbLine
 10
-592.178384397819
 20
27.903333961806
 30
0.0
 11
-592.178384397819
 21
81.772607776382
 31
0.0
  0
LINE
  5
1C0
330
1BC
100
AcDbEntity
  8
Layer100
  6
AUSGEZOGEN
 62
    18
420
        0
370
    18
100
AcDbLine
 10
-410.828384397825
 20
81.772075025572
 30
0.0
 11
-592.178384397819
 21
81.772607762606
 31
0.0
  0
ENDBLK
  5
1BE
330
1BC
100
AcDbEntity
  8
0
100
AcDbBlockEnd
  0
BLOCK
  5
1C3
330
1C2
100
AcDbEntity
  8
0
100
AcDbBlockBegin
  2
Schriftfeld_nNn013
 70
     0
 10
0.0
 20
0.0
 30
0.0
  3
Schriftfeld_nNn013
  1

  0
LINE
  5
1C5
330
1C2
100
AcDbEntity
  8
Layer100
  6
AUSGEZOGEN
 62
    18
420
        0
370
    18
100
AcDbLine
 10
-538.943384397819
 20
81.772071589678
 30
0.0
 11
-538.943384397819
 21
27.903321589678
 31
0.0
  0
LINE
  5
1C6
330
1C2
100
AcDbEntity
  8
Layer100
  6
AUSGEZOGEN
 62
    18
420
        0
370
    18
100
AcDbLine
 10
-495.848384397819
 20
81.772077315795
 30
0.0
 11
-495.848384397819
 21
27.903327315795
 31
0.0
  0
LINE
  5
1C7
330
1C2
100
AcDbEntity
  8
Layer100
  6
AUSGEZOGEN
 62
    18
420
        0
370
    18
100
AcDbLine
 10
-424.010384397819
 20
44.478333961806
 30
0.0
 11
-424.010384397819
 21
32.047083961806
 31
0.0
  0
LINE
  5
1C8
330
1C2
100
AcDbEntity
  8
Layer100
  6
AUSGEZOGEN
 62
    18
420
        0
370
    18
100
AcDbLine
 10
-584.573384397819
 20
65.197070176778
 30
0.0
 11
-584.573384397819
 21
27.903320176778
 31
0.0
  0
LINE
  5
1C9
330
1C2
100
AcDbEntity
  8
Layer100
  6
AUSGEZOGEN
 62
    18
420
        0
370
    18
100
AcDbLine
 10
-546.548384397819
 20
65.197041536821
 30
0.0
 11
-546.548384397819
 21
27.903291536821
 31
0.0
  0
LINE
  5
1CA
330
1C2
100
AcDbEntity
  8
Layer100
  6
AUSGEZOGEN
 62
    18
420
        0
370
    18
100
AcDbLine
 10
-559.223384397819
 20
27.903291536821
 30
0.0
 11
-559.223384397819
 21
81.772041536821
 31
0.0
  0
TEXT
  5
1CB
330
1C2
100
AcDbEntity
  8
Layer100
  6
AUSGEZOGEN
 62
    18
420
        0
370
    18
100
AcDbText
 10
-494.990384397819
 20
72.916158957622
 30
0.0
 40
1.3
  1
Rohstoff/Raw material
 41
1.035915721232
  7
Verdana
 72
     5
 11
-474.217684397819
 21
72.916158957622
 31
0.0
100
AcDbText
  0
TEXT
  5
1CC
330
1C2
100
AcDbEntity
  8
Layer100
  6
AUSGEZOGEN
 62
    18
420
        0
370
    18
100
AcDbText
 10
-494.990384397819
 20
69.186783957622
 30
0.0
 40
1.3
  1
Rohteil-Nr./Raw piece No.
 41
1.038352351795
  7
Verdana
 72
     5
 11
-470.740184397819
 21
69.186783957622
 31
0.0
100
AcDbText
  0
TEXT
  5
1CD
330
1C2
100
AcDbEntity
  8
Layer100
  6
AUSGEZOGEN
 62
    18
420
        0
370
    18
100
AcDbText
 10
-494.863634397819
 20
65.664596457622
 30
0.0
 40
1.3
  1
Werkzeug-Nr./Tool No.
 41
1.037171691845
  7
Verdana
 72
     5
 11
-473.353834397819
 21
65.664596457622
 31
0.0
100
AcDbText
  0
TEXT
  5
1CE
330
1C2
100
AcDbEntity
  8
Layer100
  6
AUSGEZOGEN
 62
    18
420
        0
370
    18
100
AcDbText
 10
-494.990384397819
 20
62.556783957622
 30
0.0
 40
1.3
  1
Benennung/Designation
 41
1.035507246377
  7
Verdana
 72
     5
 11
-472.697984397819
 21
62.556783957622
 31
0.0
100
AcDbText
  0
TEXT
  5
1CF
330
1C2
100
AcDbEntity
  8
Layer100
  6
AUSGEZOGEN
 62
    18
420
        0
370
    18
100
AcDbText
 10
-495.117134397819
 20
42.045221457622
 30
0.0
 40
1.3
  1
Sachnummer/Part-No.
 41
1.034012076053
  7
Verdana
 72
     5
 11
-474.190384397819
 21
42.045221457622
 31
0.0
100
AcDbText
  0
TEXT
  5
1D0
330
1C2
100
AcDbEntity
  8
Layer100
  6
AUSGEZOGEN
 62
    18
420
        0
370
    18
100
AcDbText
 10
-423.630134397819
 20
41.320796474359
 30
0.0
 40
1.3
  1
Blatt
 41
1.034055727554
  7
Verdana
 72
     5
 11
-419.288134397819
 21
41.320796474359
 31
0.0
100
AcDbText
  0
TEXT
  5
1D1
330
1C2
100
AcDbEntity
  8
Layer100
  6
AUSGEZOGEN
 62
    18
420
        0
370
    18
100
AcDbText
 10
-423.630134397819
 20
39.630796474359
 30
0.0
 40
1.3
  1
Sheet
 41
1.031829573935
  7
Verdana
 72
     5
 11
-418.278034397819
 21
39.630796474359
 31
0.0
100
AcDbText
  0
TEXT
  5
1D2
330
1C2
100
AcDbEntity
  8
Layer100
  6
AUSGEZOGEN
 62
    18
420
        0
370
    18
100
AcDbText
 10
-535.141850218954
 20
79.262023802019
 30
0.0
 40
1.3
  1
Zul. Abw. f. Maße
 41
1.035983606557
  7
Verdana
 72
     5
 11
-518.711150218954
 21
79.262023802019
 31
0.0
100
AcDbText
  0
TEXT
  5
1D3
330
1C2
100
AcDbEntity
  8
Layer100
  6
AUSGEZOGEN
 62
    18
420
        0
370
    18
100
AcDbText
 10
-535.141850218954
 20
77.572023802019
 30
0.0
 40
1.3
  1
ohne Toleranzang.
 41
1.036135175213
  7
Verdana
 72
     5
 11
-517.883050218954
 21
77.572023802019
 31
0.0
100
AcDbText
  0
TEXT
  5
1D4
330
1C2
100
AcDbEntity
  8
Layer100
  6
AUSGEZOGEN
 62
    18
420
        0
370
    18
100
AcDbText
 10
-535.141850218954
 20
75.882023802019
 30
0.0
 40
1.3
  1
General tolerances
 41
1.037575266327
  7
Verdana
 72
     5
 11
-517.668875218954
 21
75.882023802019
 31
0.0
100
AcDbText
  0
LINE
  5
1D5
330
1C2
100
AcDbEntity
  8
Layer100
  6
AUSGEZOGEN
 62
    18
420
        0
370
    18
100
AcDbLine
 10
-410.828386747538
 20
38.262708961806
 30
0.0
 11
-424.010384397819
 21
38.262708961806
 31
0.0
  0
TEXT
  5
1D6
330
1C2
100
AcDbEntity
  8
Layer100
  6
AUSGEZOGEN
 62
    18
420
        0
370
    18
100
AcDbText
 10
-423.630134397819
 20
35.312358974359
 30
0.0
 40
1.3
  1
von
 41
1.025605398968
  7
Verdana
 72
     5
 11
-420.271584397819
 21
35.312358974359
 31
0.0
100
AcDbText
  0
TEXT
  5
1D7
330
1C2
100
AcDbEntity
  8
Layer100
  6
AUSGEZOGEN
 62
    18
420
        0
370
    18
100
AcDbText
 10
-423.630134397819
 20
33.622358974359
 30
0.0
 40
1.3
  1
of
 41
1.022572078907
  7
Verdana
 72
     5
 11
-421.878059397819
 21
33.622358974359
 31
0.0
100
AcDbText
  0
LINE
  5
1D8
330
1C2
100
AcDbEntity
  8
Layer100
  6
AUSGEZOGEN
 62
    18
420
        0
370
    18
100
AcDbLine
 10
-528.803384397819
 20
65.197083961806
 30
0.0
 11
-528.803384397819
 21
48.622083961806
 31
0.0
  0
TEXT
  5
1D9
330
1C2
100
AcDbEntity
  8
Layer100
  6
AUSGEZOGEN
 62
    18
420
        0
370
    18
100
AcDbText
 10
-538.212165346189
 20
50.643391343855
 30
0.0
 40
1.3
  1
Norm
 41
1.024881203801
  7
Verdana
 72
     5
 11
-533.165240346189
 21
50.643391343855
 31
0.0
100
AcDbText
  0
TEXT
  5
1DA
330
1C2
100
AcDbEntity
  8
Layer100
  6
AUSGEZOGEN
 62
    18
420
        0
370
    18
100
AcDbText
 10
-538.212165346189
 20
48.953391343855
 30
0.0
 40
1.3
  1
Appr.
 41
1.031275060144
  7
Verdana
 72
     5
 11
-533.196765346189
 21
48.953391343855
 31
0.0
100
AcDbText
  0
TEXT
  5
1DB
330
1C2
100
AcDbEntity
  8
Layer100
  6
AUSGEZOGEN
 62
    18
420
        0
370
    18
100
AcDbText
 10
-538.21246932314
 20
54.787701158239
 30
0.0
 40
1.3
  1
Gepr.
 41
1.031339775398
  7
Verdana
 72
     5
 11
-533.07876932314
 21
54.787701158239
 31
0.0
100
AcDbText
  0
TEXT
  5
1DC
330
1C2
100
AcDbEntity
  8
Layer100
  6
AUSGEZOGEN
 62
    18
420
        0
370
    18
100
AcDbText
 10
-538.21246932314
 20
53.097701158239
 30
0.0
 40
1.3
  1
Check.
 41
1.033287027143
  7
Verdana
 72
     5
 11
-531.92729432314
 21
53.097701158239
 31
0.0
100
AcDbText
  0
TEXT
  5
1DD
330
1C2
100
AcDbEntity
  8
Layer100
  6
AUSGEZOGEN
 62
    18
420
        0
370
    18
100
AcDbText
 10
-528.072479089721
 20
63.076031987179
 30
0.0
 40
1.3
  1
Datum
 41
1.025895554596
  7
Verdana
 72
     5
 11
-521.892279089721
 21
63.076031987179
 31
0.0
100
AcDbText
  0
TEXT
  5
1DE
330
1C2
100
AcDbEntity
  8
Layer100
  6
AUSGEZOGEN
 62
    18
420
        0
370
    18
100
AcDbText
 10
-528.072479089721
 20
61.386031987179
 30
0.0
 40
1.3
  1
Date
 41
1.0278034504
  7
Verdana
 72
     5
 11
-523.735354089721
 21
61.386031987179
 31
0.0
100
AcDbText
  0
TEXT
  5
1DF
330
1C2
100
AcDbEntity
  8
Layer100
  6
AUSGEZOGEN
 62
    18
420
        0
370
    18
100
AcDbText
 10
-512.862134397819
 20
63.075483974359
 30
0.0
 40
1.3
  1
Name
 41
1.023747195213
  7
Verdana
 72
     5
 11
-507.524009397819
 21
63.075483974359
 31
0.0
100
AcDbText
  0
TEXT
  5
1E0
330
1C2
100
AcDbEntity
  8
Layer100
  6
AUSGEZOGEN
 62
    18
420
        0
370
    18
100
AcDbText
 10
-512.862134397819
 20
61.385483974359
 30
0.0
 40
1.3
  1
Name
 41
1.023747195213
  7
Verdana
 72
     5
 11
-507.524009397819
 21
61.385483974359
 31
0.0
100
AcDbText
  0
TEXT
  5
1E1
330
1C2
100
AcDbEntity
  8
Layer100
  6
AUSGEZOGEN
 62
    18
420
        0
370
    18
100
AcDbText
 10
-538.214594496847
 20
58.932875256209
 30
0.0
 40
1.3
  1
Bearb.
 41
1.031277581642
  7
Verdana
 72
     5
 11
-532.138719496847
 21
58.932875256209
 31
0.0
100
AcDbText
  0
TEXT
  5
1E2
330
1C2
100
AcDbEntity
  8
Layer100
  6
AUSGEZOGEN
 62
    18
420
        0
370
    18
100
AcDbText
 10
-538.214594496847
 20
57.242875256209
 30
0.0
 40
1.3
  1
Drawn
 41
1.025072755765
  7
Verdana
 72
     5
 11
-532.261894496847
 21
57.242875256209
 31
0.0
100
AcDbText
  0
TEXT
  5
1E3
330
1C2
100
AcDbEntity
  8
Layer100
  6
AUSGEZOGEN
 62
    18
420
        0
370
    18
100
AcDbText
 10
-591.320384397819
 20
29.925483974359
 30
0.0
 40
1.3
  1
Ausg.
 41
1.031419005923
  7
Verdana
 72
     5
 11
-586.113884397819
 21
29.925483974359
 31
0.0
100
AcDbText
  0
TEXT
  5
1E4
330
1C2
100
AcDbEntity
  8
Layer100
  6
AUSGEZOGEN
 62
    18
420
        0
370
    18
100
AcDbText
 10
-591.320384397819
 20
28.235483974359
 30
0.0
 40
1.3
  1
Issue
 41
1.033243243243
  7
Verdana
 72
     5
 11
-586.350484397819
 21
28.235483974359
 31
0.0
100
AcDbText
  0
TEXT
  5
1E5
330
1C2
100
AcDbEntity
  8
Layer100
  6
AUSGEZOGEN
 62
    18
420
        0
370
    18
100
AcDbText
 10
-583.715384397819
 20
29.925483974359
 30
0.0
 40
1.3
  1
Änderung
 41
1.031371814093
  7
Verdana
 72
     5
 11
-574.772359397819
 21
29.925483974359
 31
0.0
100
AcDbText
  0
TEXT
  5
1E6
330
1C2
100
AcDbEntity
  8
Layer100
  6
AUSGEZOGEN
 62
    18
420
        0
370
    18
100
AcDbText
 10
-583.715384397819
 20
28.235483974359
 30
0.0
 40
1.3
  1
Modification
 41
1.03710322268
  7
Verdana
 72
     5
 11
-572.587059397819
 21
28.235483974359
 31
0.0
100
AcDbText
  0
TEXT
  5
1E7
330
1C2
100
AcDbEntity
  8
Layer100
  6
AUSGEZOGEN
 62
    18
420
        0
370
    18
100
AcDbText
 10
-558.492134397819
 20
29.925483974359
 30
0.0
 40
1.3
  1
Datum
 41
1.025895554596
  7
Verdana
 72
     5
 11
-552.311934397819
 21
29.925483974359
 31
0.0
100
AcDbText
  0
TEXT
  5
1E8
330
1C2
100
AcDbEntity
  8
Layer100
  6
AUSGEZOGEN
 62
    18
420
        0
370
    18
100
AcDbText
 10
-558.492134397819
 20
28.235483974359
 30
0.0
 40
1.3
  1
Date
 41
1.0278034504
  7
Verdana
 72
     5
 11
-554.155009397819
 21
28.235483974359
 31
0.0
100
AcDbText
  0
TEXT
  5
1E9
330
1C2
100
AcDbEntity
  8
Layer100
  6
AUSGEZOGEN
 62
    18
420
        0
370
    18
100
AcDbText
 10
-545.817134397819
 20
29.925483974359
 30
0.0
 40
1.3
  1
Name
 41
1.023747195213
  7
Verdana
 72
     5
 11
-540.479009397819
 21
29.925483974359
 31
0.0
100
AcDbText
  0
TEXT
  5
1EA
330
1C2
100
AcDbEntity
  8
Layer100
  6
AUSGEZOGEN
 62
    18
420
        0
370
    18
100
AcDbText
 10
-545.817134397819
 20
28.235483974359
 30
0.0
 40
1.3
  1
Name
 41
1.023747195213
  7
Verdana
 72
     5
 11
-540.479009397819
 21
28.235483974359
 31
0.0
100
AcDbText
  0
LINE
  5
1EB
330
1C2
100
AcDbEntity
  8
Layer100
  6
AUSGEZOGEN
 62
    18
420
        0
370
    18
100
AcDbLine
 10
-513.593384397819
 20
65.197083961806
 30
0.0
 11
-513.593384397819
 21
48.622083961806
 31
0.0
  0
LINE
  5
1EC
330
1C2
100
AcDbEntity
  8
Layer100
  6
AUSGEZOGEN
 62
    18
420
        0
370
    18
100
AcDbLine
 10
-513.593384397819
 20
81.772084571309
 30
0.0
 11
-513.593384397819
 21
65.197083961806
 31
0.0
  0
TEXT
  5
1ED
330
1C2
100
AcDbEntity
  8
Layer100
  6
AUSGEZOGEN
 62
    18
420
        0
370
    18
100
AcDbText
 10
-444.417134397819
 20
79.212708961806
 30
0.0
 40
1.3
  1
Menge
 41
1.027630415561
  7
Verdana
 72
     5
 11
-438.373434397819
 21
79.212708961806
 31
0.0
100
AcDbText
  0
TEXT
  5
1EE
330
1C2
100
AcDbEntity
  8
Layer100
  6
AUSGEZOGEN
 62
    18
420
        0
370
    18
100
AcDbText
 10
-444.417134397819
 20
77.522708961806
 30
0.0
 40
1.3
  1
Quantity
 41
1.033808880635
  7
Verdana
 72
     5
 11
-436.456909397819
 21
77.522708961806
 31
0.0
100
AcDbText
  0
TEXT
  5
1EF
330
1C2
100
AcDbEntity
  8
Layer100
  6
AUSGEZOGEN
 62
    18
420
        0
370
    18
100
AcDbText
 10
-494.863634397819
 20
79.236108974359
 30
0.0
 40
1.3
  1
Maßstab
 41
1.028638172694
  7
Verdana
 72
     5
 11
-487.135784397819
 21
79.236108974359
 31
0.0
100
AcDbText
  0
TEXT
  5
1F0
330
1C2
100
AcDbEntity
  8
Layer100
  6
AUSGEZOGEN
 62
    18
420
        0
370
    18
100
AcDbText
 10
-494.863634397819
 20
77.546108974359
 30
0.0
 40
1.3
  1
Scale
 41
1.031810766721
  7
Verdana
 72
     5
 11
-489.930134397819
 21
77.546108974359
 31
0.0
100
AcDbText
  0
TEXT
  5
1F1
330
1C2
100
AcDbEntity
  8
Layer100
  6
AUSGEZOGEN
 62
    18
420
        0
370
    18
100
AcDbText
 10
-538.212134397819
 20
29.925483974359
 30
0.0
 40
1.3
  1
Dateiname
 41
1.031304347826
  7
Verdana
 72
     5
 11
-528.190434397819
 21
29.925483974359
 31
0.0
100
AcDbText
  0
TEXT
  5
1F2
330
1C2
100
AcDbEntity
  8
Layer100
  6
AUSGEZOGEN
 62
    18
420
        0
370
    18
100
AcDbText
 10
-538.212134397819
 20
28.235483974359
 30
0.0
 40
1.3
  1
Filename
 41
1.032542236525
  7
Verdana
 72
     5
 11
-529.869709397819
 21
28.235483974359
 31
0.0
100
AcDbText
  0
TEXT
  5
1F3
330
1C2
100
AcDbEntity
  8
Layer100
  6
AUSGEZOGEN
 62
    18
420
        0
370
    18
100
AcDbText
 10
-556.039189248765
 20
79.262023802019
 30
0.0
 40
1.3
  1
 Maße in mm
 41
1.030851888778
  7
Verdana
 72
     5
 11
-543.942039248765
 21
79.262023802019
 31
0.0
100
AcDbText
  0
TEXT
  5
1F4
330
1C2
100
AcDbEntity
  8
Layer100
  6
AUSGEZOGEN
 62
    18
420
        0
370
    18
100
AcDbText
 10
-556.039189248765
 20
77.572023802019
 30
0.0
 40
1.3
  1
Dimensions in
 41
1.035957139913
  7
Verdana
 72
     5
 11
-542.967689248765
 21
77.572023802019
 31
0.0
100
AcDbText
  0
TEXT
  5
1F5
330
1C2
100
AcDbEntity
  8
Layer100
  6
AUSGEZOGEN
 62
    18
420
        0
370
    18
100
AcDbText
 10
-556.039189248765
 20
75.882023802019
 30
0.0
 40
1.3
  1
 millimeters
 41
1.038567746686
  7
Verdana
 72
     5
 11
-545.038264248765
 21
75.882023802019
 31
0.0
100
AcDbText
  0
CIRCLE
  5
1F6
330
1C2
100
AcDbEntity
  8
Layer100
  6
AUSGEZOGEN
 62
    18
420
        0
370
    18
100
AcDbCircle
 10
-545.928474575788
 20
69.359598645985
 30
0.0
 40
2.735721339781723
  0
CIRCLE
  5
1F7
330
1C2
100
AcDbEntity
  8
Layer100
  6
AUSGEZOGEN
 62
    18
420
        0
370
    18
100
AcDbCircle
 10
-545.928474575788
 20
69.359598645985
 30
0.0
 40
1.83517766497462
  0
LINE
  5
1F8
330
1C2
100
AcDbEntity
  8
Layer100
  6
AUSGEZOGEN
 62
    18
420
        0
370
    18
100
AcDbLine
 10
-556.327814677311
 20
67.524420981011
 30
0.0
 11
-556.327814677311
 21
71.19477631096
 31
0.0
  0
LINE
  5
1F9
330
1C2
100
AcDbEntity
  8
Layer100
  6
AUSGEZOGEN
 62
    18
420
        0
370
    18
100
AcDbLine
 10
-550.516418738225
 20
66.623877306204
 30
0.0
 11
-550.516418738225
 21
72.095319985767
 31
0.0
  0
LINE
  5
1FA
330
1C2
100
AcDbEntity
  8
Layer100
  6
AUSGEZOGEN
 62
    18
420
        0
370
    18
100
AcDbLine
 10
-556.327814677311
 20
71.19477631096
 30
0.0
 11
-550.516418738225
 21
72.095319985767
 31
0.0
  0
LINE
  5
1FB
330
1C2
100
AcDbEntity
  8
Layer100
  6
AUSGEZOGEN
 62
    18
420
        0
370
    18
100
AcDbLine
 10
-550.516418738225
 20
66.623877306204
 30
0.0
 11
-556.327814677311
 21
67.524420981011
 31
0.0
  0
LINE
  5
1FC
330
1C2
100
AcDbEntity
  8
Layer100
  6
DASHDOT
 62
    18
420
        0
370
    18
100
AcDbLine
 10
-545.928474575788
 20
65.995106264518
 30
0.0
 11
-545.928474575788
 21
72.377979688166
 31
0.0
  0
LINE
  5
1FD
330
1C2
100
AcDbEntity
  8
Layer100
  6
DASHDOT
 62
    18
420
        0
370
    18
100
AcDbLine
 10
-548.974339755467
 20
69.359598645985
 30
0.0
 11
-542.868373148556
 21
69.359598645985
 31
0.0
  0
LINE
  5
1FE
330
1C2
100
AcDbEntity
  8
Layer100
  6
DASHDOT
 62
    18
420
        0
370
    18
100
AcDbLine
 10
-556.607451318199
 20
69.359598645985
 30
0.0
 11
-550.254894655794
 21
69.359598645985
 31
0.0
  0
TEXT
  5
1FF
330
1C2
100
AcDbEntity
  8
Layer100
  6
AUSGEZOGEN
 62
    18
420
        0
370
    18
100
AcDbText
 10
-512.186784397819
 20
79.419896461806
 30
0.0
 40
1.3
  1
Fertigzustand
 41
1.036693333333
  7
Verdana
 72
     5
 11
-499.552084397819
 21
79.419896461806
 31
0.0
100
AcDbText
  0
TEXT
  5
200
330
1C2
100
AcDbEntity
  8
Layer100
  6
AUSGEZOGEN
 62
    18
420
        0
370
    18
100
AcDbText
 10
-512.371221897819
 20
77.729896461806
 30
0.0
 40
1.3
  1
finished cond.
 41
1.038707165109
  7
Verdana
 72
     5
 11
-499.367646897819
 21
77.729896461806
 31
0.0
100
AcDbText
  0
TEXT
  5
201
330
1C2
100
AcDbEntity
  8
Layer100
  6
AUSGEZOGEN
 62
    18
420
        0
370
    18
100
AcDbText
 10
-495.117134397819
 20
29.925483974359
 30
0.0
 40
1.3
  1
Ursprung
 41
1.031535433071
  7
Verdana
 72
     5
 11
-486.601809397819
 21
29.925483974359
 31
0.0
100
AcDbText
  0
TEXT
  5
202
330
1C2
100
AcDbEntity
  8
Layer100
  6
AUSGEZOGEN
 62
    18
420
        0
370
    18
100
AcDbText
 10
-495.117134397819
 20
28.235483974359
 30
0.0
 40
1.3
  1
Source
 41
1.031833438221
  7
Verdana
 72
     5
 11
-488.722759397819
 21
28.235483974359
 31
0.0
100
AcDbText
  0
LINE
  5
203
330
1C2
100
AcDbEntity
  8
Layer100
  6
AUSGEZOGEN
 62
    18
420
        0
370
    18
100
AcDbLine
 10
-445.148384397819
 20
32.047083961806
 30
0.0
 11
-445.148384397819
 21
27.903333961806
 31
0.0
  0
LINE
  5
204
330
1C2
100
AcDbEntity
  8
Layer100
  6
AUSGEZOGEN
 62
    18
420
        0
370
    18
100
AcDbLine
 10
-592.178384397819
 20
32.047083961806
 30
0.0
 11
-410.828384397819
 21
32.047083961806
 31
0.0
  0
LINE
  5
205
330
1C2
100
AcDbEntity
  8
Layer100
  6
AUSGEZOGEN
 62
    18
420
        0
370
    18
100
AcDbLine
 10
-592.178384397819
 20
36.190833961806
 30
0.0
 11
-538.943384397819
 21
36.190833961806
 31
0.0
  0
LINE
  5
206
330
1C2
100
AcDbEntity
  8
Layer100
  6
AUSGEZOGEN
 62
    18
420
        0
370
    18
100
AcDbLine
 10
-592.178384397819
 20
40.334583961806
 30
0.0
 11
-538.943384397819
 21
40.334583961806
 31
0.0
  0
LINE
  5
207
330
1C2
100
AcDbEntity
  8
Layer100
  6
AUSGEZOGEN
 62
    18
420
        0
370
    18
100
AcDbLine
 10
-495.848384397819
 20
44.478333961806
 30
0.0
 11
-410.828386747538
 21
44.478333961806
 31
0.0
  0
LINE
  5
208
330
1C2
100
AcDbEntity
  8
Layer100
  6
AUSGEZOGEN
 62
    18
420
        0
370
    18
100
AcDbLine
 10
-592.178384397819
 20
44.478333961806
 30
0.0
 11
-538.943384397819
 21
44.478333961806
 31
0.0
  0
LINE
  5
209
330
1C2
100
AcDbEntity
  8
Layer100
  6
AUSGEZOGEN
 62
    18
420
        0
370
    18
100
AcDbLine
 10
-592.178384397819
 20
48.622083961806
 30
0.0
 11
-495.848384397819
 21
48.622083961806
 31
0.0
  0
LINE
  5
20A
330
1C2
100
AcDbEntity
  8
Layer100
  6
AUSGEZOGEN
 62
    18
420
        0
370
    18
100
AcDbLine
 10
-592.178384397819
 20
52.765833961806
 30
0.0
 11
-495.848384397819
 21
52.765833961806
 31
0.0
  0
LINE
  5
20B
330
1C2
100
AcDbEntity
  8
Layer100
  6
AUSGEZOGEN
 62
    18
420
        0
370
    18
100
AcDbLine
 10
-592.178384397819
 20
56.909583961806
 30
0.0
 11
-495.848384397819
 21
56.909583961806
 31
0.0
  0
LINE
  5
20C
330
1C2
100
AcDbEntity
  8
Layer100
  6
AUSGEZOGEN
 62
    18
420
        0
370
    18
100
AcDbLine
 10
-592.178384397819
 20
61.053333961806
 30
0.0
 11
-495.848384397819
 21
61.053333961806
 31
0.0
  0
LINE
  5
20D
330
1C2
100
AcDbEntity
  8
Layer100
  6
AUSGEZOGEN
 62
    18
420
        0
370
    18
100
AcDbLine
 10
-592.178384397819
 20
65.197083961806
 30
0.0
 11
-410.828384397819
 21
65.197083961806
 31
0.0
  0
LINE
  5
20E
330
1C2
100
AcDbEntity
  8
Layer100
  6
AUSGEZOGEN
 62
    18
420
        0
370
    18
100
AcDbLine
 10
-445.148384397819
 20
81.772077315795
 30
0.0
 11
-445.148384397819
 21
75.556550844597
 31
0.0
  0
LINE
  5
20F
330
1C2
100
AcDbEntity
  8
Layer100
  6
AUSGEZOGEN
 62
    18
420
        0
370
    18
100
AcDbLine
 10
-410.828386747538
 20
75.556450025552
 30
0.0
 11
-495.848384397819
 21
75.556699781832
 31
0.0
  0
ENDBLK
  5
1C4
330
1C2
100
AcDbEntity
  8
0
100
AcDbBlockEnd
  0
BLOCK
  5
212
330
211
100
AcDbEntity
  8
0
100
AcDbBlockBegin
  2
Beschriftung_nNn014
 70
     0
 10
0.0
 20
0.0
 30
0.0
  3
Beschriftung_nNn014
  1

  0
TEXT
  5
214
330
211
100
AcDbEntity
  8
Layer100
  6
AUSGEZOGEN
 62
    18
420
        0
370
    18
100
AcDbText
 10
-535.595079546872
 20
69.600539987471
 30
0.0
 40
1.834444444444
  1
ISO 2768-Km
 41
1.059256652688
  7
Verdana
 72
     5
 11
-517.146837355009
 21
69.600539987471
 31
0.0
100
AcDbText
  0
TEXT
  5
215
330
211
100
AcDbEntity
  8
Layer100
  6
AUSGEZOGEN
 62
    18
420
        0
370
    18
100
AcDbText
 10
-465.204134397819
 20
72.655833961806
 30
0.0
 40
2.06374989152
  1
-
 41
0.967741971819
  7
Arial
 72
     5
 11
-464.275446911766
 21
72.655833961806
 31
0.0
100
AcDbText
  0
TEXT
  5
216
330
211
100
AcDbEntity
  8
Layer100
  6
AUSGEZOGEN
 62
    18
420
        0
370
    18
100
AcDbText
 10
-465.204134397819
 20
69.340833961806
 30
0.0
 40
2.06374989152
  1
-
 41
0.967741971819
  7
Arial
 72
     5
 11
-464.275446911766
 21
69.340833961806
 31
0.0
100
AcDbText
  0
TEXT
  5
217
330
211
100
AcDbEntity
  8
Layer100
  6
AUSGEZOGEN
 62
    18
420
        0
370
    18
100
AcDbText
 10
-465.204134397819
 20
65.818646461806
 30
0.0
 40
2.06374989152
  1
-
 41
0.967741971819
  7
Arial
 72
     5
 11
-464.275446911766
 21
65.818646461806
 31
0.0
100
AcDbText
  0
TEXT
  5
218
330
211
100
AcDbEntity
  8
Layer100
  6
AUSGEZOGEN
 62
    18
420
        0
370
    18
100
AcDbText
 10
-417.165884397819
 20
34.118958961806
 30
0.0
 40
2.06374989152
  1
1
 41
0.974226840702
  7
Arial
 72
     5
 11
-415.60568942125
 21
34.118958961806
 31
0.0
100
AcDbText
  0
TEXT
  5
219
330
211
100
AcDbEntity
  8
Layer100
  6
AUSGEZOGEN
 62
    18
420
        0
370
    18
100
AcDbText
 10
-417.039134397819
 20
40.127396461806
 30
0.0
 40
2.06374989152
  1
1
 41
0.974226840702
  7
Arial
 72
     5
 11
-415.47893942125
 21
40.127396461806
 31
0.0
100
AcDbText
  0
TEXT
  5
21A
330
211
100
AcDbEntity
  8
Layer100
  6
AUSGEZOGEN
 62
    18
420
        0
370
    18
100
AcDbText
 10
-482.949134397819
 20
77.628333961806
 30
0.0
 40
2.06374989152
  1
1:1
 41
1.022756754879
  7
Arial
 72
     5
 11
-478.85434896247
 21
77.628333961806
 31
0.0
100
AcDbText
  0
TEXT
  5
21B
330
211
100
AcDbEntity
  8
Layer100
  6
AUSGEZOGEN
 62
    18
420
        0
370
    18
100
AcDbText
 10
-430.728134397819
 20
77.835521461806
 30
0.0
 40
2.06374989152
  1
1
 41
0.974226840702
  7
Arial
 72
     5
 11
-429.16793942125
 21
77.835521461806
 31
0.0
100
AcDbText
  0
TEXT
  5
21C
330
211
100
AcDbEntity
  8
Layer100
  6
AUSGEZOGEN
 62
    18
420
        0
370
    18
100
AcDbText
 10
-494.795384397819
 20
55.203333961806
 30
0.0
 40
4.14375
  1
PE-Magnet
 41
0.904170725664
  7
Arial
 72
     5
 11
-468.636222120537
 21
55.203333961806
 31
0.0
100
AcDbText
  0
TEXT
  5
21D
330
211
100
AcDbEntity
  8
Layer100
  6
AUSGEZOGEN
 62
    18
420
        0
370
    18
100
AcDbText
 10
-494.795384397819
 20
48.378333961806
 30
0.0
 40
4.14375
  1
%%c63x29mm
 41
0.896179651366
  7
Arial
 72
     5
 11
-468.005874877288
 21
48.378333961806
 31
0.0
100
AcDbText
  0
TEXT
  5
21E
330
211
100
AcDbEntity
  8
Layer100
  6
AUSGEZOGEN
 62
    18
420
        0
370
    18
100
AcDbText
 10
-528.077604721215
 20
57.912139473712
 30
0.0
 40
1.43
  1
08.01.10
 41
1.061773661744
  7
Arial
 72
     5
 11
-519.830001742466
 21
57.912139473712
 31
0.0
100
AcDbText
  0
TEXT
  5
21F
330
211
100
AcDbEntity
  8
Layer100
  6
AUSGEZOGEN
 62
    18
420
        0
370
    18
100
AcDbText
 10
-512.614104721215
 20
57.912139473712
 30
0.0
 40
1.43
  1
C. Franke
 41
1.0619273649
  7
Arial
 72
     5
 11
-503.308392745502
 21
57.912139473712
 31
0.0
100
AcDbText
  0
TEXT
  5
220
330
211
100
AcDbEntity
  8
Layer100
  6
AUSGEZOGEN
 62
    18
420
        0
370
    18
100
AcDbText
 10
-528.077604721215
 20
53.768389473712
 30
0.0
 40
1.43
  1
08.01.10
 41
1.061773661744
  7
Arial
 72
     5
 11
-519.830001742466
 21
53.768389473712
 31
0.0
100
AcDbText
  0
TEXT
  5
221
330
211
100
AcDbEntity
  8
Layer100
  6
AUSGEZOGEN
 62
    18
420
        0
370
    18
100
AcDbText
 10
-512.614104721215
 20
53.768389473712
 30
0.0
 40
1.43
  1
R. Mannel
 41
1.059816206903
  7
Arial
 72
     5
 11
-502.973772745502
 21
53.768389473712
 31
0.0
100
AcDbText
  0
ENDBLK
  5
213
330
211
100
AcDbEntity
  8
0
100
AcDbBlockEnd
  0
ENDSEC
  0
SECTION
  2
ENTITIES
  0
INSERT
  5
85
330
1F
100
AcDbEntity
  8
0
100
AcDbBlockReference
  2
SW_NOTE_0_nNn00
 10
0.0
 20
0.0
 30
0.0
  0
LINE
  5
86
330
1F
100
AcDbEntity
  8
Layer0
  6
AUSGEZOGEN
 62
    18
420
        0
370
    18
100
AcDbLine
 10
-476.170888264252
 20
271.248283687879
 30
0.0
 11
-476.170888264252
 21
270.02347247005
 31
0.0
  0
LINE
  5
87
330
1F
100
AcDbEntity
  8
Layer0
  6
AUSGEZOGEN
 62
    18
420
        0
370
    18
100
AcDbLine
 10
-421.170888264252
 20
270.02347247005
 30
0.0
 11
-421.170888264252
 21
271.248283687879
 31
0.0
  0
LINE
  5
88
330
1F
100
AcDbEntity
  8
Layer0
  6
AUSGEZOGEN
 62
    18
420
        0
370
    18
100
AcDbLine
 10
-438.769784773448
 20
277.778752533042
 30
0.0
 11
-439.123395612405
 21
277.982954080654
 31
0.0
  0
LINE
  5
89
330
1F
100
AcDbEntity
  8
Layer0
  6
AUSGEZOGEN
 62
    18
420
        0
370
    18
100
AcDbLine
 10
-458.2183809161
 20
277.982954080654
 30
0.0
 11
-458.571991755057
 21
277.778752533042
 31
0.0
  0
LINE
  5
8A
330
1F
100
AcDbEntity
  8
Layer0
  6
AUSGEZOGEN
 62
    18
420
        0
370
    18
100
AcDbLine
 10
-434.670888264252
 20
270.062031182966
 30
0.0
 11
-434.670888264252
 21
272.064824499764
 31
0.0
  0
LINE
  5
8B
330
1F
100
AcDbEntity
  8
Layer0
  6
AUSGEZOGEN
 62
    18
420
        0
370
    18
100
AcDbLine
 10
-462.670888264252
 20
272.064824499764
 30
0.0
 11
-462.670888264252
 21
270.062031182966
 31
0.0
  0
LINE
  5
8C
330
1F
100
AcDbEntity
  8
Layer0
  6
AUSGEZOGEN
 62
    18
420
        0
370
    18
100
AcDbLine
 10
-426.393405409942
 20
284.92116257464
 30
0.0
 11
-426.747016248899
 21
285.125364122251
 31
0.0
  0
LINE
  5
8D
330
1F
100
AcDbEntity
  8
Layer0
  6
AUSGEZOGEN
 62
    18
420
        0
370
    18
100
AcDbLine
 10
-470.594760279606
 20
285.125364122251
 30
0.0
 11
-470.948371118563
 21
284.92116257464
 31
0.0
  0
LINE
  5
8E
330
1F
100
AcDbEntity
  8
Layer0
  6
AUSGEZOGEN
 62
    18
420
        0
370
    18
100
AcDbLine
 10
-417.170888264252
 20
250.426492984792
 30
0.0
 11
-417.170888264252
 21
272.064824499764
 31
0.0
  0
LINE
  5
8F
330
1F
100
AcDbEntity
  8
Layer0
  6
AUSGEZOGEN
 62
    18
420
        0
370
    18
100
AcDbLine
 10
-480.170888264252
 20
272.064824499764
 30
0.0
 11
-480.170888264252
 21
250.426492984792
 31
0.0
  0
LINE
  5
90
330
1F
100
AcDbEntity
  8
Layer0
  6
AUSGEZOGEN
 62
    18
420
        0
370
    18
100
AcDbLine
 10
-470.948371118564
 20
237.570154909917
 30
0.0
 11
-470.241149440649
 21
237.161751814694
 31
0.0
  0
LWPOLYLINE
  5
91
330
1F
100
AcDbEntity
  8
Layer0
  6
AUSGEZOGEN
 62
    18
420
        0
370
    18
100
AcDbPolyline
 90
       47
 70
     0
 43
0.0
 10
-421.756202113989
 20
274.506236411635
 10
-422.260099251241
 20
275.671988751981
 10
-422.915274996216
 20
276.812402510327
 10
-423.717976561581
 20
277.920945499941
 10
-424.66360614546
 20
278.991268086968
 10
-425.746747267233
 20
280.017239560555
 10
-426.961195792643
 20
280.992983249015
 10
-428.299995470515
 20
281.912910180861
 10
-429.755477777536
 20
282.771751097937
 10
-431.319305842858
 20
283.564586637245
 10
-432.982522200943
 20
284.286875508615
 10
-434.735600099111
 20
284.934480506802
 10
-436.568498065919
 20
285.503692209022
 10
-438.470717427799
 20
285.991250222193
 10
-440.43136244451
 20
286.394361858169
 10
-442.439202718951
 20
286.710718130003
 10
-444.482737523858
 20
286.93850697762
 10
-446.55026167693
 20
287.076423647129
 10
-448.629932587051
 20
287.123678164337
 10
-450.709838087583
 20
287.079999859648
 10
-452.778064668173
 20
286.945638918437
 10
-454.822765714264
 20
286.721364948006
 10
-456.832229363431
 20
286.408462569349
 10
-458.794945589867
 20
286.008724058955
 10
-460.69967213277
 20
285.52443908281
 10
-462.535498890992
 20
284.958381581401
 10
-464.291910415114
 20
284.313793880835
 10
-465.958846138985
 20
283.594368121088
 10
-467.526758005734
 20
282.80422510776
 10
-468.986665158179
 20
281.947890708477
 10
-470.330205380358
 20
281.030269929129
 10
-471.549682995548
 20
280.05661881844
 10
-472.638112946406
 20
279.032514361801
 10
-473.589260804739
 20
277.963822536796
 10
-474.397678481751
 20
276.856664713419
 10
-475.058735434197
 20
275.717382591418
 10
-475.568645187719
 20
274.552501875617
 10
-475.924487025425
 20
273.368694897264
 10
-476.124222717494
 20
272.172742395527
 10
-476.16670819597
 20
270.97149467803
 10
-476.05170010788
 20
269.771832382916
 10
-475.779857209136
 20
268.580627067171
 10
-475.352736591246
 20
267.404701846968
 10
-474.772784762428
 20
266.250792315477
 10
-474.043323634238
 20
265.125507961999
 10
-473.168531493959
 20
264.035294313403
 10
-472.863430183983
 20
263.699909307484
  0
ARC
  5
92
330
1F
100
AcDbEntity
  8
Layer0
  6
AUSGEZOGEN
 62
    18
420
        0
370
    18
100
AcDbCircle
 10
-431.677293574473
 20
271.259365839527
 30
0.0
 40
10.43888041311534
100
AcDbArc
 50
313.600691857663
 51
18.121692864559
  0
ARC
  5
93
330
1F
100
AcDbEntity
  8
Layer0
  6
AUSGEZOGEN
 62
    18
420
        0
370
    18
100
AcDbCircle
 10
-466.865859757927
 20
270.029982819249
 30
0.0
 40
9.305030783838303
100
AcDbArc
 50
180.040087515167
 51
193.476418732433
  0
ARC
  5
94
330
1F
100
AcDbEntity
  8
Layer0
  6
AUSGEZOGEN
 62
    18
420
        0
370
    18
100
AcDbCircle
 10
-430.479313025616
 20
270.030385288595
 30
0.0
 40
9.308427328235016
100
AcDbArc
 50
346.526043943721
 51
359.957449808698
  0
LWPOLYLINE
  5
95
330
1F
100
AcDbEntity
  8
Layer0
  6
AUSGEZOGEN
 62
    18
420
        0
370
    18
100
AcDbPolyline
 90
       34
 70
     0
 43
0.0
 10
-462.648839598247
 20
272.518234848125
 10
-462.795807863881
 20
271.734422432617
 10
-462.805297993475
 20
270.864936128686
 10
-462.654639613014
 20
269.999793305778
 10
-462.345539742147
 20
269.148796377771
 10
-461.881500605923
 20
268.321587479901
 10
-461.267779953175
 20
267.527539219515
 10
-460.511331484128
 20
266.77564848069
 10
-459.6207260622
 20
266.074434485936
 10
-458.606054602687
 20
265.431842270006
 10
-457.478813738669
 20
264.855152659473
 10
-456.251775559558
 20
264.350899778056
 10
-454.938842898221
 20
263.924797012393
 10
-453.554891806335
 20
263.58167227708
 10
-452.115603002767
 20
263.325413312474
 10
-450.637284204775
 20
263.158923635039
 10
-449.136685355044
 20
263.084089639348
 10
-447.630808838151
 20
263.101759224472
 10
-446.136716836751
 20
263.211732186953
 10
-444.671338010227
 20
263.412762489183
 10
-443.251275686222
 20
263.702572377509
 10
-441.892619738292
 20
264.077878190095
 10
-440.61076428122
 20
264.53442756212
 10
-439.420233249539
 20
265.06704760677
 10
-438.334515835548
 20
265.669703526116
 10
-437.365913651379
 20
266.335566987782
 10
-436.525401346813
 20
267.057093492682
 10
-435.822502262111
 20
267.826107857208
 10
-435.265180524769
 20
268.633896841328
 10
-434.859750812764
 20
269.471307873075
 10
-434.610806806734
 20
270.328852750848
 10
-434.521169141742
 20
271.196815148523
 10
-434.591853448349
 20
272.065360705315
 10
-434.692936930261
 20
272.518234848139
  0
LINE
  5
96
330
1F
100
AcDbEntity
  8
Layer0
  6
AUSGEZOGEN
 62
    18
420
        0
370
    18
100
AcDbLine
 10
-459.292271309243
 20
277.330062588315
 30
0.0
 11
-458.571991755057
 21
277.778752533042
 31
0.0
  0
LWPOLYLINE
  5
97
330
1F
100
AcDbEntity
  8
Layer0
  6
AUSGEZOGEN
 62
    18
420
        0
370
    18
100
AcDbPolyline
 90
       46
 70
     0
 43
0.0
 10
-438.769784773448
 20
277.778752533042
 10
-438.221203389899
 20
277.443339667813
 10
-437.290080243995
 20
276.771656544727
 10
-436.487906200502
 20
276.046643133817
 10
-435.823770211863
 20
275.276514126729
 10
-435.305197204205
 20
274.469995392841
 10
-434.938062816917
 20
273.636225111677
 10
-434.726526829306
 20
272.78465023368
 10
-434.672986028637
 20
271.924919442491
 10
-434.778047053575
 20
271.066773831503
 10
-435.040519520728
 20
270.219936533388
 10
-435.457429512165
 20
269.394002553111
 10
-436.024053271092
 20
268.598330052697
 10
-436.733970723911
 20
267.841934319508
 10
-437.579138222213
 20
267.133385619444
 10
-438.549979680529
 20
266.480712092396
 10
-439.635495077208
 20
265.891308790222
 10
-440.823385089057
 20
265.371853887848
 10
-442.100190447583
 20
264.928233016883
 10
-443.451444437891
 20
264.565472579057
 10
-444.861836812335
 20
264.287682795081
 10
-446.315387261748
 20
264.098011134207
 10
-447.795626478731
 20
263.998606652142
 10
-449.285782761481
 20
263.990595641388
 10
-450.768972043877
 20
264.074068869897
 10
-452.228389198699
 20
264.248080552637
 10
-453.647498446428
 20
264.51065906771
 10
-455.01022071224
 20
264.858829295619
 10
-456.301115808348
 20
265.288646328561
 10
-457.505557377498
 20
265.795240167806
 10
-458.609898615439
 20
266.372870902731
 10
-459.601626894675
 20
267.0149937463
 10
-460.469505537526
 20
267.714333190116
 10
-461.203701132183
 20
268.462965438838
 10
-461.795894949188
 20
269.25240818995
 10
-462.239377195967
 20
270.073716741636
 10
-462.529123041456
 20
270.917585339829
 10
-462.661849549449
 20
271.774452616117
 10
-462.636052875577
 20
272.634609921874
 10
-462.452025306462
 20
273.488311331123
 10
-462.111851947996
 20
274.325884065777
 10
-461.619387100256
 20
275.137838092075
 10
-460.980210586747
 20
275.914973646457
 10
-460.201564532768
 20
276.648485472566
 10
-459.292271309243
 20
277.330062588315
 10
-459.292271309243
 20
277.330062588315
  0
LWPOLYLINE
  5
98
330
1F
100
AcDbEntity
  8
Layer0
  6
AUSGEZOGEN
 62
    18
420
        0
370
    18
100
AcDbPolyline
 90
       58
 70
     1
 43
0.0
 10
-458.912936200493
 20
277.550288776809
 10
-459.803793987757
 20
276.881260630086
 10
-460.564128634325
 20
276.160550770669
 10
-461.185025911648
 20
275.396608862708
 10
-461.65920636684
 20
274.598391426595
 10
-461.981110667611
 20
273.775256831953
 10
-462.146964780356
 20
272.936855579303
 10
-462.154824217244
 20
272.093017156775
 10
-462.004596833563
 20
271.253634798346
 10
-461.698043908033
 20
270.428549494712
 10
-461.238759493421
 20
269.627434616676
 10
-460.632128279562
 20
268.859682503718
 10
-459.885262462789
 20
268.134294347398
 10
-459.006918361939
 20
267.459774660621
 10
-458.007393758515
 20
266.844031569995
 10
-456.89840716462
 20
266.294284100279
 10
-455.69296043411
 20
265.816977537916
 10
-454.405186327751
 20
265.417707865944
 10
-453.050182819516
 20
265.101156156212
 10
-451.643836086647
 20
264.871033688089
 10
-450.202634258753
 20
264.730038437112
 10
-448.743474109562
 20
264.679823443686
 10
-447.283462957701
 20
264.720977432695
 10
-445.839718099024
 20
264.853017911248
 10
-444.429166121971
 20
265.074396825457
 10
-443.068344458792
 20
265.382518709963
 10
-441.773207499278
 20
265.773771117388
 10
-440.558939540124
 20
266.243566970982
 10
-439.439776762934
 20
266.786398343898
 10
-438.428840328012
 20
267.395901034605
 10
-437.537982540748
 20
268.064929181329
 10
-436.77764789418
 20
268.785639040746
 10
-436.156750616857
 20
269.549580948707
 10
-435.682570161665
 20
270.347798384819
 10
-435.360665860893
 20
271.170932979462
 10
-435.194811748149
 20
272.009334232112
 10
-435.186952311261
 20
272.853172654639
 10
-435.337179694942
 20
273.692555013069
 10
-435.643732620472
 20
274.517640316703
 10
-436.103017035084
 20
275.318755194739
 10
-436.709648248943
 20
276.086507307697
 10
-437.456514065716
 20
276.811895464017
 10
-438.334858166566
 20
277.486415150794
 10
-439.334382769989
 20
278.102158241419
 10
-440.443369363885
 20
278.651905711136
 10
-441.648816094394
 20
279.129212273499
 10
-442.936590200754
 20
279.52848194547
 10
-444.291593708989
 20
279.845033655203
 10
-445.697940441858
 20
280.075156123325
 10
-447.139142269752
 20
280.216151374302
 10
-448.598302418943
 20
280.266366367729
 10
-450.058313570804
 20
280.225212378719
 10
-451.502058429481
 20
280.093171900167
 10
-452.912610406534
 20
279.871792985958
 10
-454.273432069713
 20
279.563671101452
 10
-455.568569029227
 20
279.172418694026
 10
-456.782836988381
 20
278.702622840433
 10
-457.901999765571
 20
278.159791467517
  0
LWPOLYLINE
  5
99
330
1F
100
AcDbEntity
  8
Layer0
  6
AUSGEZOGEN
 62
    18
420
        0
370
    18
100
AcDbPolyline
 90
       67
 70
     0
 43
0.0
 10
-426.397024656876
 20
284.923252260972
 10
-424.864776672093
 20
283.973180727033
 10
-423.453839175135
 20
282.9624269394
 10
-422.17140198007
 20
281.896141467688
 10
-421.024000092884
 20
280.779757858247
 10
-420.017480410585
 20
279.618964946053
 10
-419.15697192676
 20
278.419677865708
 10
-418.446859595396
 20
277.188007909273
 10
-417.890761986161
 20
275.930231384522
 10
-417.491512845003
 20
274.652757632317
 10
-417.251146654029
 20
273.362096366075
 10
-417.170888264252
 20
272.064824499764
 10
-417.251146654029
 20
270.767552633454
 10
-417.491512845003
 20
269.476891367212
 10
-417.890761986161
 20
268.199417615007
 10
-418.446859595396
 20
266.941641090256
 10
-419.15697192676
 20
265.709971133821
 10
-420.017480410585
 20
264.510684053476
 10
-421.024000092884
 20
263.349891141282
 10
-422.17140198007
 20
262.233507531841
 10
-423.453839175135
 20
261.167222060129
 10
-424.864776672093
 20
260.156468272495
 10
-426.397024656876
 20
259.206396738557
 10
-428.042775144976
 20
258.321848805074
 10
-429.793641769145
 20
257.507331925559
 10
-431.640702514401
 20
256.766996691327
 10
-433.574545182571
 20
256.10461568103
 10
-435.585315354693
 20
255.523564236467
 10
-437.662766606881
 20
255.026803262609
 10
-439.796312723748
 20
254.616864139512
 10
-441.975081643334
 20
254.295835822981
 10
-444.187970858644
 20
254.06535419973
 10
-446.423703993477
 20
253.92659375128
 10
-448.670888264253
 20
253.88026156907
 10
-450.918072535028
 20
253.92659375128
 10
-453.153805669861
 20
254.06535419973
 10
-455.366694885171
 20
254.295835822981
 10
-457.545463804758
 20
254.616864139512
 10
-459.679009921624
 20
255.026803262609
 10
-461.756461173812
 20
255.523564236467
 10
-463.767231345934
 20
256.10461568103
 10
-465.701074014104
 20
256.766996691327
 10
-467.54813475936
 20
257.507331925559
 10
-469.299001383529
 20
258.321848805074
 10
-470.944751871629
 20
259.206396738557
 10
-472.476999856412
 20
260.156468272496
 10
-473.88793735337
 20
261.167222060129
 10
-475.170374548435
 20
262.233507531841
 10
-476.317776435621
 20
263.349891141282
 10
-477.32429611792
 20
264.510684053476
 10
-478.184804601745
 20
265.709971133821
 10
-478.894916933109
 20
266.941641090256
 10
-479.451014542344
 20
268.199417615007
 10
-479.850263683502
 20
269.476891367212
 10
-480.090629874475
 20
270.767552633454
 10
-480.170888264252
 20
272.064824499765
 10
-480.090629874475
 20
273.362096366075
 10
-479.850263683502
 20
274.652757632317
 10
-479.451014542344
 20
275.930231384522
 10
-478.894916933109
 20
277.188007909273
 10
-478.184804601745
 20
278.419677865708
 10
-477.32429611792
 20
279.618964946053
 10
-476.317776435621
 20
280.779757858247
 10
-475.170374548434
 20
281.896141467688
 10
-473.88793735337
 20
282.9624269394
 10
-472.476999856411
 20
283.973180727033
 10
-470.948371118563
 20
284.92116257464
  0
LWPOLYLINE
  5
9A
330
1F
100
AcDbEntity
  8
Layer0
  6
AUSGEZOGEN
 62
    18
420
        0
370
    18
100
AcDbPolyline
 90
       88
 70
     1
 43
0.0
 10
-426.750578047469
 20
285.127420638959
 10
-428.370205511949
 20
285.997928129054
 10
-430.093280602401
 20
286.799516169211
 10
-431.911022923129
 20
287.528100050519
 10
-433.814169675931
 20
288.179967076525
 10
-435.793022861194
 20
288.751795482286
 10
-437.83749869668
 20
289.24067136132
 10
-439.937179002168
 20
289.644103514209
 10
-442.08136428811
 20
289.960036143177
 10
-444.259128277781
 20
290.186859327964
 10
-446.459373585076
 20
290.323417229613
 10
-448.670888264252
 20
290.369013980359
 10
-450.882402943429
 20
290.323417229613
 10
-453.082648250724
 20
290.186859327964
 10
-455.260412240395
 20
289.960036143177
 10
-457.404597526337
 20
289.644103514209
 10
-459.504277831825
 20
289.24067136132
 10
-461.548753667311
 20
288.751795482286
 10
-463.527606852574
 20
288.179967076525
 10
-465.430753605376
 20
287.528100050519
 10
-467.248495926104
 20
286.799516169211
 10
-468.971571016556
 20
285.997928129054
 10
-470.591198481035
 20
285.127420638959
 10
-472.099125069234
 20
284.192429605559
 10
-473.487666732908
 20
283.19771952884
 10
-474.749747782019
 20
282.148359223346
 10
-475.878936940837
 20
281.049695988658
 10
-476.869480120242
 20
279.907328360785
 10
-477.716329739245
 20
278.727077583302
 10
-478.415170446302
 20
277.514957943636
 10
-478.962441109358
 20
276.277146125627
 10
-479.355352962561
 20
275.019949734568
 10
-479.59190381717
 20
273.749775155092
 10
-479.670888264252
 20
272.473094905707
 10
-479.59190381717
 20
271.196414656322
 10
-479.355352962561
 20
269.926240076846
 10
-478.962441109358
 20
268.669043685787
 10
-478.415170446302
 20
267.431231867778
 10
-477.716329739245
 20
266.219112228112
 10
-476.869480120242
 20
265.03886145063
 10
-475.878936940837
 20
263.896493822756
 10
-474.749747782019
 20
262.797830588068
 10
-473.487666732907
 20
261.748470282574
 10
-472.099125069234
 20
260.753760205855
 10
-470.591198481035
 20
259.818769172455
 10
-468.971571016556
 20
258.948261682361
 10
-467.248495926104
 20
258.146673642203
 10
-465.430753605376
 20
257.418089760895
 10
-463.527606852574
 20
256.766222734889
 10
-461.548753667311
 20
256.194394329129
 10
-459.504277831824
 20
255.705518450094
 10
-457.404597526337
 20
255.302086297205
 10
-455.260412240394
 20
254.986153668238
 10
-453.082648250724
 20
254.759330483451
 10
-450.882402943428
 20
254.622772581802
 10
-448.670888264252
 20
254.577175831055
 10
-446.459373585076
 20
254.622772581802
 10
-444.25912827778
 20
254.759330483451
 10
-442.08136428811
 20
254.986153668238
 10
-439.937179002168
 20
255.302086297205
 10
-437.83749869668
 20
255.705518450094
 10
-435.793022861194
 20
256.194394329129
 10
-433.81416967593
 20
256.76622273489
 10
-431.911022923129
 20
257.418089760896
 10
-430.0932806024
 20
258.146673642204
 10
-428.370205511948
 20
258.948261682361
 10
-426.750578047469
 20
259.818769172455
 10
-425.24265145927
 20
260.753760205856
 10
-423.854109795597
 20
261.748470282574
 10
-422.592028746486
 20
262.797830588068
 10
-421.462839587667
 20
263.896493822756
 10
-420.472296408262
 20
265.03886145063
 10
-419.62544678926
 20
266.219112228112
 10
-418.926606082203
 20
267.431231867778
 10
-418.379335419146
 20
268.669043685787
 10
-417.986423565943
 20
269.926240076847
 10
-417.749872711335
 20
271.196414656322
 10
-417.670888264252
 20
272.473094905708
 10
-417.749872711335
 20
273.749775155093
 10
-417.986423565944
 20
275.019949734568
 10
-418.379335419147
 20
276.277146125627
 10
-418.926606082203
 20
277.514957943636
 10
-419.62544678926
 20
278.727077583303
 10
-420.472296408263
 20
279.907328360785
 10
-421.462839587668
 20
281.049695988659
 10
-422.592028746486
 20
282.148359223346
 10
-423.854109795598
 20
283.197719528841
 10
-425.242651459271
 20
284.192429605559
  0
LINE
  5
9B
330
1F
100
AcDbEntity
  8
Layer0
  6
AUSGEZOGEN
 62
    18
420
        0
370
    18
100
AcDbLine
 10
-428.311505638096
 20
236.550610478325
 30
0.0
 11
-428.311505638096
 21
237.775421696154
 31
0.0
  0
LWPOLYLINE
  5
9C
330
1F
100
AcDbEntity
  8
Layer0
  6
AUSGEZOGEN
 62
    18
420
        0
370
    18
100
AcDbPolyline
 90
       11
 70
     0
 43
0.0
 10
-424.634550375926
 20
238.673271569064
 10
-423.248228760782
 20
239.689276996413
 10
-421.990509290037
 20
240.759597315593
 10
-420.867754217844
 20
241.87881824301
 10
-419.885643072337
 20
243.041278128227
 10
-419.04914392538
 20
244.24109659378
 10
-418.362488261253
 20
245.472204281443
 10
-417.829149571425
 20
246.728373554466
 10
-417.451825783672
 20
248.00325000047
 10
-417.232425614436
 20
249.290384575651
 10
-417.170888264252
 20
250.426492984792
  0
LWPOLYLINE
  5
9D
330
1F
100
AcDbEntity
  8
Layer0
  6
AUSGEZOGEN
 62
    18
420
        0
370
    18
100
AcDbPolyline
 90
       33
 70
     0
 43
0.0
 10
-480.170888264252
 20
250.426492984792
 10
-480.097520450994
 20
249.186091305769
 10
-479.865309087472
 20
247.899705954679
 10
-479.475298756828
 20
246.626102516923
 10
-478.929462351192
 20
245.371723596715
 10
-478.23056101883
 20
244.142914549818
 10
-477.382130196706
 20
242.945891385163
 10
-476.388461726239
 20
241.786709320766
 10
-475.254582142759
 20
240.671232153026
 10
-473.98622724845
 20
239.605102594334
 10
-472.589813097433
 20
238.593713729054
 10
-471.072403539745
 20
237.642181732261
 10
-469.441674488405
 20
236.755319989243
 10
-467.705875090317
 20
235.937614746687
 10
-465.873785997435
 20
235.19320241871
 10
-463.954674949275
 20
234.525848662547
 10
-461.958249891462
 20
233.938929329734
 10
-459.894609867472
 20
233.435413389145
 10
-457.774193931973
 20
233.017847908277
 10
-455.6077283442
 20
232.688345168745
 10
-453.406172308494
 20
232.448571981171
 10
-451.180662536462
 20
232.299741253514
 10
-448.942456911217
 20
232.242605855503
 10
-446.702877538652
 20
232.277454810193
 10
-444.47325347385
 20
232.404111831922
 10
-442.264863412335
 20
232.62193621807
 10
-440.08887863607
 20
232.929826090087
 10
-437.956306502817
 20
233.326223967421
 10
-435.877934764715
 20
233.80912464613
 10
-433.864276997745
 20
234.376085342333
 10
-431.925519418142
 20
235.024238049192
 10
-430.071469354764
 20
235.750304044904
 10
-428.311505638096
 20
236.550610478325
  0
LINE
  5
9E
330
1F
100
AcDbEntity
  8
Layer0
  6
AUSGEZOGEN
 62
    18
420
        0
370
    18
100
AcDbLine
 10
-424.634550375926
 20
239.898082786893
 30
0.0
 11
-424.634550375926
 21
238.673271569064
 31
0.0
  0
ARC
  5
9F
330
1F
100
AcDbEntity
  8
Layer0
  6
AUSGEZOGEN
 62
    18
420
        0
370
    18
100
AcDbCircle
 10
-441.27079982714
 20
264.470022290992
 30
0.0
 40
29.67397861420138
100
AcDbArc
 50
295.89495010911
 51
304.099673358191
  0
LWPOLYLINE
  5
A0
330
1F
100
AcDbEntity
  8
Layer0
  6
AUSGEZOGEN
 62
    18
420
        0
370
    18
100
AcDbPolyline
 90
       84
 70
     1
 43
0.0
 10
-428.376923644198
 20
284.188551310363
 10
-426.917099809978
 20
283.280295364613
 10
-425.578931984949
 20
282.311601170089
 10
-424.369903746401
 20
281.287886057667
 10
-423.29677647067
 20
280.214875057512
 10
-422.365551520784
 20
279.09856888239
 10
-421.581436684402
 20
277.945210369249
 10
-420.948817049756
 20
276.76124956674
 10
-420.471230482457
 20
275.55330766393
 10
-420.151347840316
 20
274.328139961925
 10
-419.990958036825
 20
273.09259809549
 10
-419.990958036825
 20
271.853591715924
 10
-420.151347840316
 20
270.618049849489
 10
-420.471230482457
 20
269.392882147484
 10
-420.948817049756
 20
268.184940244674
 10
-421.581436684402
 20
267.000979442165
 10
-422.365551520784
 20
265.847620929024
 10
-423.29677647067
 20
264.731314753903
 10
-424.369903746401
 20
263.658303753747
 10
-425.578931984949
 20
262.634588641325
 10
-426.917099809978
 20
261.665894446801
 10
-428.376923644199
 20
260.757638501051
 10
-429.95023956057
 20
259.914900139746
 10
-431.628248938293
 20
259.142392297649
 10
-433.401567668262
 20
258.44443515197
 10
-435.260278632816
 20
257.824931962187
 10
-437.193987166276
 20
257.287347241431
 10
-439.191879186139
 20
256.834687381524
 10
-441.24278166981
 20
256.469483840018
 10
-443.335225138677
 20
256.193778983259
 10
-445.457507800088
 20
256.009114664642
 10
-447.597760988522
 20
255.916523601943
 10
-449.744015539983
 20
255.916523601943
 10
-451.884268728418
 20
256.009114664642
 10
-454.006551389828
 20
256.193778983259
 10
-456.098994858695
 20
256.469483840018
 10
-458.149897342366
 20
256.834687381524
 10
-460.147789362229
 20
257.287347241431
 10
-462.081497895689
 20
257.824931962187
 10
-463.940208860243
 20
258.444435151971
 10
-465.713527590212
 20
259.142392297649
 10
-467.391536967935
 20
259.914900139746
 10
-468.964852884306
 20
260.757638501052
 10
-470.424676718527
 20
261.665894446802
 10
-471.762844543556
 20
262.634588641325
 10
-472.971872782104
 20
263.658303753748
 10
-474.045000057835
 20
264.731314753903
 10
-474.976225007721
 20
265.847620929025
 10
-475.760339844103
 20
267.000979442165
 10
-476.392959478749
 20
268.184940244674
 10
-476.870546046048
 20
269.392882147485
 10
-477.190428688188
 20
270.618049849489
 10
-477.350818491679
 20
271.853591715924
 10
-477.350818491679
 20
273.092598095491
 10
-477.190428688188
 20
274.328139961926
 10
-476.870546046048
 20
275.55330766393
 10
-476.392959478749
 20
276.761249566741
 10
-475.760339844102
 20
277.94521036925
 10
-474.976225007721
 20
279.09856888239
 10
-474.045000057835
 20
280.214875057512
 10
-472.971872782104
 20
281.287886057667
 10
-471.762844543556
 20
282.31160117009
 10
-470.424676718527
 20
283.280295364613
 10
-468.964852884306
 20
284.188551310363
 10
-467.391536967934
 20
285.031289671668
 10
-465.713527590212
 20
285.803797513766
 10
-463.940208860242
 20
286.501754659444
 10
-462.081497895689
 20
287.121257849227
 10
-460.147789362229
 20
287.658842569984
 10
-458.149897342365
 20
288.111502429891
 10
-456.098994858694
 20
288.476705971396
 10
-454.006551389828
 20
288.752410828155
 10
-451.884268728417
 20
288.937075146772
 10
-449.744015539983
 20
289.029666209472
 10
-447.597760988521
 20
289.029666209472
 10
-445.457507800087
 20
288.937075146772
 10
-443.335225138676
 20
288.752410828155
 10
-441.24278166981
 20
288.476705971396
 10
-439.191879186139
 20
288.111502429891
 10
-437.193987166276
 20
287.658842569984
 10
-435.260278632815
 20
287.121257849227
 10
-433.401567668262
 20
286.501754659444
 10
-431.628248938293
 20
285.803797513766
 10
-429.95023956057
 20
285.031289671668
  0
LWPOLYLINE
  5
A1
330
1F
100
AcDbEntity
  8
Layer0
  6
AUSGEZOGEN
 62
    18
420
        0
370
    18
100
AcDbPolyline
 90
       43
 70
     0
 43
0.0
 10
-428.730477034792
 20
283.576178876465
 10
-430.276383266209
 20
284.404235384785
 10
-431.92515903108
 20
285.163284902108
 10
-433.66758370652
 20
285.849082515631
 10
-435.493912946952
 20
286.457792966916
 10
-437.393933178436
 20
286.986012100203
 10
-439.357018717117
 20
287.430785899833
 10
-441.372191192361
 20
287.789627010302
 10
-443.428180942258
 20
288.06052864656
 10
-445.513490038139
 20
288.241975816769
 10
-447.61645658566
 20
288.332953794752
 10
-449.725319942845
 20
288.332953794752
 10
-451.828286490366
 20
288.241975816769
 10
-453.913595586247
 20
288.06052864656
 10
-455.969585336143
 20
287.789627010302
 10
-457.984757811388
 20
287.430785899833
 10
-459.947843350069
 20
286.986012100203
 10
-461.847863581553
 20
286.457792966916
 10
-463.674192821985
 20
285.849082515631
 10
-465.416617497425
 20
285.163284902108
 10
-467.065393262295
 20
284.404235384785
 10
-468.611299493713
 20
283.576178876465
 10
-470.045690856954
 20
282.683746205031
 10
-471.360545653672
 20
281.731928215987
 10
-472.54851068249
 20
280.72604786162
 10
-473.602942361082
 20
279.671730432896
 10
-474.517943879786
 20
278.574872100547
 10
-475.288398178948
 20
277.441606941294
 10
-475.909996565604
 20
276.278272633602
 10
-476.379262809431
 20
275.091375014812
 10
-476.693572583242
 20
273.88755169786
 10
-476.851168139285
 20
272.673534951049
 10
-476.851168139285
 20
271.456114048479
 10
-476.693572583242
 20
270.242097301668
 10
-476.379262809431
 20
269.038273984716
 10
-475.909996565604
 20
267.851376365927
 10
-475.288398178948
 20
266.688042058235
 10
-474.517943879786
 20
265.554776898982
 10
-473.602942361082
 20
264.457918566632
 10
-472.54851068249
 20
263.403601137908
 10
-471.360545653672
 20
262.397720783542
 10
-470.045690856954
 20
261.445902794498
 10
-468.789790785358
 20
260.657441663683
  0
LWPOLYLINE
  5
A2
330
1F
100
AcDbEntity
  8
Layer0
  6
AUSGEZOGEN
 62
    18
420
        0
370
    18
100
AcDbPolyline
 90
       22
 70
     0
 43
0.0
 10
-428.551985742836
 20
260.657441663866
 10
-427.296085671551
 20
261.445902794498
 10
-425.981230874832
 20
262.397720783542
 10
-424.793265846015
 20
263.403601137909
 10
-423.738834167422
 20
264.457918566633
 10
-422.823832648719
 20
265.554776898982
 10
-422.053378349556
 20
266.688042058235
 10
-421.431779962901
 20
267.851376365927
 10
-420.962513719074
 20
269.038273984716
 10
-420.648203945263
 20
270.242097301669
 10
-420.49060838922
 20
271.456114048479
 10
-420.49060838922
 20
272.67353495105
 10
-420.648203945263
 20
273.88755169786
 10
-420.962513719074
 20
275.091375014813
 10
-421.431779962901
 20
276.278272633602
 10
-422.053378349557
 20
277.441606941294
 10
-422.823832648719
 20
278.574872100547
 10
-423.738834167423
 20
279.671730432897
 10
-424.793265846015
 20
280.726047861621
 10
-425.981230874833
 20
281.731928215987
 10
-427.296085671551
 20
282.683746205031
 10
-428.730477034792
 20
283.576178876465
  0
LWPOLYLINE
  5
A3
330
1F
100
AcDbEntity
  8
Layer0
  6
AUSGEZOGEN
 62
    18
420
        0
370
    18
100
AcDbPolyline
 90
        3
 70
     0
 43
0.0
 10
-428.311505638096
 20
236.550610478325
 10
-428.716237458105
 20
236.318512047243
 10
-429.021113290717
 20
236.143717444699
  0
LWPOLYLINE
  5
A4
330
1F
100
AcDbEntity
  8
Layer0
  6
AUSGEZOGEN
 62
    18
420
        0
370
    18
100
AcDbPolyline
 90
       22
 70
     0
 43
0.0
 10
-429.021113290717
 20
236.143717444699
 10
-430.747915820611
 20
235.363489578037
 10
-432.567363102976
 20
234.656902398198
 10
-434.470050322643
 20
234.02760829011
 10
-436.44614239299
 20
233.478860106893
 10
-438.485424794004
 20
233.013494355706
 10
-440.577356371652
 20
232.633916535688
 10
-442.711123825641
 20
232.34208870382
 10
-444.875697603912
 20
232.139519332948
 10
-447.059888914956
 20
232.02725551441
 10
-449.252407563243
 20
232.005877545573
 10
-451.441920308817
 20
232.075495930239
 10
-453.617109449382
 20
232.235750807452
 10
-455.766731322085
 20
232.485813811634
 10
-457.879674422573
 20
232.824392354448
 10
-459.945016840928
 20
233.249736306257
 10
-461.952082717565
 20
233.759647042625
 10
-463.890497427298
 20
234.351488809128
 10
-465.750241206301
 20
235.022202345694
 10
-467.521700944772
 20
235.768320700076
 10
-469.195719877587
 20
236.585987148706
 10
-470.241149440649
 20
237.161751814694
  0
LWPOLYLINE
  5
A5
330
1F
100
AcDbEntity
  8
Layer0
  6
AUSGEZOGEN
 62
    18
420
        0
370
    18
100
AcDbPolyline
 90
        3
 70
     0
 43
0.0
 10
-425.344158028546
 20
238.266378535438
 10
-425.039282195935
 20
238.441173137982
 10
-424.634550375926
 20
238.673271569064
  0
LINE
  5
A6
330
1F
100
AcDbEntity
  8
Layer0
  6
AUSGEZOGEN
 62
    18
420
        0
370
    18
100
AcDbLine
 10
-426.326712643083
 20
238.833595240863
 30
0.0
 11
-425.344158028546
 21
238.266378535438
 31
0.0
  0
LINE
  5
A7
330
1F
100
AcDbEntity
  8
Layer0
  6
DASHDOT
 62
    18
420
        0
370
    18
100
AcDbLine
 10
-609.048218060558
 20
168.078686214431
 30
0.0
 11
-577.185163409927
 21
168.078686214431
 31
0.0
  0
LINE
  5
A8
330
1F
100
AcDbEntity
  8
Layer0
  6
AUSGEZOGEN
 62
    18
420
        0
370
    18
100
AcDbLine
 10
-610.083344133751
 20
199.578686214431
 30
0.0
 11
-636.583344133751
 21
199.578686214431
 31
0.0
  0
LINE
  5
A9
330
1F
100
AcDbEntity
  8
Layer0
  6
AUSGEZOGEN
 62
    18
420
        0
370
    18
100
AcDbLine
 10
-636.583344133751
 20
136.578686214431
 30
0.0
 11
-610.083344133751
 21
136.578686214431
 31
0.0
  0
LINE
  5
AA
330
1F
100
AcDbEntity
  8
Layer0
  6
AUSGEZOGEN
 62
    18
420
        0
370
    18
100
AcDbLine
 10
-636.583344133751
 20
199.578686214431
 30
0.0
 11
-637.083344133751
 21
199.078686214431
 31
0.0
  0
LINE
  5
AB
330
1F
100
AcDbEntity
  8
Layer0
  6
AUSGEZOGEN
 62
    18
420
        0
370
    18
100
AcDbLine
 10
-637.083344133751
 20
137.078686214431
 30
0.0
 11
-636.583344133751
 21
136.578686214431
 31
0.0
  0
LINE
  5
AC
330
1F
100
AcDbEntity
  8
Layer0
  6
AUSGEZOGEN
 62
    18
420
        0
370
    18
100
AcDbLine
 10
-610.083344133751
 20
136.578686214431
 30
0.0
 11
-609.083344133751
 21
137.578686214431
 31
0.0
  0
LINE
  5
AD
330
1F
100
AcDbEntity
  8
Layer0
  6
AUSGEZOGEN
 62
    18
420
        0
370
    18
100
AcDbLine
 10
-609.083344133751
 20
198.578686214431
 30
0.0
 11
-610.083344133751
 21
199.578686214431
 31
0.0
  0
LINE
  5
AE
330
1F
100
AcDbEntity
  8
Layer0
  6
AUSGEZOGEN
 62
    18
420
        0
370
    18
100
AcDbLine
 10
-630.833344133751
 20
165.633235744839
 30
0.0
 11
-630.833344133751
 21
170.928661855393
 31
0.0
  0
LINE
  5
AF
330
1F
100
AcDbEntity
  8
Layer0
  6
AUSGEZOGEN
 62
    18
420
        0
370
    18
100
AcDbLine
 10
-629.658213380857
 20
164.678711504882
 30
0.0
 11
-617.083344133751
 21
164.678711505957
 31
0.0
  0
LINE
  5
B0
330
1F
100
AcDbEntity
  8
Layer0
  6
AUSGEZOGEN
 62
    18
420
        0
370
    18
100
AcDbLine
 10
-617.083344133751
 20
171.478660922905
 30
0.0
 11
-630.264775375048
 21
171.478660922193
 31
0.0
  0
LINE
  5
B1
330
1F
100
AcDbEntity
  8
Layer0
  6
AUSGEZOGEN
 62
    18
420
        0
370
    18
100
AcDbLine
 10
-617.083344133751
 20
164.678711505957
 30
0.0
 11
-617.083344133751
 21
171.478660922905
 31
0.0
  0
LINE
  5
B2
330
1F
100
AcDbEntity
  8
Layer0
  6
AUSGEZOGEN
 62
    18
420
        0
370
    18
100
AcDbLine
 10
-617.08334413375
 20
178.58829461409
 30
0.0
 11
-617.083344133751
 21
171.478660922905
 31
0.0
  0
LINE
  5
B3
330
1F
100
AcDbEntity
  8
Layer0
  6
AUSGEZOGEN
 62
    18
420
        0
370
    18
100
AcDbLine
 10
-617.083344133751
 20
164.678711505957
 30
0.0
 11
-617.083344133749
 21
159.101386981647
 31
0.0
  0
LINE
  5
B4
330
1F
100
AcDbEntity
  8
Layer0
  6
AUSGEZOGEN
 62
    18
420
        0
370
    18
100
AcDbLine
 10
-617.083344133751
 20
173.078669016228
 30
0.0
 11
-612.583344133751
 21
173.078669016228
 31
0.0
  0
LINE
  5
B5
330
1F
100
AcDbEntity
  8
Layer0
  6
AUSGEZOGEN
 62
    18
420
        0
370
    18
100
AcDbLine
 10
-612.583344133751
 20
163.078703412634
 30
0.0
 11
-617.083344133751
 21
163.078703412634
 31
0.0
  0
LINE
  5
B6
330
1F
100
AcDbEntity
  8
Layer0
  6
AUSGEZOGEN
 62
    18
420
        0
370
    18
100
AcDbLine
 10
-612.583344133751
 20
163.078703412634
 30
0.0
 11
-612.583344133751
 21
173.078669016228
 31
0.0
  0
LINE
  5
B7
330
1F
100
AcDbEntity
  8
Layer0
  6
AUSGEZOGEN
 62
    18
420
        0
370
    18
100
AcDbLine
 10
-612.583344114233
 20
157.6474013251
 30
0.0
 11
-612.583344133751
 21
163.078703412634
 31
0.0
  0
LINE
  5
B8
330
1F
100
AcDbEntity
  8
Layer0
  6
AUSGEZOGEN
 62
    18
420
        0
370
    18
100
AcDbLine
 10
-617.083344133749
 20
159.101386981647
 30
0.0
 11
-617.083344133751
 21
163.078703412634
 31
0.0
  0
LINE
  5
B9
330
1F
100
AcDbEntity
  8
Layer0
  6
AUSGEZOGEN
 62
    18
420
        0
370
    18
100
AcDbLine
 10
-612.583344133751
 20
173.078669016228
 30
0.0
 11
-612.583344114229
 21
180.401710471917
 31
0.0
  0
LINE
  5
BA
330
1F
100
AcDbEntity
  8
Layer0
  6
AUSGEZOGEN
 62
    18
420
        0
370
    18
100
AcDbLine
 10
-617.083344133751
 20
173.078669016228
 30
0.0
 11
-617.08334413375
 21
178.58829461409
 31
0.0
  0
LWPOLYLINE
  5
BB
330
1F
100
AcDbEntity
  8
Layer0
  6
AUSGEZOGEN
 62
    18
420
        0
370
    18
100
AcDbPolyline
 90
       23
 70
     0
 43
0.0
 10
-610.083344133751
 20
156.878637464342
 10
-614.061560056491
 20
158.097386345403
 10
-618.02400524314
 20
159.387814370155
 10
-621.935109213659
 20
160.82054352206
 10
-625.75930148801
 20
162.46619578458
 10
-628.358737811714
 20
163.830581904173
 10
-629.633123673383
 20
164.657536778151
 10
-630.801228523591
 20
165.624528121247
 10
-631.603379149372
 20
166.566346704663
 10
-631.910522277661
 20
167.11573628374
 10
-632.108190582595
 20
167.711440077992
 10
-632.138491267232
 20
168.570989106625
 10
-631.898717686442
 20
169.3931438711
 10
-631.518319794889
 20
170.074128745242
 10
-631.040053979602
 20
170.692388792884
 10
-629.969281147406
 20
171.749158146675
 10
-628.772925628797
 20
172.673021675262
 10
-627.51134538108
 20
173.502789920639
 10
-624.182698457459
 20
175.404723831345
 10
-620.736428295054
 20
177.082664672626
 10
-617.211681469726
 20
178.596400387831
 10
-613.647604557338
 20
180.005718920309
 10
-610.083344133751
 20
181.370408213409
  0
LINE
  5
BC
330
1F
100
AcDbEntity
  8
Layer0
  6
AUSGEZOGEN
 62
    18
420
        0
370
    18
100
AcDbLine
 10
-610.083344133751
 20
181.370408213409
 30
0.0
 11
-610.083344133751
 21
199.578686214431
 31
0.0
  0
LINE
  5
BD
330
1F
100
AcDbEntity
  8
Layer0
  6
AUSGEZOGEN
 62
    18
420
        0
370
    18
100
AcDbLine
 10
-610.083344133751
 20
136.578686214431
 30
0.0
 11
-610.083344133751
 21
156.878637464342
 31
0.0
  0
LINE
  5
BE
330
1F
100
AcDbEntity
  8
Layer0
  6
AUSGEZOGEN
 62
    18
420
        0
370
    18
100
AcDbLine
 10
-636.583344133751
 20
199.578686214431
 30
0.0
 11
-636.583344133751
 21
136.578686214431
 31
0.0
  0
LINE
  5
BF
330
1F
100
AcDbEntity
  8
Layer0
  6
AUSGEZOGEN
 62
    18
420
        0
370
    18
100
AcDbLine
 10
-637.083344133751
 20
137.078686214431
 30
0.0
 11
-637.083344133751
 21
199.078686214431
 31
0.0
  0
LINE
  5
C0
330
1F
100
AcDbEntity
  8
Layer0
  6
AUSGEZOGEN
 62
    18
420
        0
370
    18
100
AcDbLine
 10
-609.083344133751
 20
156.576376169449
 30
0.0
 11
-609.083344133751
 21
137.578686214431
 31
0.0
  0
LINE
  5
C1
330
1F
100
AcDbEntity
  8
Layer0
  6
AUSGEZOGEN
 62
    18
420
        0
370
    18
100
AcDbLine
 10
-609.083344133751
 20
198.578686214431
 30
0.0
 11
-609.083344133751
 21
181.752741653451
 31
0.0
  0
LINE
  5
C2
330
1F
100
AcDbEntity
  8
Layer0
  6
AUSGEZOGEN
 62
    18
420
        0
370
    18
100
AcDbLine
 10
-610.083344133751
 20
156.878637464342
 30
0.0
 11
-609.083344133751
 21
156.576376169449
 31
0.0
  0
LINE
  5
C3
330
1F
100
AcDbEntity
  8
Layer0
  6
AUSGEZOGEN
 62
    18
420
        0
370
    18
100
AcDbLine
 10
-609.083344133751
 20
181.752741653451
 30
0.0
 11
-610.083344133751
 21
181.370408213409
 31
0.0
  0
LINE
  5
C4
330
1F
100
AcDbEntity
  8
Layer0
  6
AUSGEZOGEN
 62
    18
420
        0
370
    18
100
AcDbLine
 10
-612.583344133751
 20
163.078703412634
 30
0.0
 11
-609.083344133751
 21
163.078703412634
 31
0.0
  0
LINE
  5
C5
330
1F
100
AcDbEntity
  8
Layer0
  6
AUSGEZOGEN
 62
    18
420
        0
370
    18
100
AcDbLine
 10
-609.083344133751
 20
173.078669016228
 30
0.0
 11
-612.583344133751
 21
173.078669016228
 31
0.0
  0
LINE
  5
C6
330
1F
100
AcDbEntity
  8
Layer0
  6
AUSGEZOGEN
 62
    18
420
        0
370
    18
100
AcDbLine
 10
-612.583344133751
 20
163.078703412634
 30
0.0
 11
-612.583344133751
 21
173.078669016228
 31
0.0
  0
LINE
  5
C7
330
1F
100
AcDbEntity
  8
Layer0
  6
AUSGEZOGEN
 62
    18
420
        0
370
    18
100
AcDbLine
 10
-609.083344133751
 20
163.078703412634
 30
0.0
 11
-609.083344133751
 21
173.078669016228
 31
0.0
  0
LINE
  5
C8
330
1F
100
AcDbEntity
  8
Layer0
  6
AUSGEZOGEN
 62
    18
420
        0
370
    18
100
AcDbLine
 10
-612.583344133751
 20
173.078669016228
 30
0.0
 11
-612.583344114229
 21
180.401710471917
 31
0.0
  0
LINE
  5
C9
330
1F
100
AcDbEntity
  8
Layer0
  6
AUSGEZOGEN
 62
    18
420
        0
370
    18
100
AcDbLine
 10
-609.083344133751
 20
181.752741653451
 30
0.0
 11
-609.083344133751
 21
173.078669016228
 31
0.0
  0
LINE
  5
CA
330
1F
100
AcDbEntity
  8
Layer0
  6
AUSGEZOGEN
 62
    18
420
        0
370
    18
100
AcDbLine
 10
-612.583344114233
 20
157.6474013251
 30
0.0
 11
-612.583344133751
 21
163.078703412634
 31
0.0
  0
LINE
  5
CB
330
1F
100
AcDbEntity
  8
Layer0
  6
AUSGEZOGEN
 62
    18
420
        0
370
    18
100
AcDbLine
 10
-609.083344133751
 20
163.078703412634
 30
0.0
 11
-609.083344133751
 21
156.576376169449
 31
0.0
  0
DIMENSION
  5
D5
330
1F
100
AcDbEntity
  8
Layer0
  6
AUSGEZOGEN
 62
    18
420
        0
370
    18
100
AcDbDimension
280
     0
  2
*D2
 10
-609.083344133751
 20
230.757547628704
 30
0.0
 11
-623.083344133751
 21
233.557547628704
 31
0.0
 70
   160
  1
29
 71
     5
 42
-1.0
 73
     0
 74
     0
 75
     0
  3
ISO-25
100
AcDbAlignedDimension
 13
-637.083344133751
 23
199.078686214431
 33
0.0
 14
-609.083344133751
 24
198.578686214431
 34
0.0
100
AcDbRotatedDimension
1001
ACAD
1000
DSTYLE
1002
{
1070
    44
1040
1.142857142857
1070
   280
1070
     0
1070
    77
1070
     1
1070
   179
1070
     2
1070
   271
1070
     2
1070
   173
1070
     1
1070
    41
1040
1.6
1070
   147
1040
0.571428571429
1070
   140
1040
4.0
1070
   178
1070
    18
1070
   177
1070
    18
1070
   176
1070
    18
1002
}
  0
DIMENSION
  5
E2
330
1F
100
AcDbEntity
  8
Layer0
  6
AUSGEZOGEN
 62
    18
420
        0
370
    18
100
AcDbDimension
280
     0
  2
*D3
 10
-593.252738971437
 20
164.078686214431
 30
0.0
 11
-596.052738971437
 21
183.666599972248
 31
0.0
 70
   160
 71
     5
 42
-1.0
 73
     0
 74
     0
 75
     0
 53
90.0
  3
ISO-25
100
AcDbAlignedDimension
 13
-617.083344133751
 23
172.078686214431
 33
0.0
 14
-617.083344133751
 24
164.078686214431
 34
0.0
 50
-90.0
100
AcDbRotatedDimension
1001
ACAD
1000
DSTYLE
1002
{
1070
     3
1000
M<>
1070
    44
1040
1.142857142857
1070
   280
1070
     0
1070
    77
1070
     1
1070
   179
1070
     2
1070
   271
1070
     2
1070
   173
1070
     1
1070
    41
1040
1.6
1070
   147
1040
0.571428571429
1070
   140
1040
4.0
1070
   178
1070
    18
1070
   177
1070
    18
1070
   176
1070
    18
1002
}
  0
DIMENSION
  5
EF
330
1F
100
AcDbEntity
  8
Layer0
  6
AUSGEZOGEN
 62
    18
420
        0
370
    18
100
AcDbDimension
280
     0
  2
*D4
 10
-576.802495898963
 20
163.07908457028
 30
0.0
 11
-579.602495898963
 21
184.661999964714
 31
0.0
 70
   160
 71
     5
 42
-1.0
 73
     0
 74
     0
 75
     0
 53
90.0
  3
ISO-25
100
AcDbAlignedDimension
 13
-609.083344133751
 23
173.078287858581
 33
0.0
 14
-609.083344133751
 24
163.07908457028
 34
0.0
 50
-90.0
100
AcDbRotatedDimension
1001
ACAD
1000
DSTYLE
1002
{
1070
     3
1000
%%c<>
1070
    44
1040
1.142857142857
1070
   280
1070
     0
1070
    77
1070
     1
1070
   179
1070
     2
1070
   271
1070
     2
1070
   173
1070
     1
1070
    41
1040
1.6
1070
   147
1040
0.571428571429
1070
   140
1040
4.0
1070
   178
1070
    18
1070
   177
1070
    18
1070
   176
1070
    18
1002
}
  0
LINE
  5
F0
330
1F
100
AcDbEntity
  8
Layer0
  6
AUSGEZOGEN
 62
    18
420
        0
370
    18
100
AcDbLine
 10
-627.083343358891
 20
164.078707910522
 30
0.0
 11
-617.083344513731
 21
164.078707910522
 31
0.0
  0
LINE
  5
F1
330
1F
100
AcDbEntity
  8
Layer0
  6
AUSGEZOGEN
 62
    18
420
        0
370
    18
100
AcDbLine
 10
-617.083344513731
 20
172.07866451834
 30
0.0
 11
-627.083343358891
 21
172.07866451834
 31
0.0
  0
LINE
  5
F2
330
1F
100
AcDbEntity
  8
Layer0
  6
AUSGEZOGEN
 62
    18
420
        0
370
    18
100
AcDbLine
 10
-627.083343358891
 20
171.478660880967
 30
0.0
 11
-627.083343358891
 21
164.678711547895
 31
0.0
  0
LINE
  5
F3
330
1F
100
AcDbEntity
  8
Layer0
  6
AUSGEZOGEN
 62
    18
420
        0
370
    18
100
AcDbLine
 10
-627.083343358891
 20
164.678711547895
 30
0.0
 11
-627.083343358891
 21
164.078707910522
 31
0.0
  0
LINE
  5
F4
330
1F
100
AcDbEntity
  8
Layer0
  6
AUSGEZOGEN
 62
    18
420
        0
370
    18
100
AcDbLine
 10
-627.083343358891
 20
172.07866451834
 30
0.0
 11
-627.083343358891
 21
171.478660880967
 31
0.0
  0
LINE
  5
F5
330
1F
100
AcDbEntity
  8
Layer0
  6
DASHDOT
 62
    18
420
        0
370
    18
100
AcDbLine
 10
-607.083344133751
 20
168.078686214431
 30
0.0
 11
-639.083344133751
 21
168.078686214431
 31
0.0
  0
LINE
  5
F6
330
1F
100
AcDbEntity
  8
Layer0
  6
DASHDOT
 62
    18
420
        0
370
    18
100
AcDbLine
 10
-519.047584495608
 20
168.078686214431
 30
0.0
 11
-519.047584495608
 21
137.753489319666
 31
0.0
  0
CIRCLE
  5
F7
330
1F
100
AcDbEntity
  8
Layer0
  6
AUSGEZOGEN
 62
    18
420
        0
370
    18
100
AcDbCircle
 10
-537.067131917777
 20
185.045076835308
 30
0.0
 40
0.7227785561301636
  0
CIRCLE
  5
F8
330
1F
100
AcDbEntity
  8
Layer0
  6
AUSGEZOGEN
 62
    18
420
        0
370
    18
100
AcDbCircle
 10
-535.889778592489
 20
186.214369217919
 30
0.0
 40
0.7108435312505338
  0
ARC
  5
F9
330
1F
100
AcDbEntity
  8
Layer0
  6
AUSGEZOGEN
 62
    18
420
        0
370
    18
100
AcDbCircle
 10
-519.047584495608
 20
168.078686214431
 30
0.0
 40
27.5
100
AcDbArc
 50
176.404891654479
 51
183.595108345522
  0
ARC
  5
FA
330
1F
100
AcDbEntity
  8
Layer0
  6
AUSGEZOGEN
 62
    18
420
        0
370
    18
100
AcDbCircle
 10
-519.047584495608
 20
168.078686214431
 30
0.0
 40
24.75
100
AcDbArc
 50
174.319964329997
 51
185.680035670004
  0
ARC
  5
FB
330
1F
100
AcDbEntity
  8
Layer0
  6
AUSGEZOGEN
 62
    18
420
        0
370
    18
100
AcDbCircle
 10
-519.047584495608
 20
168.078686214431
 30
0.0
 40
25.99999999999994
100
AcDbArc
 50
174.320184828418
 51
185.679815171583
  0
CIRCLE
  5
FC
330
1F
100
AcDbEntity
  8
Layer0
  6
AUSGEZOGEN
 62
    18
420
        0
370
    18
100
AcDbCircle
 10
-519.047584495608
 20
168.078686214431
 30
0.0
 40
3.400000000000054
  0
ARC
  5
FD
330
1F
100
AcDbEntity
  8
Layer0
  6
AUSGEZOGEN
 62
    18
420
        0
370
    18
100
AcDbCircle
 10
-519.047584495608
 20
168.078686214431
 30
0.0
 40
31.49999999999998
100
AcDbArc
 50
184.734561801975
 51
175.265438198026
  0
LINE
  5
FE
330
1F
100
AcDbEntity
  8
Layer0
  6
AUSGEZOGEN
 62
    18
420
        0
370
    18
100
AcDbLine
 10
-550.440099527061
 20
165.478686214431
 30
0.0
 11
-549.436562760762
 21
165.478686214431
 31
0.0
  0
ARC
  5
FF
330
1F
100
AcDbEntity
  8
Layer0
  6
AUSGEZOGEN
 62
    18
420
        0
370
    18
100
AcDbCircle
 10
-519.047584495608
 20
168.078686214431
 30
0.0
 40
30.49999999999997
100
AcDbArc
 50
184.890165319161
 51
175.10983468084
  0
LINE
  5
100
330
1F
100
AcDbEntity
  8
Layer0
  6
AUSGEZOGEN
 62
    18
420
        0
370
    18
100
AcDbLine
 10
-549.436562760762
 20
170.678686214431
 30
0.0
 11
-550.440099527061
 21
170.678686214431
 31
0.0
  0
CIRCLE
  5
101
330
1F
100
AcDbEntity
  8
Layer0
  6
AUSGEZOGEN
 62
    18
420
        0
370
    18
100
AcDbCircle
 10
-519.047584495608
 20
168.078686214431
 30
0.0
 40
5.0
  0
LINE
  5
102
330
1F
100
AcDbEntity
  8
Layer0
  6
AUSGEZOGEN
 62
    18
420
        0
370
    18
100
AcDbLine
 10
-549.436562760762
 20
165.478686214431
 30
0.0
 11
-544.547584495608
 21
165.478686214431
 31
0.0
  0
ARC
  5
103
330
1F
100
AcDbEntity
  8
Layer0
  6
AUSGEZOGEN
 62
    18
420
        0
370
    18
100
AcDbCircle
 10
-544.547584495608
 20
168.078686214431
 30
0.0
 40
2.599999999999994
100
AcDbArc
 50
270.000000000001
 51
90.0
  0
LINE
  5
104
330
1F
100
AcDbEntity
  8
Layer0
  6
AUSGEZOGEN
 62
    18
420
        0
370
    18
100
AcDbLine
 10
-544.547584495608
 20
170.678686214431
 30
0.0
 11
-549.436562760762
 21
170.678686214431
 31
0.0
  0
ARC
  5
105
330
1F
100
AcDbEntity
  8
Layer0
  6
AUSGEZOGEN
 62
    18
420
        0
370
    18
100
AcDbCircle
 10
-519.047584495608
 20
168.078686214431
 30
0.0
 40
31.49999999999999
100
AcDbArc
 50
175.265438198026
 51
184.734561801975
  0
ARC
  5
106
330
1F
100
AcDbEntity
  8
Layer0
  6
AUSGEZOGEN
 62
    18
420
        0
370
    18
100
AcDbCircle
 10
-544.547584495608
 20
168.078686214431
 30
0.0
 40
2.599999999999994
100
AcDbArc
 50
90.0
 51
270.000000000001
  0
TEXT
  5
107
330
1F
100
AcDbEntity
  8
Layer0
  6
AUSGEZOGEN
 62
    18
420
        0
370
    18
100
AcDbText
 10
-553.19871904825
 20
222.979279974503
 30
-5.5
 40
4.0
  1
UL1007 20AWG L=400mm
 41
0.902525218443
  7
Verdana
 72
     5
 11
-486.292719554651
 21
222.979279974503
 31
-5.5
100
AcDbText
  0
INSERT
  5
10D
330
1F
100
AcDbEntity
  8
0
100
AcDbBlockReference
  2
_Dot_nNn04
 10
0.0
 20
0.0
 30
0.0
  0
LINE
  5
10E
330
1F
100
AcDbEntity
  8
Layer0
  6
AUSGEZOGEN
 62
    18
420
        0
370
    18
100
AcDbLine
 10
-536.496123392807
 20
187.106680321631
 30
0.0
 11
-560.051288152095
 21
224.631789609812
 31
0.0
  0
LINE
  5
10F
330
1F
100
AcDbEntity
  8
Layer0
  6
AUSGEZOGEN
 62
    18
420
        0
370
    18
100
AcDbLine
 10
-560.051288152095
 20
224.631789609812
 30
0.0
 11
-553.701288152095
 21
224.631789609812
 31
0.0
  0
INSERT
  5
11B
330
1F
100
AcDbEntity
  8
0
100
AcDbBlockReference
  2
SW_CENTERMARKSYMBOL_0_nNn05
 10
0.0
 20
0.0
 30
0.0
  0
LINE
  5
11C
330
1F
100
AcDbEntity
  8
Layer0
  6
DASHDOT
 62
    18
420
        0
370
    18
100
AcDbLine
 10
-732.047582344138
 20
168.078686214431
 30
0.0
 11
-732.047582344138
 21
137.753489319666
 31
0.0
  0
CIRCLE
  5
11D
330
1F
100
AcDbEntity
  8
Layer0
  6
AUSGEZOGEN
 62
    18
420
        0
370
    18
100
AcDbCircle
 10
-732.047582344138
 20
168.078686214431
 30
0.0
 40
14.14999999999992
  0
CIRCLE
  5
11E
330
1F
100
AcDbEntity
  8
Layer0
  6
AUSGEZOGEN
 62
    18
420
        0
370
    18
100
AcDbCircle
 10
-732.047582344138
 20
168.078686214431
 30
0.0
 40
27.49999999999988
  0
CIRCLE
  5
11F
330
1F
100
AcDbEntity
  8
Layer0
  6
AUSGEZOGEN
 62
    18
420
        0
370
    18
100
AcDbCircle
 10
-732.047582344138
 20
168.078686214431
 30
0.0
 40
13.5
  0
CIRCLE
  5
120
330
1F
100
AcDbEntity
  8
Layer0
  6
AUSGEZOGEN
 62
    18
420
        0
370
    18
100
AcDbCircle
 10
-732.047582344138
 20
168.078686214431
 30
0.0
 40
14.0
  0
CIRCLE
  5
121
330
1F
100
AcDbEntity
  8
Layer0
  6
AUSGEZOGEN
 62
    18
420
        0
370
    18
100
AcDbCircle
 10
-732.047582344138
 20
168.078686214431
 30
0.0
 40
28.69999999999999
  0
CIRCLE
  5
122
330
1F
100
AcDbEntity
  8
Layer0
  6
AUSGEZOGEN
 62
    18
420
        0
370
    18
100
AcDbCircle
 10
-732.047582344138
 20
168.078686214431
 30
0.0
 40
28.19999999999999
  0
CIRCLE
  5
123
330
1F
100
AcDbEntity
  8
Layer0
  6
AUSGEZOGEN
 62
    18
420
        0
370
    18
100
AcDbCircle
 10
-732.047582344138
 20
168.078686214431
 30
0.0
 40
31.00000000000003
  0
CIRCLE
  5
124
330
1F
100
AcDbEntity
  8
Layer0
  6
AUSGEZOGEN
 62
    18
420
        0
370
    18
100
AcDbCircle
 10
-732.047582344138
 20
168.078686214431
 30
0.0
 40
31.5
  0
ARC
  5
125
330
1F
100
AcDbEntity
  8
Layer0
  6
AUSGEZOGEN
 62
    18
420
        0
370
    18
100
AcDbCircle
 10
-706.547582344138
 20
168.078686214431
 30
0.0
 40
2.600000000000018
100
AcDbArc
 50
318.453377614062
 51
41.546622385938
  0
TEXT
  5
126
330
1F
100
AcDbEntity
  8
Layer0
  6
AUSGEZOGEN
 62
    18
420
        0
370
    18
100
AcDbText
 10
-693.799447577357
 20
199.248657241131
 30
27.045792675363
 40
4.0
  1
EPOXY
 41
0.903349380203
  7
Verdana
 72
     5
 11
-677.293447702288
 21
199.248657241131
 31
27.045792675363
100
AcDbText
  0
INSERT
  5
12C
330
1F
100
AcDbEntity
  8
0
100
AcDbBlockReference
  2
_Dot_nNn06
 10
0.0
 20
0.0
 30
0.0
  0
LINE
  5
12D
330
1F
100
AcDbEntity
  8
Layer0
  6
AUSGEZOGEN
 62
    18
420
        0
370
    18
100
AcDbLine
 10
-712.289972057938
 20
176.680429323572
 30
0.0
 11
-700.652834737976
 21
200.904768919452
 31
0.0
  0
LINE
  5
12E
330
1F
100
AcDbEntity
  8
Layer0
  6
AUSGEZOGEN
 62
    18
420
        0
370
    18
100
AcDbLine
 10
-700.652834737976
 20
200.904768919452
 30
0.0
 11
-694.302834737976
 21
200.904768919452
 31
0.0
  0
INSERT
  5
13A
330
1F
100
AcDbEntity
  8
0
100
AcDbBlockReference
  2
SW_CENTERMARKSYMBOL_1_nNn07
 10
0.0
 20
0.0
 30
0.0
  0
DIMENSION
  5
145
330
1F
100
AcDbEntity
  8
Layer6
  6
AUSGEZOGEN
 62
    18
420
        0
370
    18
100
AcDbDimension
280
     0
  2
*D9
 10
-651.576328046572
 20
136.578686214431
 30
0.0
 11
-654.376328046572
 21
168.078686214431
 31
0.0
 70
   160
 71
     5
 42
-1.0
 73
     0
 74
     0
 75
     0
 53
90.0
  3
ISO-25
100
AcDbAlignedDimension
 13
-636.583344133751
 23
199.578686214431
 33
0.0
 14
-636.583344133751
 24
136.578686214431
 34
0.0
 50
-90.0
100
AcDbRotatedDimension
1001
ACAD
1000
DSTYLE
1002
{
1070
     3
1000
<>
1070
    44
1040
2.5
1070
   280
1070
     0
1070
    77
1070
     1
1070
    78
1070
     8
1070
   179
1070
     2
1070
   271
1070
     2
1070
   173
1070
     1
1070
    41
1040
3.5
1070
   147
1040
0.571428571429
1070
   140
1040
4.0
1070
   178
1070
    18
1070
   177
1070
    18
1070
   176
1070
    18
1002
}
  0
DIMENSION
  5
152
330
1F
100
AcDbEntity
  8
Layer6
  6
AUSGEZOGEN
 62
    18
420
        0
370
    18
100
AcDbDimension
280
     0
  2
*D10
 10
-609.083344133751
 20
214.340369049686
 30
0.0
 11
-618.083343746321
 21
217.140369049686
 31
0.0
 70
   160
 71
     5
 42
-1.0
 73
     0
 74
     0
 75
     0
  3
ISO-25
100
AcDbAlignedDimension
 13
-627.083343358891
 23
172.07866451834
 33
0.0
 14
-609.083344133751
 24
181.752741653451
 34
0.0
100
AcDbRotatedDimension
1001
ACAD
1000
DSTYLE
1002
{
1070
     3
1000
<>
1070
    44
1040
2.5
1070
   280
1070
     0
1070
    77
1070
     1
1070
    78
1070
     8
1070
   179
1070
     2
1070
   271
1070
     2
1070
   173
1070
     1
1070
    41
1040
3.5
1070
   147
1040
0.571428571429
1070
   140
1040
4.0
1070
   178
1070
    18
1070
   177
1070
    18
1070
   176
1070
    18
1002
}
  0
HATCH
  5
153
330
1F
100
AcDbEntity
  8
Layer7
  6
AUSGEZOGEN
 62
    18
420
        0
370
    18
100
AcDbHatch
 10
0.0
 20
0.0
 30
0.0
210
0.0
220
0.0
230
1.0
  2
MegaCAD_TYP1
 70
     0
 71
     0
 91
        2
 92
        2
 72
     0
 73
     1
 93
       17
 10
-620.7364282950537
 20
177.0826646726255
 10
-624.182698457459
 20
175.4047238313446
 10
-627.5113453810796
 20
173.5027899206391
 10
-628.7729256287969
 20
172.6730216752623
 10
-629.969281147406
 20
171.7491581466753
 10
-630.2433627888917
 20
171.4786609221942
 10
-627.0833433588909
 20
171.4786609223649
 10
-627.0833433588909
 20
172.0786645183402
 10
-617.0833441337512
 20
172.0786645183402
 10
-617.0833441337495
 20
178.5882946140901
 10
-617.0833441337513
 20
173.0786690162277
 10
-612.5833441337513
 20
173.0786690162278
 10
-609.0833441337513
 20
173.0786690162277
 10
-609.0833441337513
 20
181.7527416534514
 10
-610.083344133804
 20
181.3704082133895
 10
-613.6476045573377
 20
180.0057189203091
 10
-617.2116814697258
 20
178.5964003878309
 97
        0
 92
        2
 72
     0
 73
     1
 93
       15
 10
-627.0833433588909
 20
164.0787079105217
 10
-627.0833433588909
 20
164.6787115051023
 10
-629.6587022901654
 20
164.6787115048822
 10
-629.6331236733834
 20
164.657536778151
 10
-628.3587378117141
 20
163.8305819041734
 10
-625.7593014880099
 20
162.4661957845799
 10
-621.935109213659
 20
160.8205435220604
 10
-618.02400524314
 20
159.3878143701553
 10
-614.0615600564914
 20
158.0973863454029
 10
-610.0833441337585
 20
156.8786374643436
 10
-609.0833441337514
 20
156.5763761694491
 10
-609.0833441337513
 20
163.0787034126341
 10
-612.5833441337513
 20
163.0787034126341
 10
-617.0833441337506
 20
163.078703412634
 10
-617.0833441337513
 20
164.0787079105216
 97
        0
 75
     0
 76
     1
 52
0.0
 41
1.0
 77
     0
 78
     1
 53
45.0
 43
0.0
 44
0.0
 45
-2.121320343559643
 46
2.121320343559643
 79
     0
 98
        0
  0
LINE
  5
154
330
1F
100
AcDbEntity
  8
Layer65001
  6
AUSGEZOGEN
 62
    18
420
        0
370
    18
100
AcDbLine
 10
-804.541588642217
 20
17.828333961806
 30
0.0
 11
-400.753384397819
 21
17.828333961806
 31
0.0
  0
LINE
  5
155
330
1F
100
AcDbEntity
  8
Layer65001
  6
AUSGEZOGEN
 62
    18
420
        0
370
    18
100
AcDbLine
 10
-400.753384397819
 20
17.828333961806
 30
0.0
 11
-400.753384397819
 21
317.055833961806
 31
0.0
  0
LINE
  5
156
330
1F
100
AcDbEntity
  8
Layer65001
  6
AUSGEZOGEN
 62
    18
420
        0
370
    18
100
AcDbLine
 10
-400.753384397819
 20
317.055833961806
 30
0.0
 11
-809.579088642217
 21
317.055833961806
 31
0.0
  0
LINE
  5
157
330
1F
100
AcDbEntity
  8
Layer65001
  6
AUSGEZOGEN
 62
    18
420
        0
370
    18
100
AcDbLine
 10
-814.616588642217
 20
317.055833961806
 30
0.0
 11
-814.616588642217
 21
17.828333961806
 31
0.0
  0
LINE
  5
158
330
1F
100
AcDbEntity
  8
Layer65001
  6
AUSGEZOGEN
 62
    18
420
        0
370
    18
100
AcDbLine
 10
-400.753384397819
 20
306.980833961806
 30
0.0
 11
-405.790884397819
 21
306.980833961806
 31
0.0
  0
LINE
  5
159
330
1F
100
AcDbEntity
  8
Layer65001
  6
AUSGEZOGEN
 62
    18
420
        0
370
    18
100
AcDbLine
 10
-804.541588642217
 20
22.865833961806
 30
0.0
 11
-804.541588642217
 21
17.828333961806
 31
0.0
  0
LINE
  5
15A
330
1F
100
AcDbEntity
  8
Layer65001
  6
AUSGEZOGEN
 62
    18
420
        0
370
    18
100
AcDbLine
 10
-814.616588642217
 20
27.903333961806
 30
0.0
 11
-809.579088642217
 21
27.903333961806
 31
0.0
  0
LINE
  5
15B
330
1F
100
AcDbEntity
  8
Layer65001
  6
AUSGEZOGEN
 62
    18
420
        0
370
    18
100
AcDbLine
 10
-809.579088642217
 20
27.903333961806
 30
0.0
 11
-809.579088642217
 21
22.865833961806
 31
0.0
  0
LINE
  5
15C
330
1F
100
AcDbEntity
  8
Layer65001
  6
AUSGEZOGEN
 62
    18
420
        0
370
    18
100
AcDbLine
 10
-405.790884397819
 20
306.980833961806
 30
0.0
 11
-405.790884397819
 21
312.018333961806
 31
0.0
  0
LINE
  5
15D
330
1F
100
AcDbEntity
  8
Layer65001
  6
AUSGEZOGEN
 62
    18
420
        0
370
    18
100
AcDbLine
 10
-809.579088642217
 20
22.865833961806
 30
0.0
 11
-804.541588642217
 21
22.865833961806
 31
0.0
  0
LINE
  5
15E
330
1F
100
AcDbEntity
  8
Layer65001
  6
AUSGEZOGEN
 62
    18
420
        0
370
    18
100
AcDbLine
 10
-814.616588642217
 20
306.980833961806
 30
0.0
 11
-809.579088642217
 21
306.980833961806
 31
0.0
  0
LINE
  5
15F
330
1F
100
AcDbEntity
  8
Layer65001
  6
AUSGEZOGEN
 62
    18
420
        0
370
    18
100
AcDbLine
 10
-410.828384397819
 20
22.865833961806
 30
0.0
 11
-410.828384397819
 21
17.828333961806
 31
0.0
  0
LINE
  5
160
330
1F
100
AcDbEntity
  8
Layer65001
  6
AUSGEZOGEN
 62
    18
420
        0
370
    18
100
AcDbLine
 10
-804.541588642217
 20
312.018333961806
 30
0.0
 11
-804.541588642217
 21
317.055833961806
 31
0.0
  0
LINE
  5
161
330
1F
100
AcDbEntity
  8
Layer65001
  6
AUSGEZOGEN
 62
    18
420
        0
370
    18
100
AcDbLine
 10
-400.753384397819
 20
27.903333961806
 30
0.0
 11
-405.790884397819
 21
27.903333961806
 31
0.0
  0
LINE
  5
162
330
1F
100
AcDbEntity
  8
Layer65001
  6
AUSGEZOGEN
 62
    18
420
        0
370
    18
100
AcDbLine
 10
-809.579088642217
 20
312.018333961806
 30
0.0
 11
-804.541588642217
 21
312.018333961806
 31
0.0
  0
LINE
  5
163
330
1F
100
AcDbEntity
  8
Layer65001
  6
AUSGEZOGEN
 62
    18
420
        0
370
    18
100
AcDbLine
 10
-405.790884397819
 20
27.903333961806
 30
0.0
 11
-405.790884397819
 21
22.865833961806
 31
0.0
  0
LINE
  5
164
330
1F
100
AcDbEntity
  8
Layer65001
  6
AUSGEZOGEN
 62
    18
420
        0
370
    18
100
AcDbLine
 10
-809.579088642217
 20
306.980833961806
 30
0.0
 11
-809.579088642217
 21
312.018333961806
 31
0.0
  0
LINE
  5
165
330
1F
100
AcDbEntity
  8
Layer65001
  6
AUSGEZOGEN
 62
    18
420
        0
370
    18
100
AcDbLine
 10
-405.790884397819
 20
22.865833961806
 30
0.0
 11
-410.828384397819
 21
22.865833961806
 31
0.0
  0
HATCH
  5
166
330
1F
100
AcDbEntity
  8
Layer65001
  6
AUSGEZOGEN
 62
    18
420
        0
370
    18
100
AcDbHatch
 10
0.0
 20
0.0
 30
0.0
210
0.0
220
0.0
230
1.0
  2
SOLID
 70
     1
 71
     0
 91
        1
 92
        2
 72
     0
 73
     1
 93
        6
 10
-814.6165886422168
 20
306.9808339618061
 10
-809.5790886422168
 20
306.9808339618061
 10
-809.5790886422168
 20
312.0183339618061
 10
-804.5415886422168
 20
312.0183339618061
 10
-804.5415886422168
 20
317.0558339618062
 10
-814.6165886422168
 20
317.0558339618062
 97
        0
 75
     0
 76
     1
 98
        0
  0
HATCH
  5
167
330
1F
100
AcDbEntity
  8
Layer65001
  6
AUSGEZOGEN
 62
    18
420
        0
370
    18
100
AcDbHatch
 10
0.0
 20
0.0
 30
0.0
210
0.0
220
0.0
230
1.0
  2
SOLID
 70
     1
 71
     0
 91
        1
 92
        2
 72
     0
 73
     1
 93
        6
 10
-410.8283843978186
 20
317.0558339618062
 10
-410.8283843978186
 20
312.0183339618063
 10
-405.7908843978187
 20
312.0183339618063
 10
-405.7908843978187
 20
306.9808339618062
 10
-400.7533843978185
 20
306.9808339618062
 10
-400.7533843978185
 20
317.0558339618062
 97
        0
 75
     0
 76
     1
 98
        0
  0
HATCH
  5
168
330
1F
100
AcDbEntity
  8
Layer65001
  6
AUSGEZOGEN
 62
    18
420
        0
370
    18
100
AcDbHatch
 10
0.0
 20
0.0
 30
0.0
210
0.0
220
0.0
230
1.0
  2
SOLID
 70
     1
 71
     0
 91
        1
 92
        2
 72
     0
 73
     1
 93
        6
 10
-410.8283843978186
 20
22.86583396180623
 10
-410.8283843978186
 20
17.82833396180621
 10
-400.7533843978185
 20
17.82833396180621
 10
-400.7533843978185
 20
27.90333396180625
 10
-405.7908843978186
 20
27.90333396180625
 10
-405.7908843978186
 20
22.86583396180623
 97
        0
 75
     0
 76
     1
 98
        0
  0
HATCH
  5
169
330
1F
100
AcDbEntity
  8
Layer65001
  6
AUSGEZOGEN
 62
    18
420
        0
370
    18
100
AcDbHatch
 10
0.0
 20
0.0
 30
0.0
210
0.0
220
0.0
230
1.0
  2
SOLID
 70
     1
 71
     0
 91
        1
 92
        2
 72
     0
 73
     1
 93
        6
 10
-804.5415886422168
 20
17.82833396180621
 10
-804.5415886422168
 20
22.86583396180617
 10
-809.5790886422168
 20
22.86583396180617
 10
-809.5790886422168
 20
27.9033339618062
 10
-814.6165886422168
 20
27.9033339618062
 10
-814.6165886422168
 20
17.82833396180621
 97
        0
 75
     0
 76
     1
 98
        0
  0
LINE
  5
16A
330
1F
100
AcDbEntity
  8
Layer65000
  6
AUSGEZOGEN
 62
    18
420
        0
370
   100
100
AcDbLine
 10
-794.466588642217
 20
306.980833961806
 30
0.0
 11
-794.466588642217
 21
27.903333961806
 31
0.0
  0
LINE
  5
16B
330
1F
100
AcDbEntity
  8
Layer65000
  6
AUSGEZOGEN
 62
    18
420
        0
370
   100
100
AcDbLine
 10
-410.828384397819
 20
306.980833961806
 30
0.0
 11
-794.41990125053
 21
306.980833961806
 31
0.0
  0
LINE
  5
16C
330
1F
100
AcDbEntity
  8
Layer65000
  6
AUSGEZOGEN
 62
    18
420
        0
370
   100
100
AcDbLine
 10
-410.828384397819
 20
306.980833961806
 30
0.0
 11
-410.828384397819
 21
27.903333961806
 31
0.0
  0
LINE
  5
16D
330
1F
100
AcDbEntity
  8
Layer65000
  6
AUSGEZOGEN
 62
    18
420
        0
370
   100
100
AcDbLine
 10
-410.828384397819
 20
167.442083961806
 30
0.0
 11
-420.903384397819
 21
167.442083961806
 31
0.0
  0
LINE
  5
16E
330
1F
100
AcDbEntity
  8
Layer65000
  6
AUSGEZOGEN
 62
    18
420
        0
370
    18
100
AcDbLine
 10
-410.828384397819
 20
312.018333961806
 30
0.0
 11
-799.504088642217
 21
312.018333961806
 31
0.0
  0
LINE
  5
16F
330
1F
100
AcDbEntity
  8
Layer65000
  6
AUSGEZOGEN
 62
    18
420
        0
370
    18
100
AcDbLine
 10
-799.504088642217
 20
312.018333961806
 30
0.0
 11
-799.504088642217
 21
27.903333961806
 31
0.0
  0
LINE
  5
170
330
1F
100
AcDbEntity
  8
Layer65000
  6
AUSGEZOGEN
 62
    18
420
        0
370
    18
100
AcDbLine
 10
-799.504088642217
 20
117.067083961806
 30
0.0
 11
-794.466588642217
 21
117.067083961806
 31
0.0
  0
LINE
  5
171
330
1F
100
AcDbEntity
  8
Layer65000
  6
AUSGEZOGEN
 62
    18
420
        0
370
    18
100
AcDbLine
 10
-799.504088642217
 20
66.692083961806
 30
0.0
 11
-794.466588642217
 21
66.692083961806
 31
0.0
  0
LINE
  5
172
330
1F
100
AcDbEntity
  8
Layer65000
  6
AUSGEZOGEN
 62
    18
420
        0
370
    18
100
AcDbLine
 10
-799.504088642217
 20
217.817083961806
 30
0.0
 11
-794.466588642217
 21
217.817083961806
 31
0.0
  0
LINE
  5
173
330
1F
100
AcDbEntity
  8
Layer65000
  6
AUSGEZOGEN
 62
    18
420
        0
370
    18
100
AcDbLine
 10
-799.504088642217
 20
268.192083961806
 30
0.0
 11
-794.466588642217
 21
268.192083961806
 31
0.0
  0
LINE
  5
174
330
1F
100
AcDbEntity
  8
Layer65000
  6
AUSGEZOGEN
 62
    18
420
        0
370
    18
100
AcDbLine
 10
-648.754088642217
 20
312.018333961806
 30
0.0
 11
-648.754088642217
 21
306.980833961806
 31
0.0
  0
LINE
  5
175
330
1F
100
AcDbEntity
  8
Layer65000
  6
AUSGEZOGEN
 62
    18
420
        0
370
    18
100
AcDbLine
 10
-749.504088642217
 20
312.018333961806
 30
0.0
 11
-749.504088642217
 21
306.980833961806
 31
0.0
  0
LINE
  5
176
330
1F
100
AcDbEntity
  8
Layer65000
  6
AUSGEZOGEN
 62
    18
420
        0
370
   100
100
AcDbLine
 10
-778.805721069393
 20
167.442083961806
 30
0.0
 11
-793.918221069393
 21
167.442083961806
 31
0.0
  0
TEXT
  5
177
330
1F
100
AcDbEntity
  8
Layer65000
  6
AUSGEZOGEN
 62
    18
420
        0
370
    18
100
AcDbText
 10
-771.209165073813
 20
307.736458961806
 30
0.0
 40
3.52625
  1
1
 41
1.136598070872
  7
Arial
 72
     5
 11
-768.099012210621
 21
307.736458961806
 31
0.0
100
AcDbText
  0
TEXT
  5
178
330
1F
100
AcDbEntity
  8
Layer65000
  6
AUSGEZOGEN
 62
    18
420
        0
370
    18
100
AcDbText
 10
-725.871665073813
 20
307.736458961806
 30
0.0
 40
3.52625
  1
2
 41
1.136598070872
  7
Arial
 72
     5
 11
-722.761512210621
 21
307.736458961806
 31
0.0
100
AcDbText
  0
TEXT
  5
179
330
1F
100
AcDbEntity
  8
Layer65000
  6
AUSGEZOGEN
 62
    18
420
        0
370
    18
100
AcDbText
 10
-675.496665073813
 20
307.736458961806
 30
0.0
 40
3.52625
  1
3
 41
1.136598070872
  7
Arial
 72
     5
 11
-672.386512210621
 21
307.736458961806
 31
0.0
100
AcDbText
  0
TEXT
  5
17A
330
1F
100
AcDbEntity
  8
Layer65000
  6
AUSGEZOGEN
 62
    18
420
        0
370
    18
100
AcDbText
 10
-630.159165073813
 20
307.736458961806
 30
0.0
 40
3.52625
  1
4
 41
1.136598070872
  7
Arial
 72
     5
 11
-627.049012210621
 21
307.736458961806
 31
0.0
100
AcDbText
  0
TEXT
  5
17B
330
1F
100
AcDbEntity
  8
Layer65000
  6
AUSGEZOGEN
 62
    18
420
        0
370
    18
100
AcDbText
 10
-798.848961984844
 20
285.823333961806
 30
0.0
 40
3.52625
  1
A
 41
1.135338478445
  7
Arial
 72
     5
 11
-795.121715299589
 21
285.823333961806
 31
0.0
100
AcDbText
  0
TEXT
  5
17C
330
1F
100
AcDbEntity
  8
Layer65000
  6
AUSGEZOGEN
 62
    18
420
        0
370
    18
100
AcDbText
 10
-798.848961984844
 20
241.241458961806
 30
0.0
 40
3.52625
  1
B
 41
1.135338478445
  7
Arial
 72
     5
 11
-795.121715299589
 21
241.241458961806
 31
0.0
100
AcDbText
  0
TEXT
  5
17D
330
1F
100
AcDbEntity
  8
Layer65000
  6
AUSGEZOGEN
 62
    18
420
        0
370
    18
100
AcDbText
 10
-799.00940637858
 20
190.866458961806
 30
0.0
 40
3.52625
  1
C
 41
1.138889021884
  7
Arial
 72
     5
 11
-794.961270905853
 21
190.866458961806
 31
0.0
100
AcDbText
  0
TEXT
  5
17E
330
1F
100
AcDbEntity
  8
Layer65000
  6
AUSGEZOGEN
 62
    18
420
        0
370
    18
100
AcDbText
 10
-799.00940637858
 20
140.491458961806
 30
0.0
 40
3.52625
  1
D
 41
1.138889021884
  7
Arial
 72
     5
 11
-794.961270905853
 21
140.491458961806
 31
0.0
100
AcDbText
  0
TEXT
  5
17F
330
1F
100
AcDbEntity
  8
Layer65000
  6
AUSGEZOGEN
 62
    18
420
        0
370
    18
100
AcDbText
 10
-798.848961984844
 20
90.116458961806
 30
0.0
 40
3.52625
  1
E
 41
1.135338478445
  7
Arial
 72
     5
 11
-795.121715299589
 21
90.116458961806
 31
0.0
100
AcDbText
  0
TEXT
  5
180
330
1F
100
AcDbEntity
  8
Layer65000
  6
AUSGEZOGEN
 62
    18
420
        0
370
    18
100
AcDbText
 10
-798.688517591108
 20
45.534583961806
 30
0.0
 40
3.52625
  1
F
 41
1.132473754755
  7
Arial
 72
     5
 11
-795.282159693326
 21
45.534583961806
 31
0.0
100
AcDbText
  0
INSERT
  5
18C
330
1F
100
AcDbEntity
  8
0
100
AcDbBlockReference
 66
     1
  2
Schriftfeld_nNn010
 10
0.0
 20
0.0
 30
0.0
  0
ATTRIB
  5
18D
330
18C
100
AcDbEntity
  8
0
100
AcDbText
 10
0.0
 20
0.0
 30
0.0
 40
1.0
  1
0
100
AcDbAttribute
  2
POS
 70
     1
280
     0
  0
ATTRIB
  5
18E
330
18C
100
AcDbEntity
  8
0
100
AcDbText
 10
0.0
 20
0.0
 30
0.0
 40
1.0
  1
0
100
AcDbAttribute
  2
Anzahl
 70
     1
280
     0
  0
ATTRIB
  5
18F
330
18C
100
AcDbEntity
  8
0
100
AcDbText
 10
0.0
 20
0.0
 30
0.0
 40
1.0
  1

100
AcDbAttribute
  2
Einheit
 70
     1
280
     0
  0
ATTRIB
  5
190
330
18C
100
AcDbEntity
  8
0
100
AcDbText
 10
0.0
 20
0.0
 30
0.0
 40
1.0
  1

100
AcDbAttribute
  2
Typ
 70
     1
280
     0
  0
ATTRIB
  5
191
330
18C
100
AcDbEntity
  8
0
100
AcDbText
 10
0.0
 20
0.0
 30
0.0
 40
1.0
  1
1
100
AcDbAttribute
  2
Gesperrt
 70
     1
280
     0
  0
ATTRIB
  5
192
330
18C
100
AcDbEntity
  8
0
100
AcDbText
 10
0.0
 20
0.0
 30
0.0
 40
1.0
  1

100
AcDbAttribute
  2
Bezeichnung
 70
     1
280
     0
  0
ATTRIB
  5
193
330
18C
100
AcDbEntity
  8
0
100
AcDbText
 10
0.0
 20
0.0
 30
0.0
 40
1.0
  1

100
AcDbAttribute
  2
Norm
 70
     1
280
     0
  0
ATTRIB
  5
194
330
18C
100
AcDbEntity
  8
0
100
AcDbText
 10
0.0
 20
0.0
 30
0.0
 40
1.0
  1

100
AcDbAttribute
  2
IDNR
 70
     1
280
     0
  0
ATTRIB
  5
195
330
18C
100
AcDbEntity
  8
0
100
AcDbText
 10
0.0
 20
0.0
 30
0.0
 40
1.0
  1

100
AcDbAttribute
  2
Werkstoff
 70
     1
280
     0
  0
ATTRIB
  5
196
330
18C
100
AcDbEntity
  8
0
100
AcDbText
 10
0.0
 20
0.0
 30
0.0
 40
1.0
  1

100
AcDbAttribute
  2
Gewicht
 70
     1
280
     0
  0
ATTRIB
  5
197
330
18C
100
AcDbEntity
  8
0
100
AcDbText
 10
0.0
 20
0.0
 30
0.0
 40
1.0
  1

100
AcDbAttribute
  2
Bemerkung
 70
     1
280
     0
  0
ATTRIB
  5
198
330
18C
100
AcDbEntity
  8
0
100
AcDbText
 10
0.0
 20
0.0
 30
0.0
 40
1.0
  1

100
AcDbAttribute
  2
Zeichnung
 70
     1
280
     0
  0
ATTRIB
  5
199
330
18C
100
AcDbEntity
  8
0
100
AcDbText
 10
0.0
 20
0.0
 30
0.0
 40
1.0
  1

100
AcDbAttribute
  2
Stueckliste
 70
     1
280
     0
  0
ATTRIB
  5
19A
330
18C
100
AcDbEntity
  8
0
100
AcDbText
 10
0.0
 20
0.0
 30
0.0
 40
1.0
  1

100
AcDbAttribute
  2
Laenge
 70
     1
280
     0
  0
ATTRIB
  5
19B
330
18C
100
AcDbEntity
  8
0
100
AcDbText
 10
0.0
 20
0.0
 30
0.0
 40
1.0
  1

100
AcDbAttribute
  2
Hersteller
 70
     1
280
     0
  0
ATTRIB
  5
19C
330
18C
100
AcDbEntity
  8
0
100
AcDbText
 10
0.0
 20
0.0
 30
0.0
 40
1.0
  1

100
AcDbAttribute
  2
Preis
 70
     1
280
     0
  0
ATTRIB
  5
19D
330
18C
100
AcDbEntity
  8
0
100
AcDbText
 10
0.0
 20
0.0
 30
0.0
 40
1.0
  1

100
AcDbAttribute
  2
Kostenart
 70
     1
280
     0
  0
ATTRIB
  5
19E
330
18C
100
AcDbEntity
  8
0
100
AcDbText
 10
0.0
 20
0.0
 30
0.0
 40
1.0
  1

100
AcDbAttribute
  2
Artikelnr
 70
     1
280
     0
  0
ATTRIB
  5
19F
330
18C
100
AcDbEntity
  8
0
100
AcDbText
 10
0.0
 20
0.0
 30
0.0
 40
1.0
  1

100
AcDbAttribute
  2
HerstellerArtnr
 70
     1
280
     0
  0
ATTRIB
  5
1A0
330
18C
100
AcDbEntity
  8
0
100
AcDbText
 10
0.0
 20
0.0
 30
0.0
 40
1.0
  1

100
AcDbAttribute
  2
GehrWinkel1
 70
     1
280
     0
  0
ATTRIB
  5
1A1
330
18C
100
AcDbEntity
  8
0
100
AcDbText
 10
0.0
 20
0.0
 30
0.0
 40
1.0
  1

100
AcDbAttribute
  2
GehrWinkel2
 70
     1
280
     0
  0
ATTRIB
  5
1A2
330
18C
100
AcDbEntity
  8
0
100
AcDbText
 10
0.0
 20
0.0
 30
0.0
 40
1.0
  1

100
AcDbAttribute
  2
Schnittbild
 70
     1
280
     0
  0
ATTRIB
  5
1A3
330
18C
100
AcDbEntity
  8
0
100
AcDbText
 10
0.0
 20
0.0
 30
0.0
 40
1.0
  1

100
AcDbAttribute
  2
Schnittbild2
 70
     1
280
     0
  0
ATTRIB
  5
1A4
330
18C
100
AcDbEntity
  8
0
100
AcDbText
 10
0.0
 20
0.0
 30
0.0
 40
1.0
  1

100
AcDbAttribute
  2
Profilquerschnitt
 70
     1
280
     0
  0
ATTRIB
  5
1A5
330
18C
100
AcDbEntity
  8
0
100
AcDbText
 10
0.0
 20
0.0
 30
0.0
 40
1.0
  1

100
AcDbAttribute
  2
Schnittbild3
 70
     1
280
     0
  0
ATTRIB
  5
1A6
330
18C
100
AcDbEntity
  8
0
100
AcDbText
 10
0.0
 20
0.0
 30
0.0
 40
1.0
  1

100
AcDbAttribute
  2
Schnittbild4
 70
     1
280
     0
  0
ATTRIB
  5
1A7
330
18C
100
AcDbEntity
  8
0
100
AcDbText
 10
0.0
 20
0.0
 30
0.0
 40
1.0
  1

100
AcDbAttribute
  2
Profilquerschnitt2
 70
     1
280
     0
  0
ATTRIB
  5
1A8
330
18C
100
AcDbEntity
  8
0
100
AcDbText
 10
0.0
 20
0.0
 30
0.0
 40
1.0
  1

100
AcDbAttribute
  2
GehrWinkel3
 70
     1
280
     0
  0
ATTRIB
  5
1A9
330
18C
100
AcDbEntity
  8
0
100
AcDbText
 10
0.0
 20
0.0
 30
0.0
 40
1.0
  1

100
AcDbAttribute
  2
GehrWinkel4
 70
     1
280
     0
  0
ATTRIB
  5
1AA
330
18C
100
AcDbEntity
  8
0
100
AcDbText
 10
0.0
 20
0.0
 30
0.0
 40
1.0
  1

100
AcDbAttribute
  2
Mosaiknr
 70
     1
280
     0
  0
ATTRIB
  5
1AB
330
18C
100
AcDbEntity
  8
0
100
AcDbText
 10
0.0
 20
0.0
 30
0.0
 40
1.0
  1

100
AcDbAttribute
  2
Breite
 70
     1
280
     0
  0
ATTRIB
  5
1AC
330
18C
100
AcDbEntity
  8
0
100
AcDbText
 10
0.0
 20
0.0
 30
0.0
 40
1.0
  1

100
AcDbAttribute
  2
Tiefe
 70
     1
280
     0
  0
SEQEND
  5
1AD
330
18C
100
AcDbEntity
  8
0
  0
LINE
  5
1AE
330
1F
100
AcDbEntity
  8
Layer65000
  6
AUSGEZOGEN
 62
    18
420
        0
370
   100
100
AcDbLine
 10
-794.466588642217
 20
27.903333961806
 30
0.0
 11
-410.828384397819
 21
27.903333961806
 31
0.0
  0
LINE
  5
1AF
330
1F
100
AcDbEntity
  8
Layer65000
  6
AUSGEZOGEN
 62
    18
420
        0
370
    18
100
AcDbLine
 10
-794.466588642217
 20
27.903333961806
 30
0.0
 11
-799.504088642217
 21
27.903333961806
 31
0.0
  0
TEXT
  5
1B0
330
1F
100
AcDbEntity
  8
Layer65000
  6
AUSGEZOGEN
 62
    18
420
        0
370
    18
100
AcDbText
 10
-809.842306829465
 20
31.481687917315
 30
0.0
 40
1.813499951959
  1
Weitergabe sowie Vervielfältigung dieses Dokumentes, Verwertung und Mitteilung
 50
90.0
 41
0.908571202969
  7
Arial
 72
     5
 11
-809.842306829465
 21
114.950562106145
 31
0.0
100
AcDbText
  0
TEXT
  5
1B1
330
1F
100
AcDbEntity
  8
Layer65000
  6
AUSGEZOGEN
 62
    18
420
        0
370
    18
100
AcDbText
 10
-806.940706863094
 20
31.481687917315
 30
0.0
 40
1.813499951959
  1
seines Inhalts sind verboten, soweit nicht ausdrücklich gestattet.
 50
90.0
 41
0.908283725154
  7
Arial
 72
     5
 11
-806.940706863094
 21
96.782194187442
 31
0.0
100
AcDbText
  0
TEXT
  5
1B2
330
1F
100
AcDbEntity
  8
Layer65000
  6
AUSGEZOGEN
 62
    18
420
        0
370
    18
100
AcDbText
 10
-804.039106896723
 20
31.481687917315
 30
0.0
 40
1.813499951959
  1
Zuwiderhandlungen verpflichten zu Schadenersatz. Alle Rechte für den Fall der
 50
90.0
 41
0.908339621872
  7
Arial
 72
     5
 11
-804.039106896723
 21
112.249172577707
 31
0.0
100
AcDbText
  0
TEXT
  5
1B3
330
1F
100
AcDbEntity
  8
Layer65000
  6
AUSGEZOGEN
 62
    18
420
        0
370
    18
100
AcDbText
 10
-801.137506930352
 20
31.481687917315
 30
0.0
 40
1.813499951959
  1
Patent- Gebrauchsmuster- oder Geschmackmustereintragung vorbehalten
 50
90.0
 41
0.908295954361
  7
Arial
 72
     5
 11
-801.137506930352
 21
107.130750313299
 31
0.0
100
AcDbText
  0
TEXT
  5
1B4
330
1F
100
AcDbEntity
  8
Layer65000
  6
AUSGEZOGEN
 62
    18
420
        0
370
    18
100
AcDbText
 10
-809.657317838371
 20
225.899380555337
 30
0.0
 40
1.813499951959
  1
The reproduction, distribution and utilization of this document as well as the
 50
90.0
 41
0.908368660025
  7
Arial
 72
     5
 11
-809.657317838371
 21
302.452291327378
 31
0.0
100
AcDbText
  0
TEXT
  5
1B5
330
1F
100
AcDbEntity
  8
Layer65000
  6
AUSGEZOGEN
 62
    18
420
        0
370
    18
100
AcDbText
 10
-806.755717872
 20
225.899380555337
 30
0.0
 40
1.813499951959
  1
communication of its contents to others without express authorization is
 50
90.0
 41
0.908403494837
  7
Arial
 72
     5
 11
-806.755717872
 21
298.4916074323
 31
0.0
100
AcDbText
  0
TEXT
  5
1B6
330
1F
100
AcDbEntity
  8
Layer65000
  6
AUSGEZOGEN
 62
    18
420
        0
370
    18
100
AcDbText
 10
-803.854117905629
 20
225.899380555337
 30
0.0
 40
1.813499951959
  1
prohibited. Offenders will be held liable for the payment of damages. All rights
 50
90.0
 41
0.90843378528
  7
Arial
 72
     5
 11
-803.854117905629
 21
304.757612466308
 31
0.0
100
AcDbText
  0
TEXT
  5
1B7
330
1F
100
AcDbEntity
  8
Layer65000
  6
AUSGEZOGEN
 62
    18
420
        0
370
    18
100
AcDbText
 10
-800.952517939258
 20
225.899380555337
 30
0.0
 40
1.813499951959
  1
reserved in the event of the grant of a patent, utility model or design.
 50
90.0
 41
0.908542808991
  7
Arial
 72
     5
 11
-800.952517939258
 21
295.312904716507
 31
0.0
100
AcDbText
  0
TEXT
  5
1B8
330
1F
100
AcDbEntity
  8
Layer65000
  6
AUSGEZOGEN
 62
    18
420
        0
370
    18
100
AcDbText
 10
-801.036268488397
 20
156.811363390049
 30
0.0
 40
1.813499951959
  1
(c) MegaCAD
 50
90.0
 41
1.1360304105
  7
Arial
 72
     5
 11
-801.036268488397
 21
174.228218906041
 31
0.0
100
AcDbText
  0
INSERT
  5
225
330
1F
100
AcDbEntity
  8
0
100
AcDbBlockReference
  2
A4 MMT_nNn011
 10
0.0
 20
0.0
 30
0.0
  0
LINE
  5
226
330
1F
100
AcDbEntity
  8
Layer1
  6
AUSGEZOGEN
 62
    18
420
        0
370
    18
100
AcDbLine
 10
-585.781137861714
 20
68.901679689468
 30
0.0
 11
-585.781137861714
 21
70.212182664022
 31
0.0
  0
LINE
  5
227
330
1F
100
AcDbEntity
  8
Layer1
  6
AUSGEZOGEN
 62
    18
420
        0
370
    18
100
AcDbLine
 10
-587.089107448359
 20
70.212182664022
 30
0.0
 11
-587.089107448359
 21
68.901679689468
 31
0.0
  0
WIPEOUT
  5
228
330
1F
100
AcDbEntity
  8
Layer5
  6
AUSGEZOGEN
 62
     8
420
  8421504
370
    18
160
               152
310
98000000040000000C0000000E000000120000000C00000016000000000000C20C00000014000000010000006C0000000700000004000000905DD754857982C0F0FA02A47888504000000000000000005CD8C8A7534282C0F0FA02A47888504000000000000000005CD8C8A7534282C000533C58410F514000000000000000
310
00905DD754857982C000533C58410F51400000000000000000
100
AcDbWipeout
 90
        0
 10
-591.190103228133
 20
66.132363322173
 30
0.0
 11
6.899255860748326
 21
0.0
 31
0.0
 12
0.0
 22
6.899255860748326
 32
0.0
 13
1.0
 23
1.0
340
0
 70
     7
280
     1
281
    50
282
    50
283
     0
360
0
 71
     2
 91
        5
 14
-0.5
 24
0.5
 14
0.5
 24
0.5
 14
0.5
 24
0.194749688589
 14
-0.5
 24
0.194749688589
 14
-0.5
 24
0.5
290
     0
  0
TEXT
  5
229
330
1F
100
AcDbEntity
  8
Layer5
  6
AUSGEZOGEN
 62
     8
420
  8421504
370
    18
100
AcDbText
 10
-591.190103228133
 20
66.527238322173
 30
0.0
 40
1.31625
  1
MANNEL
 41
0.905128629633
  7
Verdana
 72
     5
 11
-584.290847367385
 21
66.527238322173
 31
0.0
100
AcDbText
  0
HATCH
  5
22A
330
1F
100
AcDbEntity
  8
Layer7
  6
AUSGEZOGEN
 62
   140
420
    49407
370
    18
100
AcDbHatch
 10
0.0
 20
0.0
 30
0.0
210
0.0
220
0.0
230
1.0
  2
SOLID
 70
     1
 71
     0
 91
        1
 92
        2
 72
     0
 73
     1
 93
       24
 10
-591.0085349198719
 20
80.74792968946798
 10
-591.0085349198719
 20
71.39650131711352
 10
-590.1635704143604
 20
71.39650131711352
 10
-589.6591529519428
 20
69.96005314606413
 10
-589.1273645486547
 20
71.39650131711352
 10
-588.3358854753953
 20
71.39650131711352
 10
-588.3358854753953
 20
68.90167968946793
 10
-587.7469167141576
 20
68.90167968946793
 10
-587.7469167141576
 20
71.39650131711352
 10
-586.9280667000278
 20
71.39650131711352
 10
-586.42364923761
 20
69.96005314606413
 10
-585.8918608343218
 20
71.39650131711352
 10
-585.1003817610627
 20
71.39650131711352
 10
-585.1003817610627
 20
68.90167968946793
 10
-583.9912847431472
 20
68.90167968946793
 10
-583.9912847431472
 20
70.73694739492765
 10
-584.794423963017
 20
70.73694739492765
 10
-584.794423963017
 20
71.39650131711352
 10
-582.5379852024304
 20
71.39650131711352
 10
-582.5379852024304
 20
70.73694739492765
 10
-583.3181775874468
 20
70.73694739492765
 10
-583.3181775874468
 20
68.90167968946793
 10
-579.162284919872
 20
68.90167968946793
 10
-579.162284919872
 20
80.74792968946798
 97
        0
 75
     0
 76
     1
 98
        0
  0
HATCH
  5
22B
330
1F
100
AcDbEntity
  8
Layer7
  6
AUSGEZOGEN
 62
   140
420
    49407
370
    18
100
AcDbHatch
 10
0.0
 20
0.0
 30
0.0
210
0.0
220
0.0
230
1.0
  2
SOLID
 70
     1
 71
     0
 91
        2
 92
        2
 72
     0
 73
     1
 93
        6
 10
-585.7811378617142
 20
70.21218266402173
 10
-586.1861900782919
 20
69.0719637520238
 10
-586.6898040422869
 20
69.0719637520238
 10
-587.0891074483594
 20
70.21218266402173
 10
-587.0891074483594
 20
68.90167968946793
 10
-585.7811378617142
 20
68.90167968946793
 97
        0
 92
        2
 72
     0
 73
     1
 93
        6
 10
-589.0166415760469
 20
68.90167968946793
 10
-589.0166415760469
 20
70.21218266402173
 10
-589.4216937926246
 20
69.0719637520238
 10
-589.9253077566195
 20
69.0719637520238
 10
-590.324611162692
 20
70.21218266402173
 10
-590.324611162692
 20
68.90167968946793
 97
        0
 75
     0
 76
     1
 98
        0
  0
WIPEOUT
  5
22C
330
1F
100
AcDbEntity
  8
Layer5
  6
AUSGEZOGEN
 62
   140
420
    49407
370
    18
160
               152
310
98000000040000000C0000000E000000120000000C00000016000000000000C20C00000014000000010000006C000000070000000400000086061ABD423D82C0A4DA71CD048B504000000000000000000AF205DE2AC981C0A4DA71CD048B504000000000000000000AF205DE2AC981C0B432AB81CD11514000000000000000
310
0086061ABD423D82C0B432AB81CD1151400000000000000000
100
AcDbWipeout
 90
        0
 10
-583.657587245297
 20
66.172168122469
 30
0.0
 11
14.51165595710279
 21
0.0
 31
0.0
 12
0.0
 22
14.51165595710279
 32
0.0
 13
1.0
 23
1.0
340
0
 70
     7
280
     1
281
    50
282
    50
283
     0
360
0
 71
     2
 91
        5
 14
-0.5
 24
0.5
 14
0.5
 24
0.5
 14
0.5
 24
0.354875280518
 14
-0.5
 24
0.354875280518
 14
-0.5
 24
0.5
290
     0
  0
TEXT
  5
22D
330
1F
100
AcDbEntity
  8
Layer5
  6
AUSGEZOGEN
 62
   140
420
    49407
370
    18
100
AcDbText
 10
-583.657587245297
 20
66.567043122469
 30
0.0
 40
1.31625
  1
MAGNETTECHNIK
 41
0.905172395523
  7
Verdana
 72
     5
 11
-569.145931288194
 21
66.567043122469
 31
0.0
100
AcDbText
  0
HATCH
  5
22E
330
1F
100
AcDbEntity
  8
Layer7
  6
AUSGEZOGEN
 62
     8
420
  8421504
370
    18
100
AcDbHatch
 10
0.0
 20
0.0
 30
0.0
210
0.0
220
0.0
230
1.0
  2
SOLID
 70
     1
 71
     0
 91
        5
 92
        2
 72
     0
 73
     1
 93
        4
 10
-590.324611162692
 20
68.243554689468
 10
-590.324611162692
 20
68.68230468946797
 10
-591.0085349198719
 20
68.68230468946797
 10
-591.0085349198719
 20
68.243554689468
 97
        0
 92
        2
 72
     0
 73
     1
 93
        4
 10
-588.3358854753953
 20
68.243554689468
 10
-588.3358854753953
 20
68.68230468946797
 10
-589.0166415760469
 20
68.68230468946797
 10
-589.0166415760469
 20
68.243554689468
 97
        0
 92
        2
 72
     0
 73
     1
 93
        4
 10
-587.7469167141576
 20
68.68230468946797
 10
-587.7469167141576
 20
68.243554689468
 10
-587.0891074483594
 20
68.243554689468
 10
-587.0891074483594
 20
68.68230468946797
 97
        0
 92
        2
 72
     0
 73
     1
 93
        4
 10
-585.7811378617142
 20
68.68230468946797
 10
-585.7811378617142
 20
68.243554689468
 10
-585.1003817610627
 20
68.243554689468
 10
-585.1003817610627
 20
68.68230468946797
 97
        0
 92
        2
 72
     0
 73
     1
 93
        4
 10
-583.9912847431472
 20
68.68230468946797
 10
-583.9912847431472
 20
68.243554689468
 10
-583.3181775874468
 20
68.243554689468
 10
-583.3181775874468
 20
68.68230468946797
 97
        0
 75
     0
 76
     1
 98
        0
  0
LINE
  5
22F
330
1F
100
AcDbEntity
  8
Layer1
  6
AUSGEZOGEN
 62
    18
420
        0
370
    18
100
AcDbLine
 10
-598.454088642217
 20
312.018333961806
 30
0.0
 11
-598.454088642217
 21
306.980833961806
 31
0.0
  0
LINE
  5
230
330
1F
100
AcDbEntity
  8
Layer65000
  6
AUSGEZOGEN
 62
    18
420
        0
370
    18
100
AcDbLine
 10
-447.704088642217
 20
312.018333961806
 30
0.0
 11
-447.704088642217
 21
306.980833961806
 31
0.0
  0
LINE
  5
231
330
1F
100
AcDbEntity
  8
Layer65000
  6
AUSGEZOGEN
 62
    18
420
        0
370
    18
100
AcDbLine
 10
-548.454088642217
 20
312.018333961806
 30
0.0
 11
-548.454088642217
 21
306.980833961806
 31
0.0
  0
TEXT
  5
232
330
1F
100
AcDbEntity
  8
Layer65000
  6
AUSGEZOGEN
 62
    18
420
        0
370
    18
100
AcDbText
 10
-570.159165073813
 20
307.736458961806
 30
0.0
 40
3.52625
  1
5
 41
1.136598070872
  7
Arial
 72
     5
 11
-567.049012210621
 21
307.736458961806
 31
0.0
100
AcDbText
  0
TEXT
  5
233
330
1F
100
AcDbEntity
  8
Layer65000
  6
AUSGEZOGEN
 62
    18
420
        0
370
    18
100
AcDbText
 10
-524.821665073813
 20
307.736458961806
 30
0.0
 40
3.52625
  1
6
 41
1.136598070872
  7
Arial
 72
     5
 11
-521.711512210621
 21
307.736458961806
 31
0.0
100
AcDbText
  0
TEXT
  5
234
330
1F
100
AcDbEntity
  8
Layer65000
  6
AUSGEZOGEN
 62
    18
420
        0
370
    18
100
AcDbText
 10
-474.446665073813
 20
307.736458961806
 30
0.0
 40
3.52625
  1
7
 41
1.136598070872
  7
Arial
 72
     5
 11
-471.336512210621
 21
307.736458961806
 31
0.0
100
AcDbText
  0
TEXT
  5
235
330
1F
100
AcDbEntity
  8
Layer65000
  6
AUSGEZOGEN
 62
    18
420
        0
370
    18
100
AcDbText
 10
-429.109165073813
 20
307.736458961806
 30
0.0
 40
3.52625
  1
8
 41
1.136598070872
  7
Arial
 72
     5
 11
-425.999012210621
 21
307.736458961806
 31
0.0
100
AcDbText
  0
LINE
  5
236
330
1F
100
AcDbEntity
  8
Layer65000
  6
AUSGEZOGEN
 62
    18
420
        0
370
   100
100
AcDbLine
 10
-598.454088642217
 20
312.018333961806
 30
0.0
 11
-598.454088642217
 21
296.905833961806
 31
0.0
  0
LINE
  5
237
330
1F
100
AcDbEntity
  8
Layer1
  6
AUSGEZOGEN
 62
    18
420
        0
370
    18
100
AcDbLine
 10
-498.079088642217
 20
312.018333961806
 30
0.0
 11
-498.079088642217
 21
306.980833961806
 31
0.0
  0
LINE
  5
238
330
1F
100
AcDbEntity
  8
Layer1
  6
AUSGEZOGEN
 62
    18
420
        0
370
    18
100
AcDbLine
 10
-699.129088642217
 20
312.018333961806
 30
0.0
 11
-699.129088642217
 21
306.980833961806
 31
0.0
  0
TEXT
  5
239
330
1F
100
AcDbEntity
  8
Layer3
  6
AUSGEZOGEN
 62
    18
420
        0
370
    18
100
AcDbText
 10
-433.403770398479
 20
34.449864760358
 30
0.0
 40
4.25
  1
24V
 41
0.833678074126
  7
Arial
 72
     5
 11
-424.606174101742
 21
34.449864760358
 31
0.0
100
AcDbText
  0
TEXT
  5
23A
330
1F
100
AcDbEntity
  8
Layer3
  6
AUSGEZOGEN
 62
    18
420
        0
370
    18
100
AcDbText
 10
-456.914812642877
 20
34.449864760358
 30
0.0
 40
4.25
  1
4240035
 41
0.864083452227
  7
Arial
 72
     5
 11
-436.966582064772
 21
34.449864760358
 31
0.0
100
AcDbText
  0
TEXT
  5
23B
330
1F
100
AcDbEntity
  8
Layer3
  6
AUSGEZOGEN
 62
    18
420
        0
370
    18
100
AcDbText
 10
-471.39725495889
 20
34.449864760358
 30
0.0
 40
4.25
  1
12V
 41
0.724615229924
  7
Arial
 72
     5
 11
-463.750571591311
 21
34.449864760358
 31
0.0
100
AcDbText
  0
TEXT
  5
23C
330
1F
100
AcDbEntity
  8
Layer3
  6
AUSGEZOGEN
 62
    18
420
        0
370
    18
100
AcDbText
 10
-494.804978557274
 20
34.449864760358
 30
0.0
 40
4.25
  1
4230035
 41
0.864083452227
  7
Arial
 72
     5
 11
-474.856747979168
 21
34.449864760358
 31
0.0
100
AcDbText
  0
LINE
  5
23D
330
1F
100
AcDbEntity
  8
Layer2
  6
AUSGEZOGEN
 62
    18
420
        0
370
    18
100
AcDbLine
 10
-434.729080739194
 20
40.076850312661
 30
0.0
 11
-434.729080739194
 21
33.147512369808
 31
0.0
  0
LINE
  5
23E
330
1F
100
AcDbEntity
  8
Layer2
  6
AUSGEZOGEN
 62
    18
420
        0
370
    18
100
AcDbLine
 10
-472.654263632233
 20
40.076850312661
 30
0.0
 11
-472.654263632233
 21
33.147512369808
 31
0.0
  0
LINE
  5
23F
330
1F
100
AcDbEntity
  8
Layer2
  6
AUSGEZOGEN
 62
    18
420
        0
370
    18
100
AcDbLine
 10
-460.188615971009
 20
44.797083961806
 30
0.0
 11
-460.188615971009
 21
32.047083961806
 31
0.0
  0
ENDSEC
  0
SECTION
  2
OBJECTS
  0
DICTIONARY
  5
C
330
0
100
AcDbDictionary
281
     1
  3
ACAD_DETAILVIEWSTYLE
350
278
  3
ACAD_GROUP
350
D
  3
ACAD_LAYOUT
350
1A
  3
ACAD_MATERIAL
350
43
  3
ACAD_MLEADERSTYLE
350
6B
  3
ACAD_MLINESTYLE
350
17
  3
ACAD_PLOTSETTINGS
350
19
  3
ACAD_PLOTSTYLENAME
350
E
  3
ACAD_SCALELIST
350
47
  3
ACAD_SECTIONVIEWSTYLE
350
279
  3
ACAD_TABLESTYLE
350
69
  3
ACAD_VISUALSTYLE
350
2A
  3
ACAD_WIPEOUT_VARS
350
275
  3
ACDB_RECOMPOSE_DATA
350
274
  3
AcDbVariableDictionary
350
240
  0
SUN
  5
6D
330
29
100
AcDbSun
 90
        1
290
     0
 63
     7
421
 16777215
 40
1.0
291
     1
 91
  2455826
 92
 54000000
292
     0
 70
     2
 71
   256
280
     1
  0
DICTIONARY
  5
278
102
{ACAD_REACTORS
330
C
102
}
330
C
100
AcDbDictionary
281
     1
  0
DICTIONARY
  5
D
102
{ACAD_REACTORS
330
C
102
}
330
C
100
AcDbDictionary
281
     1
  0
DICTIONARY
  5
1A
102
{ACAD_REACTORS
330
C
102
}
330
C
100
AcDbDictionary
281
     1
  3
Layout1
350
1E
  3
Layout2
350
26
  3
Model
350
22
  0
DICTIONARY
  5
43
102
{ACAD_REACTORS
330
C
102
}
330
C
100
AcDbDictionary
281
     1
  3
ByBlock
350
45
  3
ByLayer
350
44
  3
Global
350
46
  0
DICTIONARY
  5
6B
102
{ACAD_REACTORS
330
C
102
}
330
C
100
AcDbDictionary
281
     1
  3
Standard
350
6C
  0
DICTIONARY
  5
17
102
{ACAD_REACTORS
330
C
102
}
330
C
100
AcDbDictionary
281
     1
  3
Standard
350
18
  0
DICTIONARY
  5
19
102
{ACAD_REACTORS
330
C
102
}
330
C
100
AcDbDictionary
281
     1
  0
ACDBDICTIONARYWDFLT
  5
E
102
{ACAD_REACTORS
330
C
102
}
330
C
100
AcDbDictionary
281
     1
  3
Normal
350
F
100
AcDbDictionaryWithDefault
340
F
  0
DICTIONARY
  5
47
102
{ACAD_REACTORS
330
C
102
}
330
C
100
AcDbDictionary
281
     1
  3
A0
350
48
  3
A1
350
49
  3
A2
350
4A
  3
A3
350
4B
  3
A4
350
4C
  3
A5
350
4D
  3
A6
350
4E
  3
A7
350
4F
  3
A8
350
50
  3
A9
350
51
  3
B0
350
52
  3
B1
350
53
  3
B2
350
54
  3
B3
350
55
  3
B4
350
56
  3
B5
350
57
  3
B6
350
58
  3
B7
350
59
  3
B8
350
5A
  3
B9
350
5B
  3
C0
350
5C
  3
C1
350
5D
  3
C2
350
5E
  3
C3
350
5F
  3
C4
350
60
  3
C5
350
61
  3
C6
350
62
  3
C7
350
63
  3
C8
350
64
  3
C9
350
65
  3
D0
350
66
  3
D1
350
67
  3
D2
350
68
  0
DICTIONARY
  5
279
102
{ACAD_REACTORS
330
C
102
}
330
C
100
AcDbDictionary
281
     1
  0
DICTIONARY
  5
69
102
{ACAD_REACTORS
330
C
102
}
330
C
100
AcDbDictionary
281
     1
  3
Standard
350
6A
  0
DICTIONARY
  5
2A
102
{ACAD_REACTORS
330
C
102
}
330
C
100
AcDbDictionary
281
     1
  3
2dWireframe
350
2F
  3
Basic
350
32
  3
Brighten
350
36
  3
ColorChange
350
3A
  3
Conceptual
350
34
  3
Dim
350
35
  3
EdgeColorOff
350
3D
  3
Facepattern
350
39
  3
Flat
350
2B
  3
FlatWithEdges
350
2C
  3
Gouraud
350
2D
  3
GouraudWithEdges
350
2E
  3
Hidden
350
31
  3
JitterOff
350
3B
  3
Linepattern
350
38
  3
OverhangOff
350
3C
  3
Realistic
350
33
  3
Shaded
350
42
  3
Shaded with edges
350
41
  3
Shades of Gray
350
3E
  3
Sketchy
350
3F
  3
Thicken
350
37
  3
Wireframe
350
30
  3
X-Ray
350
40
  0
WIPEOUTVARIABLES
  5
275
102
{ACAD_REACTORS
330
C
102
}
330
C
100
AcDbWipeoutVariables
 70
     0
  0
XRECORD
  5
274
102
{ACAD_REACTORS
330
C
102
}
330
C
100
AcDbXrecord
280
     1
 90
        1
330
6A
  0
DICTIONARY
  5
240
102
{ACAD_REACTORS
330
C
102
}
330
C
100
AcDbDictionary
281
     1
  3
CANNOSCALE
350
241
  3
CMLEADERSTYLE
350
277
  3
CTABLESTYLE
350
276
  3
SECTIONTHICKNESSINC
350
27B
  3
WIPEOUTFRAME
350
27A
  0
LAYOUT
  5
1E
102
{ACAD_REACTORS
330
1A
102
}
330
1A
100
AcDbPlotSettings
  1

  2
none_device
  4

  6

 40
0.0
 41
0.0
 42
0.0
 43
0.0
 44
0.0
 45
0.0
 46
0.0
 47
0.0
 48
0.0
 49
0.0
140
0.0
141
0.0
142
1.0
143
1.0
 70
   688
 72
     1
 73
     0
 74
     5
  7

 75
    16
 76
     0
 77
     2
 78
   300
147
1.0
148
0.0
149
0.0
100
AcDbLayout
  1
Layout1
 70
     1
 71
     1
 10
0.0
 20
0.0
 11
420.0
 21
297.0
 12
0.0
 22
0.0
 32
0.0
 14
1.000000000000E+20
 24
1.000000000000E+20
 34
1.000000000000E+20
 15
-1.000000000000E+20
 25
-1.000000000000E+20
 35
-1.000000000000E+20
146
0.0
 13
0.0
 23
0.0
 33
0.0
 16
1.0
 26
0.0
 36
0.0
 17
0.0
 27
1.0
 37
0.0
 76
     0
330
1B
  0
LAYOUT
  5
26
102
{ACAD_REACTORS
330
1A
102
}
330
1A
100
AcDbPlotSettings
  1

  2
none_device
  4

  6

 40
0.0
 41
0.0
 42
0.0
 43
0.0
 44
0.0
 45
0.0
 46
0.0
 47
0.0
 48
0.0
 49
0.0
140
0.0
141
0.0
142
1.0
143
1.0
 70
   688
 72
     1
 73
     0
 74
     5
  7

 75
    16
 76
     0
 77
     2
 78
   300
147
1.0
148
0.0
149
0.0
100
AcDbLayout
  1
Layout2
 70
     1
 71
     2
 10
0.0
 20
0.0
 11
0.0
 21
0.0
 12
0.0
 22
0.0
 32
0.0
 14
0.0
 24
0.0
 34
0.0
 15
0.0
 25
0.0
 35
0.0
146
0.0
 13
0.0
 23
0.0
 33
0.0
 16
1.0
 26
0.0
 36
0.0
 17
0.0
 27
1.0
 37
0.0
 76
     0
330
23
  0
LAYOUT
  5
22
102
{ACAD_REACTORS
330
1A
102
}
330
1A
100
AcDbPlotSettings
  1

  2
none_device
  4
Letter_(8.50_x_11.00_Inches)
  6

 40
6.35
 41
6.35
 42
6.35000508
 43
6.35000508
 44
215.9
 45
279.4
 46
0.0
 47
0.0
 48
0.0
 49
0.0
140
0.0
141
0.0
142
1.0
143
1.0
 70
  1712
 72
     1
 73
     0
 74
     0
  7

 75
     0
 76
     0
 77
     2
 78
   300
147
1.0
148
0.0
149
0.0
100
AcDbLayout
  1
Model
 70
     1
 71
     0
 10
0.0
 20
0.0
 11
420.0
 21
297.0
 12
0.0
 22
0.0
 32
0.0
 14
-998.942908200628
 24
2.866958961806
 34
0.0
 15
-216.427064839408
 25
332.017208961806
 35
0.0
146
0.0
 13
0.0
 23
0.0
 33
0.0
 16
1.0
 26
0.0
 36
0.0
 17
0.0
 27
1.0
 37
0.0
 76
     0
330
1F
331
29
  0
MATERIAL
  5
45
102
{ACAD_REACTORS
330
43
102
}
330
43
100
AcDbMaterial
  1
ByBlock
 72
     1
 94
      127
  0
MATERIAL
  5
44
102
{ACAD_REACTORS
330
43
102
}
330
43
100
AcDbMaterial
  1
ByLayer
 72
     1
 94
      127
  0
MATERIAL
  5
46
102
{ACAD_REACTORS
330
43
102
}
330
43
100
AcDbMaterial
  1
Global
 72
     1
 94
      127
  0
MLEADERSTYLE
  5
6C
102
{ACAD_REACTORS
330
6B
102
}
330
6B
100
AcDbMLeaderStyle
179
     2
170
     2
171
     1
172
     0
 90
        2
 40
0.0
 41
0.0
173
     1
 91
-1056964608
340
14
 92
       -2
290
     1
 42
2.0
291
     1
 43
8.0
  3
Standard
341
0
 44
4.0
300

342
11
174
     1
178
     6
175
     1
176
     0
 93
-1056964608
 45
4.0
292
     0
297
     0
 46
4.0
343
0
 94
-1056964608
 47
1.0
 49
1.0
140
1.0
293
     1
141
0.0
294
     1
177
     0
142
1.0
295
     0
296
     0
143
3.75
271
     0
272
     9
273
     9
  0
MLINESTYLE
  5
18
102
{ACAD_REACTORS
330
17
102
}
330
17
100
AcDbMlineStyle
  2
Standard
 70
     0
  3

 62
   256
 51
90.0
 52
90.0
 71
     2
 49
0.5
 62
   256
  6
BYLAYER
 49
-0.5
 62
   256
  6
BYLAYER
  0
ACDBPLACEHOLDER
  5
F
102
{ACAD_REACTORS
330
E
102
}
330
E
  0
SCALE
  5
48
102
{ACAD_REACTORS
330
47
102
}
330
47
100
AcDbScale
 70
     0
300
1:1
140
1.0
141
1.0
290
     1
  0
SCALE
  5
49
102
{ACAD_REACTORS
330
47
102
}
330
47
100
AcDbScale
 70
     0
300
1:2
140
1.0
141
2.0
290
     0
  0
SCALE
  5
4A
102
{ACAD_REACTORS
330
47
102
}
330
47
100
AcDbScale
 70
     0
300
1:4
140
1.0
141
4.0
290
     0
  0
SCALE
  5
4B
102
{ACAD_REACTORS
330
47
102
}
330
47
100
AcDbScale
 70
     0
300
1:5
140
1.0
141
5.0
290
     0
  0
SCALE
  5
4C
102
{ACAD_REACTORS
330
47
102
}
330
47
100
AcDbScale
 70
     0
300
1:8
140
1.0
141
8.0
290
     0
  0
SCALE
  5
4D
102
{ACAD_REACTORS
330
47
102
}
330
47
100
AcDbScale
 70
     0
300
1:10
140
1.0
141
10.0
290
     0
  0
SCALE
  5
4E
102
{ACAD_REACTORS
330
47
102
}
330
47
100
AcDbScale
 70
     0
300
1:16
140
1.0
141
16.0
290
     0
  0
SCALE
  5
4F
102
{ACAD_REACTORS
330
47
102
}
330
47
100
AcDbScale
 70
     0
300
1:20
140
1.0
141
20.0
290
     0
  0
SCALE
  5
50
102
{ACAD_REACTORS
330
47
102
}
330
47
100
AcDbScale
 70
     0
300
1:30
140
1.0
141
30.0
290
     0
  0
SCALE
  5
51
102
{ACAD_REACTORS
330
47
102
}
330
47
100
AcDbScale
 70
     0
300
1:40
140
1.0
141
40.0
290
     0
  0
SCALE
  5
52
102
{ACAD_REACTORS
330
47
102
}
330
47
100
AcDbScale
 70
     0
300
1:50
140
1.0
141
50.0
290
     0
  0
SCALE
  5
53
102
{ACAD_REACTORS
330
47
102
}
330
47
100
AcDbScale
 70
     0
300
1:100
140
1.0
141
100.0
290
     0
  0
SCALE
  5
54
102
{ACAD_REACTORS
330
47
102
}
330
47
100
AcDbScale
 70
     0
300
2:1
140
2.0
141
1.0
290
     0
  0
SCALE
  5
55
102
{ACAD_REACTORS
330
47
102
}
330
47
100
AcDbScale
 70
     0
300
4:1
140
4.0
141
1.0
290
     0
  0
SCALE
  5
56
102
{ACAD_REACTORS
330
47
102
}
330
47
100
AcDbScale
 70
     0
300
8:1
140
8.0
141
1.0
290
     0
  0
SCALE
  5
57
102
{ACAD_REACTORS
330
47
102
}
330
47
100
AcDbScale
 70
     0
300
10:1
140
10.0
141
1.0
290
     0
  0
SCALE
  5
58
102
{ACAD_REACTORS
330
47
102
}
330
47
100
AcDbScale
 70
     0
300
100:1
140
100.0
141
1.0
290
     0
  0
SCALE
  5
59
102
{ACAD_REACTORS
330
47
102
}
330
47
100
AcDbScale
 70
     0
300
1/128" = 1'-0"
140
0.0078125
141
12.0
290
     0
  0
SCALE
  5
5A
102
{ACAD_REACTORS
330
47
102
}
330
47
100
AcDbScale
 70
     0
300
1/64" = 1'-0"
140
0.015625
141
12.0
290
     0
  0
SCALE
  5
5B
102
{ACAD_REACTORS
330
47
102
}
330
47
100
AcDbScale
 70
     0
300
1/32" = 1'-0"
140
0.03125
141
12.0
290
     0
  0
SCALE
  5
5C
102
{ACAD_REACTORS
330
47
102
}
330
47
100
AcDbScale
 70
     0
300
1/16" = 1'-0"
140
0.0625
141
12.0
290
     0
  0
SCALE
  5
5D
102
{ACAD_REACTORS
330
47
102
}
330
47
100
AcDbScale
 70
     0
300
3/32" = 1'-0"
140
0.09375
141
12.0
290
     0
  0
SCALE
  5
5E
102
{ACAD_REACTORS
330
47
102
}
330
47
100
AcDbScale
 70
     0
300
1/8" = 1'-0"
140
0.125
141
12.0
290
     0
  0
SCALE
  5
5F
102
{ACAD_REACTORS
330
47
102
}
330
47
100
AcDbScale
 70
     0
300
3/16" = 1'-0"
140
0.1875
141
12.0
290
     0
  0
SCALE
  5
60
102
{ACAD_REACTORS
330
47
102
}
330
47
100
AcDbScale
 70
     0
300
1/4" = 1'-0"
140
0.25
141
12.0
290
     0
  0
SCALE
  5
61
102
{ACAD_REACTORS
330
47
102
}
330
47
100
AcDbScale
 70
     0
300
3/8" = 1'-0"
140
0.375
141
12.0
290
     0
  0
SCALE
  5
62
102
{ACAD_REACTORS
330
47
102
}
330
47
100
AcDbScale
 70
     0
300
1/2" = 1'-0"
140
0.5
141
12.0
290
     0
  0
SCALE
  5
63
102
{ACAD_REACTORS
330
47
102
}
330
47
100
AcDbScale
 70
     0
300
3/4" = 1'-0"
140
0.75
141
12.0
290
     0
  0
SCALE
  5
64
102
{ACAD_REACTORS
330
47
102
}
330
47
100
AcDbScale
 70
     0
300
1" = 1'-0"
140
1.0
141
12.0
290
     0
  0
SCALE
  5
65
102
{ACAD_REACTORS
330
47
102
}
330
47
100
AcDbScale
 70
     0
300
1-1/2" = 1'-0"
140
1.5
141
12.0
290
     0
  0
SCALE
  5
66
102
{ACAD_REACTORS
330
47
102
}
330
47
100
AcDbScale
 70
     0
300
3" = 1'-0"
140
3.0
141
12.0
290
     0
  0
SCALE
  5
67
102
{ACAD_REACTORS
330
47
102
}
330
47
100
AcDbScale
 70
     0
300
6" = 1'-0"
140
6.0
141
12.0
290
     0
  0
SCALE
  5
68
102
{ACAD_REACTORS
330
47
102
}
330
47
100
AcDbScale
 70
     0
300
1'-0" = 1'-0"
140
12.0
141
12.0
290
     0
  0
TABLESTYLE
  5
6A
102
{ACAD_REACTORS
330
69
102
}
102
{ACAD_XDICTIONARY
360
272
102
}
330
69
100
AcDbTableStyle
  3
Standard
 70
     0
 71
     0
 40
0.06
 41
0.06
280
     0
281
     0
  7
Standard
140
4.5
170
     2
 62
     0
 63
   257
283
     0
 90
        4
 91
        0
  1

274
    -2
284
     1
 64
     0
275
    -2
285
     1
 65
     0
276
    -2
286
     1
 66
     0
277
    -2
287
     1
 67
     0
278
    -2
288
     1
 68
     0
279
    -2
289
     1
 69
     0
  7
Standard
140
6.0
170
     5
 62
     0
 63
   257
283
     0
 90
        4
 91
        0
  1

274
    -2
284
     1
 64
     0
275
    -2
285
     1
 65
     0
276
    -2
286
     1
 66
     0
277
    -2
287
     1
 67
     0
278
    -2
288
     1
 68
     0
279
    -2
289
     1
 69
     0
  7
Standard
140
4.5
170
     5
 62
     0
 63
   257
283
     0
 90
        4
 91
        0
  1

274
    -2
284
     1
 64
     0
275
    -2
285
     1
 65
     0
276
    -2
286
     1
 66
     0
277
    -2
287
     1
 67
     0
278
    -2
288
     1
 68
     0
279
    -2
289
     1
 69
     0
  0
VISUALSTYLE
  5
2F
102
{ACAD_REACTORS
330
2A
102
}
102
{ACAD_XDICTIONARY
360
24A
102
}
330
2A
100
AcDbVisualStyle
  2
2dWireframe
 70
     4
177
     2
291
     0
 71
     0
176
     1
 72
     2
176
     1
 73
     0
176
     1
 90
        0
176
     1
 40
0.6
176
     1
 41
30.0
176
     1
 62
     5
 63
     7
421
 16777215
176
     1
 74
     1
176
     1
 91
        4
176
     1
 64
     7
176
     1
 65
   257
176
     1
 75
     1
176
     1
175
     1
176
     1
 42
1.0
176
     1
 92
        0
176
     1
 66
   257
176
     1
 43
1.0
176
     1
 76
     1
176
     1
 77
     6
176
     1
 78
     2
176
     1
 67
     7
176
     1
 79
     5
176
     1
170
     0
176
     1
171
     0
176
     1
290
     0
176
     1
 93
        1
176
     1
 44
0.0
176
     1
173
     0
176
     1
  0
VISUALSTYLE
  5
32
102
{ACAD_REACTORS
330
2A
102
}
102
{ACAD_XDICTIONARY
360
250
102
}
330
2A
100
AcDbVisualStyle
  2
Basic
 70
     7
177
     2
291
     1
 71
     1
176
     1
 72
     0
176
     1
 73
     1
176
     1
 90
        0
176
     1
 40
0.6
176
     1
 41
30.0
176
     1
 62
     5
 63
     7
421
 16777215
176
     1
 74
     0
176
     1
 91
        4
176
     1
 64
     7
176
     1
 65
   257
176
     1
 75
     1
176
     1
175
     1
176
     1
 42
1.0
176
     1
 92
        8
176
     1
 66
     7
176
     1
 43
1.0
176
     1
 76
     1
176
     1
 77
     6
176
     1
 78
     2
176
     1
 67
     7
176
     1
 79
     5
176
     1
170
     0
176
     1
171
     0
176
     1
290
     0
176
     1
 93
        1
176
     1
 44
0.0
176
     1
173
     0
176
     1
  0
VISUALSTYLE
  5
36
102
{ACAD_REACTORS
330
2A
102
}
102
{ACAD_XDICTIONARY
360
258
102
}
330
2A
100
AcDbVisualStyle
  2
Brighten
 70
    12
177
     2
291
     1
 71
     2
176
     1
 72
     2
176
     1
 73
     0
176
     1
 90
        0
176
     1
 40
0.6
176
     1
 41
30.0
176
     1
 62
     5
 63
     7
421
 16777215
176
     1
 74
     1
176
     1
 91
        4
176
     1
 64
     7
176
     1
 65
   257
176
     1
 75
     1
176
     1
175
     1
176
     1
 42
1.0
176
     1
 92
        8
176
     1
 66
     7
176
     1
 43
1.0
176
     1
 76
     1
176
     1
 77
     6
176
     1
 78
     2
176
     1
 67
     7
176
     1
 79
     5
176
     1
170
     0
176
     1
171
     0
176
     1
290
     0
176
     1
 93
        1
176
     1
 44
50.0
176
     1
173
     0
176
     1
  0
VISUALSTYLE
  5
3A
102
{ACAD_REACTORS
330
2A
102
}
102
{ACAD_XDICTIONARY
360
260
102
}
330
2A
100
AcDbVisualStyle
  2
ColorChange
 70
    16
177
     2
291
     1
 71
     2
176
     1
 72
     2
176
     1
 73
     3
176
     1
 90
        0
176
     1
 40
0.6
176
     1
 41
30.0
176
     1
 62
     5
 63
     8
421
  8421504
176
     1
 74
     1
176
     1
 91
        4
176
     1
 64
     7
176
     1
 65
   257
176
     1
 75
     1
176
     1
175
     1
176
     1
 42
1.0
176
     1
 92
        8
176
     1
 66
     8
424
  8421504
176
     1
 43
1.0
176
     1
 76
     1
176
     1
 77
     6
176
     1
 78
     2
176
     1
 67
     7
176
     1
 79
     5
176
     1
170
     0
176
     1
171
     0
176
     1
290
     0
176
     1
 93
        1
176
     1
 44
0.0
176
     1
173
     0
176
     1
  0
VISUALSTYLE
  5
34
102
{ACAD_REACTORS
330
2A
102
}
102
{ACAD_XDICTIONARY
360
254
102
}
330
2A
100
AcDbVisualStyle
  2
Conceptual
 70
     9
177
     2
291
     0
 71
     3
176
     1
 72
     2
176
     1
 73
     0
176
     1
 90
        0
176
     1
 40
0.6
176
     1
 41
30.0
176
     1
 62
     5
 63
     7
421
 16777215
176
     1
 74
     2
176
     1
 91
        2
176
     1
 64
     7
176
     1
 65
   257
176
     1
 75
     1
176
     1
175
     1
176
     1
 42
179.0
176
     1
 92
        8
176
     1
 66
     7
176
     1
 43
1.0
176
     1
 76
     1
176
     1
 77
     6
176
     1
 78
     2
176
     1
 67
     7
176
     1
 79
     3
176
     1
170
     0
176
     1
171
     0
176
     1
290
     0
176
     1
 93
        1
176
     1
 44
0.0
176
     1
173
     0
176
     1
  0
VISUALSTYLE
  5
35
102
{ACAD_REACTORS
330
2A
102
}
102
{ACAD_XDICTIONARY
360
256
102
}
330
2A
100
AcDbVisualStyle
  2
Dim
 70
    11
177
     2
291
     1
 71
     2
176
     1
 72
     2
176
     1
 73
     0
176
     1
 90
        0
176
     1
 40
0.6
176
     1
 41
30.0
176
     1
 62
     5
 63
     7
421
 16777215
176
     1
 74
     1
176
     1
 91
        4
176
     1
 64
     7
176
     1
 65
   257
176
     1
 75
     1
176
     1
175
     1
176
     1
 42
1.0
176
     1
 92
        8
176
     1
 66
     7
176
     1
 43
1.0
176
     1
 76
     1
176
     1
 77
     6
176
     1
 78
     2
176
     1
 67
     7
176
     1
 79
     5
176
     1
170
     0
176
     1
171
     0
176
     1
290
     0
176
     1
 93
        1
176
     1
 44
-50.0
176
     1
173
     0
176
     1
  0
VISUALSTYLE
  5
3D
102
{ACAD_REACTORS
330
2A
102
}
102
{ACAD_XDICTIONARY
360
266
102
}
330
2A
100
AcDbVisualStyle
  2
EdgeColorOff
 70
    22
177
     2
291
     1
 71
     2
176
     0
 72
     2
176
     0
 73
     0
176
     0
 90
        0
176
     0
 40
0.6
176
     0
 41
30.0
176
     0
 62
     5
 63
     7
421
 16777215
176
     0
 74
     1
176
     0
 91
        4
176
     0
 64
     7
176
     0
 65
   257
176
     0
 75
     1
176
     0
175
     1
176
     0
 42
1.0
176
     0
 92
        8
176
     2
 66
     7
176
     0
 43
1.0
176
     0
 76
     1
176
     0
 77
     6
176
     0
 78
     2
176
     0
 67
     7
176
     0
 79
     5
176
     0
170
     0
176
     0
171
     0
176
     0
290
     0
176
     0
 93
        1
176
     0
 44
0.0
176
     0
173
     0
176
     0
  0
VISUALSTYLE
  5
39
102
{ACAD_REACTORS
330
2A
102
}
102
{ACAD_XDICTIONARY
360
25E
102
}
330
2A
100
AcDbVisualStyle
  2
Facepattern
 70
    15
177
     2
291
     1
 71
     2
176
     1
 72
     2
176
     1
 73
     0
176
     1
 90
        0
176
     1
 40
0.6
176
     1
 41
30.0
176
     1
 62
     5
 63
     7
421
 16777215
176
     1
 74
     1
176
     1
 91
        4
176
     1
 64
     7
176
     1
 65
   257
176
     1
 75
     1
176
     1
175
     1
176
     1
 42
1.0
176
     1
 92
        8
176
     1
 66
     7
176
     1
 43
1.0
176
     1
 76
     1
176
     1
 77
     6
176
     1
 78
     2
176
     1
 67
     7
176
     1
 79
     5
176
     1
170
     0
176
     1
171
     0
176
     1
290
     0
176
     1
 93
        1
176
     1
 44
0.0
176
     1
173
     0
176
     1
  0
VISUALSTYLE
  5
2B
102
{ACAD_REACTORS
330
2A
102
}
102
{ACAD_XDICTIONARY
360
242
102
}
330
2A
100
AcDbVisualStyle
  2
Flat
 70
     0
177
     2
291
     1
 71
     2
176
     1
 72
     1
176
     1
 73
     1
176
     1
 90
        2
176
     1
 40
0.6
176
     1
 41
30.0
176
     1
 62
     5
 63
     7
421
 16777215
176
     1
 74
     0
176
     1
 91
        0
176
     1
 64
     7
176
     1
 65
   257
176
     1
 75
     1
176
     1
175
     1
176
     1
 42
1.0
176
     1
 92
        8
176
     1
 66
     7
176
     1
 43
1.0
176
     1
 76
     1
176
     1
 77
     6
176
     1
 78
     2
176
     1
 67
     7
176
     1
 79
     5
176
     1
170
     0
176
     1
171
     0
176
     1
290
     0
176
     1
 93
       13
176
     1
 44
0.0
176
     1
173
     0
176
     1
  0
VISUALSTYLE
  5
2C
102
{ACAD_REACTORS
330
2A
102
}
102
{ACAD_XDICTIONARY
360
244
102
}
330
2A
100
AcDbVisualStyle
  2
FlatWithEdges
 70
     1
177
     2
291
     1
 71
     2
176
     1
 72
     1
176
     1
 73
     1
176
     1
 90
        2
176
     1
 40
0.6
176
     1
 41
30.0
176
     1
 62
     5
 63
     7
421
 16777215
176
     1
 74
     1
176
     1
 91
        0
176
     1
 64
     7
176
     1
 65
   257
176
     1
 75
     1
176
     1
175
     1
176
     1
 42
1.0
176
     1
 92
        0
176
     1
 66
   257
176
     1
 43
1.0
176
     1
 76
     1
176
     1
 77
     6
176
     1
 78
     2
176
     1
 67
     7
176
     1
 79
     5
176
     1
170
     0
176
     1
171
     0
176
     1
290
     0
176
     1
 93
       13
176
     1
 44
0.0
176
     1
173
     0
176
     1
  0
VISUALSTYLE
  5
2D
102
{ACAD_REACTORS
330
2A
102
}
102
{ACAD_XDICTIONARY
360
246
102
}
330
2A
100
AcDbVisualStyle
  2
Gouraud
 70
     2
177
     2
291
     1
 71
     2
176
     1
 72
     2
176
     1
 73
     1
176
     1
 90
        2
176
     1
 40
0.6
176
     1
 41
30.0
176
     1
 62
     5
 63
     7
421
 16777215
176
     1
 74
     0
176
     1
 91
        0
176
     1
 64
     7
176
     1
 65
   257
176
     1
 75
     1
176
     1
175
     1
176
     1
 42
1.0
176
     1
 92
        0
176
     1
 66
     7
176
     1
 43
1.0
176
     1
 76
     1
176
     1
 77
     6
176
     1
 78
     2
176
     1
 67
     7
176
     1
 79
     5
176
     1
170
     0
176
     1
171
     0
176
     1
290
     0
176
     1
 93
       13
176
     1
 44
0.0
176
     1
173
     0
176
     1
  0
VISUALSTYLE
  5
2E
102
{ACAD_REACTORS
330
2A
102
}
102
{ACAD_XDICTIONARY
360
248
102
}
330
2A
100
AcDbVisualStyle
  2
GouraudWithEdges
 70
     3
177
     2
291
     1
 71
     2
176
     1
 72
     2
176
     1
 73
     1
176
     1
 90
        2
176
     1
 40
0.6
176
     1
 41
30.0
176
     1
 62
     5
 63
     7
421
 16777215
176
     1
 74
     1
176
     1
 91
        0
176
     1
 64
     7
176
     1
 65
   257
176
     1
 75
     1
176
     1
175
     1
176
     1
 42
1.0
176
     1
 92
        0
176
     1
 66
   257
176
     1
 43
1.0
176
     1
 76
     1
176
     1
 77
     6
176
     1
 78
     2
176
     1
 67
     7
176
     1
 79
     5
176
     1
170
     0
176
     1
171
     0
176
     1
290
     0
176
     1
 93
       13
176
     1
 44
0.0
176
     1
173
     0
176
     1
  0
VISUALSTYLE
  5
31
102
{ACAD_REACTORS
330
2A
102
}
102
{ACAD_XDICTIONARY
360
24E
102
}
330
2A
100
AcDbVisualStyle
  2
Hidden
 70
     6
177
     2
291
     0
 71
     1
176
     1
 72
     2
176
     1
 73
     2
176
     1
 90
        0
176
     1
 40
0.6
176
     1
 41
30.0
176
     1
 62
     5
 63
     7
421
 16777215
176
     1
 74
     2
176
     1
 91
        2
176
     1
 64
     7
176
     1
 65
   257
176
     1
 75
     2
176
     1
175
     1
176
     1
 42
40.0
176
     1
 92
        0
176
     1
 66
   257
176
     1
 43
1.0
176
     1
 76
     1
176
     1
 77
     6
176
     1
 78
     2
176
     1
 67
     7
176
     1
 79
     3
176
     1
170
     0
176
     1
171
     0
176
     1
290
     0
176
     1
 93
        1
176
     1
 44
0.0
176
     1
173
     0
176
     1
  0
VISUALSTYLE
  5
3B
102
{ACAD_REACTORS
330
2A
102
}
102
{ACAD_XDICTIONARY
360
262
102
}
330
2A
100
AcDbVisualStyle
  2
JitterOff
 70
    20
177
     2
291
     1
 71
     2
176
     0
 72
     2
176
     0
 73
     0
176
     0
 90
        0
176
     0
 40
0.6
176
     0
 41
30.0
176
     0
 62
     5
 63
     7
421
 16777215
176
     0
 74
     1
176
     0
 91
        4
176
     0
 64
     7
176
     0
 65
   257
176
     0
 75
     1
176
     0
175
     1
176
     0
 42
1.0
176
     0
 92
       10
176
     2
 66
     7
176
     0
 43
1.0
176
     0
 76
     1
176
     0
 77
     6
176
     0
 78
     2
176
     0
 67
     7
176
     0
 79
     5
176
     0
170
     0
176
     0
171
     0
176
     0
290
     0
176
     0
 93
        1
176
     0
 44
0.0
176
     0
173
     0
176
     0
  0
VISUALSTYLE
  5
38
102
{ACAD_REACTORS
330
2A
102
}
102
{ACAD_XDICTIONARY
360
25C
102
}
330
2A
100
AcDbVisualStyle
  2
Linepattern
 70
    14
177
     2
291
     1
 71
     2
176
     1
 72
     2
176
     1
 73
     0
176
     1
 90
        0
176
     1
 40
0.6
176
     1
 41
30.0
176
     1
 62
     5
 63
     7
421
 16777215
176
     1
 74
     1
176
     1
 91
        4
176
     1
 64
     7
176
     1
 65
   257
176
     1
 75
     7
176
     1
175
     7
176
     1
 42
1.0
176
     1
 92
        8
176
     1
 66
     7
176
     1
 43
1.0
176
     1
 76
     1
176
     1
 77
     6
176
     1
 78
     2
176
     1
 67
     7
176
     1
 79
     5
176
     1
170
     0
176
     1
171
     0
176
     1
290
     0
176
     1
 93
        1
176
     1
 44
0.0
176
     1
173
     0
176
     1
  0
VISUALSTYLE
  5
3C
102
{ACAD_REACTORS
330
2A
102
}
102
{ACAD_XDICTIONARY
360
264
102
}
330
2A
100
AcDbVisualStyle
  2
OverhangOff
 70
    21
177
     2
291
     1
 71
     2
176
     0
 72
     2
176
     0
 73
     0
176
     0
 90
        0
176
     0
 40
0.6
176
     0
 41
30.0
176
     0
 62
     5
 63
     7
421
 16777215
176
     0
 74
     1
176
     0
 91
        4
176
     0
 64
     7
176
     0
 65
   257
176
     0
 75
     1
176
     0
175
     1
176
     0
 42
1.0
176
     0
 92
        9
176
     2
 66
     7
176
     0
 43
1.0
176
     0
 76
     1
176
     0
 77
     6
176
     0
 78
     2
176
     0
 67
     7
176
     0
 79
     5
176
     0
170
     0
176
     0
171
     0
176
     0
290
     0
176
     0
 93
        1
176
     0
 44
0.0
176
     0
173
     0
176
     0
  0
VISUALSTYLE
  5
33
102
{ACAD_REACTORS
330
2A
102
}
102
{ACAD_XDICTIONARY
360
252
102
}
330
2A
100
AcDbVisualStyle
  2
Realistic
 70
     8
177
     2
291
     0
 71
     2
176
     1
 72
     3
176
     1
 73
     0
176
     1
 90
        2
176
     1
 40
0.6
176
     1
 41
30.0
176
     1
 62
     5
 63
     7
421
 16777215
176
     1
 74
     0
176
     1
 91
        0
176
     1
 64
     7
176
     1
 65
   257
176
     1
 75
     1
176
     1
175
     1
176
     1
 42
1.0
176
     1
 92
        8
176
     1
 66
   257
176
     1
 43
1.0
176
     1
 76
     1
176
     1
 77
     6
176
     1
 78
     2
176
     1
 67
     7
176
     1
 79
     3
176
     1
170
     0
176
     1
171
     0
176
     1
290
     0
176
     1
 93
       13
176
     1
 44
0.0
176
     1
173
     0
176
     1
  0
VISUALSTYLE
  5
42
102
{ACAD_REACTORS
330
2A
102
}
102
{ACAD_XDICTIONARY
360
270
102
}
330
2A
100
AcDbVisualStyle
  2
Shaded
 70
    27
177
     2
291
     0
 71
     2
176
     1
 72
     2
176
     1
 73
     1
176
     1
 90
        2
176
     1
 40
0.6
176
     1
 41
30.0
176
     1
 62
     5
 63
     7
421
 16777215
176
     1
 74
     0
176
     1
 91
        4
176
     1
 64
     7
176
     1
 65
   257
176
     1
 75
     1
176
     1
175
     1
176
     1
 42
1.0
176
     1
 92
        8
176
     1
 66
   257
176
     1
 43
1.0
176
     1
 76
     1
176
     1
 77
     6
176
     1
 78
     2
176
     1
 67
     8
425
  7895160
176
     1
 79
     3
176
     1
170
     0
176
     1
171
     0
176
     1
290
     0
176
     1
 93
        5
176
     1
 44
0.0
176
     1
173
     0
176
     1
  0
VISUALSTYLE
  5
41
102
{ACAD_REACTORS
330
2A
102
}
102
{ACAD_XDICTIONARY
360
26E
102
}
330
2A
100
AcDbVisualStyle
  2
Shaded with edges
 70
    26
177
     2
291
     0
 71
     2
176
     1
 72
     2
176
     1
 73
     1
176
     1
 90
        2
176
     1
 40
0.6
176
     1
 41
30.0
176
     1
 62
     5
 63
     7
421
 16777215
176
     1
 74
     1
176
     1
 91
       10
176
     1
 64
     7
176
     1
 65
   257
176
     1
 75
     2
176
     1
175
     1
176
     1
 42
1.0
176
     1
 92
        8
176
     1
 66
   257
176
     1
 43
1.0
176
     1
 76
     1
176
     1
 77
     6
176
     1
 78
     2
176
     1
 67
     7
176
     1
 79
     3
176
     1
170
     0
176
     1
171
     0
176
     1
290
     0
176
     1
 93
        5
176
     1
 44
0.0
176
     1
173
     0
176
     1
  0
VISUALSTYLE
  5
3E
102
{ACAD_REACTORS
330
2A
102
}
102
{ACAD_XDICTIONARY
360
268
102
}
330
2A
100
AcDbVisualStyle
  2
Shades of Gray
 70
    23
177
     2
291
     0
 71
     2
176
     1
 72
     2
176
     1
 73
     3
176
     1
 90
        0
176
     1
 40
0.6
176
     1
 41
30.0
176
     1
 62
     5
 63
     7
421
 16777215
176
     1
 74
     2
176
     1
 91
        2
176
     1
 64
     7
176
     1
 65
     7
176
     1
 75
     1
176
     1
175
     1
176
     1
 42
40.0
176
     1
 92
        8
176
     1
 66
     7
176
     1
 43
1.0
176
     1
 76
     1
176
     1
 77
     6
176
     1
 78
     2
176
     1
 67
     7
176
     1
 79
     3
176
     1
170
     0
176
     1
171
     0
176
     1
290
     0
176
     1
 93
        1
176
     1
 44
0.0
176
     1
173
     0
176
     1
  0
VISUALSTYLE
  5
3F
102
{ACAD_REACTORS
330
2A
102
}
102
{ACAD_XDICTIONARY
360
26A
102
}
330
2A
100
AcDbVisualStyle
  2
Sketchy
 70
    24
177
     2
291
     0
 71
     1
176
     1
 72
     2
176
     1
 73
     2
176
     1
 90
        0
176
     1
 40
0.6
176
     1
 41
30.0
176
     1
 62
     5
 63
     7
421
 16777215
176
     1
 74
     2
176
     1
 91
        2
176
     1
 64
     7
176
     1
 65
     7
176
     1
 75
     1
176
     1
175
     1
176
     1
 42
40.0
176
     1
 92
       11
176
     1
 66
     7
176
     1
 43
1.0
176
     1
 76
     1
176
     1
 77
     6
176
     1
 78
     2
176
     1
 67
     7
176
     1
 79
     6
176
     1
170
     0
176
     1
171
     0
176
     1
290
     0
176
     1
 93
        1
176
     1
 44
0.0
176
     1
173
     0
176
     1
  0
VISUALSTYLE
  5
37
102
{ACAD_REACTORS
330
2A
102
}
102
{ACAD_XDICTIONARY
360
25A
102
}
330
2A
100
AcDbVisualStyle
  2
Thicken
 70
    13
177
     2
291
     1
 71
     2
176
     1
 72
     2
176
     1
 73
     0
176
     1
 90
        0
176
     1
 40
0.6
176
     1
 41
30.0
176
     1
 62
     5
 63
     7
421
 16777215
176
     1
 74
     1
176
     1
 91
        4
176
     1
 64
     7
176
     1
 65
   257
176
     1
 75
     1
176
     1
175
     1
176
     1
 42
1.0
176
     1
 92
       12
176
     1
 66
     7
176
     1
 43
1.0
176
     1
 76
     1
176
     1
 77
     6
176
     1
 78
     2
176
     1
 67
     7
176
     1
 79
     5
176
     1
170
     0
176
     1
171
     0
176
     1
290
     0
176
     1
 93
        1
176
     1
 44
0.0
176
     1
173
     0
176
     1
  0
VISUALSTYLE
  5
30
102
{ACAD_REACTORS
330
2A
102
}
102
{ACAD_XDICTIONARY
360
24C
102
}
330
2A
100
AcDbVisualStyle
  2
Wireframe
 70
     5
177
     2
291
     0
 71
     0
176
     1
 72
     2
176
     1
 73
     0
176
     1
 90
        0
176
     1
 40
0.6
176
     1
 41
30.0
176
     1
 62
     5
 63
     7
421
 16777215
176
     1
 74
     1
176
     1
 91
        4
176
     1
 64
     7
176
     1
 65
   257
176
     1
 75
     1
176
     1
175
     1
176
     1
 42
1.0
176
     1
 92
        0
176
     1
 66
   257
176
     1
 43
1.0
176
     1
 76
     1
176
     1
 77
     6
176
     1
 78
     2
176
     1
 67
     7
176
     1
 79
     3
176
     1
170
     0
176
     1
171
     0
176
     1
290
     0
176
     1
 93
        1
176
     1
 44
0.0
176
     1
173
     0
176
     1
  0
VISUALSTYLE
  5
40
102
{ACAD_REACTORS
330
2A
102
}
102
{ACAD_XDICTIONARY
360
26C
102
}
330
2A
100
AcDbVisualStyle
  2
X-Ray
 70
    25
177
     2
291
     0
 71
     2
176
     1
 72
     2
176
     1
 73
     1
176
     1
 90
        1
176
     1
 40
0.5
176
     1
 41
30.0
176
     1
 62
     5
 63
     7
421
 16777215
176
     1
 74
     1
176
     1
 91
        0
176
     1
 64
     7
176
     1
 65
   257
176
     1
 75
     1
176
     1
175
     1
176
     1
 42
1.0
176
     1
 92
        8
176
     1
 66
     7
176
     1
 43
1.0
176
     1
 76
     1
176
     1
 77
     6
176
     1
 78
     2
176
     1
 67
     7
176
     1
 79
     3
176
     1
170
     0
176
     1
171
     0
176
     1
290
     0
176
     1
 93
       13
176
     1
 44
0.0
176
     1
173
     0
176
     1
  0
DICTIONARYVAR
  5
241
102
{ACAD_REACTORS
330
240
102
}
330
240
100
DictionaryVariables
280
     0
  1
1:1
  0
DICTIONARYVAR
  5
277
102
{ACAD_REACTORS
330
240
102
}
330
240
100
DictionaryVariables
280
     0
  1
Standard
  0
DICTIONARYVAR
  5
276
102
{ACAD_REACTORS
330
240
102
}
330
240
100
DictionaryVariables
280
     0
  1
Standard
  0
DICTIONARYVAR
  5
27B
102
{ACAD_REACTORS
330
240
102
}
330
240
100
DictionaryVariables
280
     0
  1
6.000000
  0
DICTIONARYVAR
  5
27A
102
{ACAD_REACTORS
330
240
102
}
330
240
100
DictionaryVariables
280
     0
  1
0
  0
DICTIONARY
  5
272
330
6A
100
AcDbDictionary
280
     1
281
     1
  3
ACAD_ROUNDTRIP_2008_TABLESTYLE_CELLSTYLEMAP
360
273
  0
DICTIONARY
  5
24A
330
2F
100
AcDbDictionary
280
     1
281
     1
  3
ACAD_XREC_ROUNDTRIP
360
24B
  0
DICTIONARY
  5
250
330
32
100
AcDbDictionary
280
     1
281
     1
  3
ACAD_XREC_ROUNDTRIP
360
251
  0
DICTIONARY
  5
258
330
36
100
AcDbDictionary
280
     1
281
     1
  3
ACAD_XREC_ROUNDTRIP
360
259
  0
DICTIONARY
  5
260
330
3A
100
AcDbDictionary
280
     1
281
     1
  3
ACAD_XREC_ROUNDTRIP
360
261
  0
DICTIONARY
  5
254
330
34
100
AcDbDictionary
280
     1
281
     1
  3
ACAD_XREC_ROUNDTRIP
360
255
  0
DICTIONARY
  5
256
330
35
100
AcDbDictionary
280
     1
281
     1
  3
ACAD_XREC_ROUNDTRIP
360
257
  0
DICTIONARY
  5
266
330
3D
100
AcDbDictionary
280
     1
281
     1
  3
ACAD_XREC_ROUNDTRIP
360
267
  0
DICTIONARY
  5
25E
330
39
100
AcDbDictionary
280
     1
281
     1
  3
ACAD_XREC_ROUNDTRIP
360
25F
  0
DICTIONARY
  5
242
330
2B
100
AcDbDictionary
280
     1
281
     1
  3
ACAD_XREC_ROUNDTRIP
360
243
  0
DICTIONARY
  5
244
330
2C
100
AcDbDictionary
280
     1
281
     1
  3
ACAD_XREC_ROUNDTRIP
360
245
  0
DICTIONARY
  5
246
330
2D
100
AcDbDictionary
280
     1
281
     1
  3
ACAD_XREC_ROUNDTRIP
360
247
  0
DICTIONARY
  5
248
330
2E
100
AcDbDictionary
280
     1
281
     1
  3
ACAD_XREC_ROUNDTRIP
360
249
  0
DICTIONARY
  5
24E
330
31
100
AcDbDictionary
280
     1
281
     1
  3
ACAD_XREC_ROUNDTRIP
360
24F
  0
DICTIONARY
  5
262
330
3B
100
AcDbDictionary
280
     1
281
     1
  3
ACAD_XREC_ROUNDTRIP
360
263
  0
DICTIONARY
  5
25C
330
38
100
AcDbDictionary
280
     1
281
     1
  3
ACAD_XREC_ROUNDTRIP
360
25D
  0
DICTIONARY
  5
264
330
3C
100
AcDbDictionary
280
     1
281
     1
  3
ACAD_XREC_ROUNDTRIP
360
265
  0
DICTIONARY
  5
252
330
33
100
AcDbDictionary
280
     1
281
     1
  3
ACAD_XREC_ROUNDTRIP
360
253
  0
DICTIONARY
  5
270
330
42
100
AcDbDictionary
280
     1
281
     1
  3
ACAD_XREC_ROUNDTRIP
360
271
  0
DICTIONARY
  5
26E
330
41
100
AcDbDictionary
280
     1
281
     1
  3
ACAD_XREC_ROUNDTRIP
360
26F
  0
DICTIONARY
  5
268
330
3E
100
AcDbDictionary
280
     1
281
     1
  3
ACAD_XREC_ROUNDTRIP
360
269
  0
DICTIONARY
  5
26A
330
3F
100
AcDbDictionary
280
     1
281
     1
  3
ACAD_XREC_ROUNDTRIP
360
26B
  0
DICTIONARY
  5
25A
330
37
100
AcDbDictionary
280
     1
281
     1
  3
ACAD_XREC_ROUNDTRIP
360
25B
  0
DICTIONARY
  5
24C
330
30
100
AcDbDictionary
280
     1
281
     1
  3
ACAD_XREC_ROUNDTRIP
360
24D
  0
DICTIONARY
  5
26C
330
40
100
AcDbDictionary
280
     1
281
     1
  3
ACAD_XREC_ROUNDTRIP
360
26D
  0
CELLSTYLEMAP
  5
273
102
{ACAD_REACTORS
330
272
102
}
330
272
100
AcDbCellStyleMap
 90
        3
300
CELLSTYLE
  1
TABLEFORMAT_BEGIN
 90
        5
170
     1
 91
        0
 92
    32768
 62
   257
 93
        1
300
CONTENTFORMAT
  1
CONTENTFORMAT_BEGIN
 90
        0
 91
        0
 92
        4
 93
        0
300

 40
0.0
140
1.0
 94
        5
 62
     0
340
11
144
6.0
309
CONTENTFORMAT_END
171
     1
301
MARGIN
  1
CELLMARGIN_BEGIN
 40
1.5
 40
1.5
 40
1.5
 40
1.5
 40
1.5
 40
1.5
309
CELLMARGIN_END
 94
        6
 95
        1
302
GRIDFORMAT
  1
GRIDFORMAT_BEGIN
 90
        0
 91
        1
 62
     0
 92
       -2
340
14
 93
        0
 40
0.045
309
GRIDFORMAT_END
 95
        2
302
GRIDFORMAT
  1
GRIDFORMAT_BEGIN
 90
        0
 91
        1
 62
     0
 92
       -2
340
14
 93
        0
 40
0.045
309
GRIDFORMAT_END
 95
        4
302
GRIDFORMAT
  1
GRIDFORMAT_BEGIN
 90
        0
 91
        1
 62
     0
 92
       -2
340
14
 93
        0
 40
0.045
309
GRIDFORMAT_END
 95
        8
302
GRIDFORMAT
  1
GRIDFORMAT_BEGIN
 90
        0
 91
        1
 62
     0
 92
       -2
340
14
 93
        0
 40
0.045
309
GRIDFORMAT_END
 95
       16
302
GRIDFORMAT
  1
GRIDFORMAT_BEGIN
 90
        0
 91
        1
 62
     0
 92
       -2
340
14
 93
        0
 40
0.045
309
GRIDFORMAT_END
 95
       32
302
GRIDFORMAT
  1
GRIDFORMAT_BEGIN
 90
        0
 91
        1
 62
     0
 92
       -2
340
14
 93
        0
 40
0.045
309
GRIDFORMAT_END
309
TABLEFORMAT_END
  1
CELLSTYLE_BEGIN
 90
        1
 91
        1
300
_TITLE
309
CELLSTYLE_END
300
CELLSTYLE
  1
TABLEFORMAT_BEGIN
 90
        5
170
     1
 91
        0
 92
        0
 62
   257
 93
        1
300
CONTENTFORMAT
  1
CONTENTFORMAT_BEGIN
 90
        0
 91
        0
 92
        4
 93
        0
300

 40
0.0
140
1.0
 94
        5
 62
     0
340
11
144
4.5
309
CONTENTFORMAT_END
171
     1
301
MARGIN
  1
CELLMARGIN_BEGIN
 40
1.5
 40
1.5
 40
1.5
 40
1.5
 40
1.5
 40
1.5
309
CELLMARGIN_END
 94
        6
 95
        1
302
GRIDFORMAT
  1
GRIDFORMAT_BEGIN
 90
        0
 91
        1
 62
     0
 92
       -2
340
14
 93
        0
 40
0.045
309
GRIDFORMAT_END
 95
        2
302
GRIDFORMAT
  1
GRIDFORMAT_BEGIN
 90
        0
 91
        1
 62
     0
 92
       -2
340
14
 93
        0
 40
0.045
309
GRIDFORMAT_END
 95
        4
302
GRIDFORMAT
  1
GRIDFORMAT_BEGIN
 90
        0
 91
        1
 62
     0
 92
       -2
340
14
 93
        0
 40
0.045
309
GRIDFORMAT_END
 95
        8
302
GRIDFORMAT
  1
GRIDFORMAT_BEGIN
 90
        0
 91
        1
 62
     0
 92
       -2
340
14
 93
        0
 40
0.045
309
GRIDFORMAT_END
 95
       16
302
GRIDFORMAT
  1
GRIDFORMAT_BEGIN
 90
        0
 91
        1
 62
     0
 92
       -2
340
14
 93
        0
 40
0.045
309
GRIDFORMAT_END
 95
       32
302
GRIDFORMAT
  1
GRIDFORMAT_BEGIN
 90
        0
 91
        1
 62
     0
 92
       -2
340
14
 93
        0
 40
0.045
309
GRIDFORMAT_END
309
TABLEFORMAT_END
  1
CELLSTYLE_BEGIN
 90
        2
 91
        1
300
_HEADER
309
CELLSTYLE_END
300
CELLSTYLE
  1
TABLEFORMAT_BEGIN
 90
        5
170
     1
 91
        0
 92
        0
 62
   257
 93
        1
300
CONTENTFORMAT
  1
CONTENTFORMAT_BEGIN
 90
        0
 91
        0
 92
        4
 93
        0
300

 40
0.0
140
1.0
 94
        2
 62
     0
340
11
144
4.5
309
CONTENTFORMAT_END
171
     1
301
MARGIN
  1
CELLMARGIN_BEGIN
 40
1.5
 40
1.5
 40
1.5
 40
1.5
 40
1.5
 40
1.5
309
CELLMARGIN_END
 94
        6
 95
        1
302
GRIDFORMAT
  1
GRIDFORMAT_BEGIN
 90
        0
 91
        1
 62
     0
 92
       -2
340
14
 93
        0
 40
0.045
309
GRIDFORMAT_END
 95
        2
302
GRIDFORMAT
  1
GRIDFORMAT_BEGIN
 90
        0
 91
        1
 62
     0
 92
       -2
340
14
 93
        0
 40
0.045
309
GRIDFORMAT_END
 95
        4
302
GRIDFORMAT
  1
GRIDFORMAT_BEGIN
 90
        0
 91
        1
 62
     0
 92
       -2
340
14
 93
        0
 40
0.045
309
GRIDFORMAT_END
 95
        8
302
GRIDFORMAT
  1
GRIDFORMAT_BEGIN
 90
        0
 91
        1
 62
     0
 92
       -2
340
14
 93
        0
 40
0.045
309
GRIDFORMAT_END
 95
       16
302
GRIDFORMAT
  1
GRIDFORMAT_BEGIN
 90
        0
 91
        1
 62
     0
 92
       -2
340
14
 93
        0
 40
0.045
309
GRIDFORMAT_END
 95
       32
302
GRIDFORMAT
  1
GRIDFORMAT_BEGIN
 90
        0
 91
        1
 62
     0
 92
       -2
340
14
 93
        0
 40
0.045
309
GRIDFORMAT_END
309
TABLEFORMAT_END
  1
CELLSTYLE_BEGIN
 90
        3
 91
        2
300
_DATA
309
CELLSTYLE_END
  0
XRECORD
  5
24B
102
{ACAD_REACTORS
330
24A
102
}
330
24A
100
AcDbXrecord
280
     1
102
RTVSPost2010Prop28
280
     1
102
RTVSPost2010PropOp28
 70
     1
102
RTVSPost2010Prop29
280
     1
102
RTVSPost2010PropOp29
 70
     1
102
RTVSPost2010Prop30
280
     0
102
RTVSPost2010PropOp30
 70
     1
102
RTVSPost2010Prop31
280
     0
102
RTVSPost2010PropOp31
 70
     1
102
RTVSPost2010Prop32
280
     0
102
RTVSPost2010PropOp32
 70
     1
102
RTVSPost2010Prop33
280
     0
102
RTVSPost2010PropOp33
 70
     1
102
RTVSPost2010Prop34
280
     0
102
RTVSPost2010PropOp34
 70
     1
102
RTVSPost2010Prop35
280
     0
102
RTVSPost2010PropOp35
 70
     1
102
RTVSPost2010Prop36
280
     0
102
RTVSPost2010PropOp36
 70
     1
102
RTVSPost2010Prop37
 90
       50
102
RTVSPost2010PropOp37
 70
     1
102
RTVSPost2010Prop38
140
0.0
102
RTVSPost2010PropOp38
 70
     1
102
RTVSPost2010Prop39
140
1.0
102
RTVSPost2010PropOp39
 70
     1
102
RTVSPost2010Prop40
 90
        0
102
RTVSPost2010PropOp40
 70
     1
102
RTVSPost2010Prop41ColorIndex
 90
       18
102
RTVSPost2010Prop41ColorRGB
 90
        0
102
RTVSPost2010PropOp41
 70
     1
102
RTVSPost2010Prop42
 90
       50
102
RTVSPost2010PropOp42
 70
     1
102
RTVSPost2010Prop43
 90
        3
102
RTVSPost2010PropOp43
 70
     1
102
RTVSPost2010Prop44ColorIndex
 90
        5
102
RTVSPost2010Prop44ColorRGB
 90
      255
102
RTVSPost2010PropOp44
 70
     1
102
RTVSPost2010Prop45
280
     0
102
RTVSPost2010PropOp45
 70
     1
102
RTVSPost2010Prop46
 90
       50
102
RTVSPost2010PropOp46
 70
     1
102
RTVSPost2010Prop47
 90
       50
102
RTVSPost2010PropOp47
 70
     1
102
RTVSPost2010Prop48
 90
       50
102
RTVSPost2010PropOp48
 70
     1
102
RTVSPost2010Prop49
280
     0
102
RTVSPost2010PropOp49
 70
     1
102
RTVSPost2010Prop50
 90
       50
102
RTVSPost2010PropOp50
 70
     1
102
RTVSPost2010Prop51ColorIndex
 90
      256
102
RTVSPost2010Prop51ColorRGB
 90
-16777216
102
RTVSPost2010PropOp51
 70
     0
102
RTVSPost2010Prop52
140
1.0
102
RTVSPost2010PropOp52
 70
     0
102
RTVSPost2010Prop53
 90
        2
102
RTVSPost2010PropOp53
 70
     1
102
RTVSPost2010Prop54
  1
strokes_ogs.tif
102
RTVSPost2010PropOp54
 70
     1
102
RTVSPost2010Prop55
280
     0
102
RTVSPost2010PropOp55
 70
     1
102
RTVSPost2010Prop56
140
1.0
102
RTVSPost2010PropOp56
 70
     1
102
RTVSPost2010Prop57
140
1.0
102
RTVSPost2010PropOp57
 70
     1
  0
XRECORD
  5
251
102
{ACAD_REACTORS
330
250
102
}
330
250
100
AcDbXrecord
280
     1
102
RTVSPost2010Prop28
280
     0
102
RTVSPost2010PropOp28
 70
     1
102
RTVSPost2010Prop29
280
     1
102
RTVSPost2010PropOp29
 70
     1
102
RTVSPost2010Prop30
280
     1
102
RTVSPost2010PropOp30
 70
     1
102
RTVSPost2010Prop31
280
     0
102
RTVSPost2010PropOp31
 70
     1
102
RTVSPost2010Prop32
280
     0
102
RTVSPost2010PropOp32
 70
     1
102
RTVSPost2010Prop33
280
     0
102
RTVSPost2010PropOp33
 70
     1
102
RTVSPost2010Prop34
280
     0
102
RTVSPost2010PropOp34
 70
     1
102
RTVSPost2010Prop35
280
     0
102
RTVSPost2010PropOp35
 70
     1
102
RTVSPost2010Prop36
280
     0
102
RTVSPost2010PropOp36
 70
     1
102
RTVSPost2010Prop37
 90
       50
102
RTVSPost2010PropOp37
 70
     1
102
RTVSPost2010Prop38
140
0.0
102
RTVSPost2010PropOp38
 70
     1
102
RTVSPost2010Prop39
140
1.0
102
RTVSPost2010PropOp39
 70
     1
102
RTVSPost2010Prop40
 90
        0
102
RTVSPost2010PropOp40
 70
     1
102
RTVSPost2010Prop41ColorIndex
 90
       18
102
RTVSPost2010Prop41ColorRGB
 90
        0
102
RTVSPost2010PropOp41
 70
     1
102
RTVSPost2010Prop42
 90
       50
102
RTVSPost2010PropOp42
 70
     1
102
RTVSPost2010Prop43
 90
        3
102
RTVSPost2010PropOp43
 70
     1
102
RTVSPost2010Prop44ColorIndex
 90
        5
102
RTVSPost2010Prop44ColorRGB
 90
      255
102
RTVSPost2010PropOp44
 70
     1
102
RTVSPost2010Prop45
280
     0
102
RTVSPost2010PropOp45
 70
     1
102
RTVSPost2010Prop46
 90
       50
102
RTVSPost2010PropOp46
 70
     1
102
RTVSPost2010Prop47
 90
       50
102
RTVSPost2010PropOp47
 70
     1
102
RTVSPost2010Prop48
 90
       50
102
RTVSPost2010PropOp48
 70
     1
102
RTVSPost2010Prop49
280
     0
102
RTVSPost2010PropOp49
 70
     1
102
RTVSPost2010Prop50
 90
       50
102
RTVSPost2010PropOp50
 70
     1
102
RTVSPost2010Prop51ColorIndex
 90
      256
102
RTVSPost2010Prop51ColorRGB
 90
-16777216
102
RTVSPost2010PropOp51
 70
     0
102
RTVSPost2010Prop52
140
1.0
102
RTVSPost2010PropOp52
 70
     0
102
RTVSPost2010Prop53
 90
        2
102
RTVSPost2010PropOp53
 70
     1
102
RTVSPost2010Prop54
  1
strokes_ogs.tif
102
RTVSPost2010PropOp54
 70
     1
102
RTVSPost2010Prop55
280
     0
102
RTVSPost2010PropOp55
 70
     1
102
RTVSPost2010Prop56
140
1.0
102
RTVSPost2010PropOp56
 70
     1
102
RTVSPost2010Prop57
140
1.0
102
RTVSPost2010PropOp57
 70
     1
  0
XRECORD
  5
259
102
{ACAD_REACTORS
330
258
102
}
330
258
100
AcDbXrecord
280
     1
102
RTVSPost2010Prop28
280
     0
102
RTVSPost2010PropOp28
 70
     1
102
RTVSPost2010Prop29
280
     1
102
RTVSPost2010PropOp29
 70
     1
102
RTVSPost2010Prop30
280
     1
102
RTVSPost2010PropOp30
 70
     1
102
RTVSPost2010Prop31
280
     0
102
RTVSPost2010PropOp31
 70
     1
102
RTVSPost2010Prop32
280
     0
102
RTVSPost2010PropOp32
 70
     1
102
RTVSPost2010Prop33
280
     0
102
RTVSPost2010PropOp33
 70
     1
102
RTVSPost2010Prop34
280
     0
102
RTVSPost2010PropOp34
 70
     1
102
RTVSPost2010Prop35
280
     0
102
RTVSPost2010PropOp35
 70
     1
102
RTVSPost2010Prop36
280
     0
102
RTVSPost2010PropOp36
 70
     1
102
RTVSPost2010Prop37
 90
       50
102
RTVSPost2010PropOp37
 70
     1
102
RTVSPost2010Prop38
140
0.0
102
RTVSPost2010PropOp38
 70
     1
102
RTVSPost2010Prop39
140
1.0
102
RTVSPost2010PropOp39
 70
     1
102
RTVSPost2010Prop40
 90
        0
102
RTVSPost2010PropOp40
 70
     1
102
RTVSPost2010Prop41ColorIndex
 90
       18
102
RTVSPost2010Prop41ColorRGB
 90
        0
102
RTVSPost2010PropOp41
 70
     1
102
RTVSPost2010Prop42
 90
       50
102
RTVSPost2010PropOp42
 70
     1
102
RTVSPost2010Prop43
 90
        3
102
RTVSPost2010PropOp43
 70
     1
102
RTVSPost2010Prop44ColorIndex
 90
        5
102
RTVSPost2010Prop44ColorRGB
 90
      255
102
RTVSPost2010PropOp44
 70
     1
102
RTVSPost2010Prop45
280
     0
102
RTVSPost2010PropOp45
 70
     1
102
RTVSPost2010Prop46
 90
       50
102
RTVSPost2010PropOp46
 70
     1
102
RTVSPost2010Prop47
 90
       50
102
RTVSPost2010PropOp47
 70
     1
102
RTVSPost2010Prop48
 90
       50
102
RTVSPost2010PropOp48
 70
     1
102
RTVSPost2010Prop49
280
     0
102
RTVSPost2010PropOp49
 70
     1
102
RTVSPost2010Prop50
 90
       50
102
RTVSPost2010PropOp50
 70
     1
102
RTVSPost2010Prop51ColorIndex
 90
      256
102
RTVSPost2010Prop51ColorRGB
 90
-16777216
102
RTVSPost2010PropOp51
 70
     0
102
RTVSPost2010Prop52
140
1.0
102
RTVSPost2010PropOp52
 70
     0
102
RTVSPost2010Prop53
 90
        2
102
RTVSPost2010PropOp53
 70
     1
102
RTVSPost2010Prop54
  1
strokes_ogs.tif
102
RTVSPost2010PropOp54
 70
     1
102
RTVSPost2010Prop55
280
     0
102
RTVSPost2010PropOp55
 70
     1
102
RTVSPost2010Prop56
140
1.0
102
RTVSPost2010PropOp56
 70
     1
102
RTVSPost2010Prop57
140
1.0
102
RTVSPost2010PropOp57
 70
     1
  0
XRECORD
  5
261
102
{ACAD_REACTORS
330
260
102
}
330
260
100
AcDbXrecord
280
     1
102
RTVSPost2010Prop28
280
     0
102
RTVSPost2010PropOp28
 70
     1
102
RTVSPost2010Prop29
280
     1
102
RTVSPost2010PropOp29
 70
     1
102
RTVSPost2010Prop30
280
     1
102
RTVSPost2010PropOp30
 70
     1
102
RTVSPost2010Prop31
280
     0
102
RTVSPost2010PropOp31
 70
     1
102
RTVSPost2010Prop32
280
     0
102
RTVSPost2010PropOp32
 70
     1
102
RTVSPost2010Prop33
280
     0
102
RTVSPost2010PropOp33
 70
     1
102
RTVSPost2010Prop34
280
     0
102
RTVSPost2010PropOp34
 70
     1
102
RTVSPost2010Prop35
280
     0
102
RTVSPost2010PropOp35
 70
     1
102
RTVSPost2010Prop36
280
     0
102
RTVSPost2010PropOp36
 70
     1
102
RTVSPost2010Prop37
 90
       50
102
RTVSPost2010PropOp37
 70
     1
102
RTVSPost2010Prop38
140
0.0
102
RTVSPost2010PropOp38
 70
     1
102
RTVSPost2010Prop39
140
1.0
102
RTVSPost2010PropOp39
 70
     1
102
RTVSPost2010Prop40
 90
        0
102
RTVSPost2010PropOp40
 70
     1
102
RTVSPost2010Prop41ColorIndex
 90
       18
102
RTVSPost2010Prop41ColorRGB
 90
        0
102
RTVSPost2010PropOp41
 70
     1
102
RTVSPost2010Prop42
 90
       50
102
RTVSPost2010PropOp42
 70
     1
102
RTVSPost2010Prop43
 90
        3
102
RTVSPost2010PropOp43
 70
     1
102
RTVSPost2010Prop44ColorIndex
 90
        5
102
RTVSPost2010Prop44ColorRGB
 90
      255
102
RTVSPost2010PropOp44
 70
     1
102
RTVSPost2010Prop45
280
     0
102
RTVSPost2010PropOp45
 70
     1
102
RTVSPost2010Prop46
 90
       50
102
RTVSPost2010PropOp46
 70
     1
102
RTVSPost2010Prop47
 90
       50
102
RTVSPost2010PropOp47
 70
     1
102
RTVSPost2010Prop48
 90
       50
102
RTVSPost2010PropOp48
 70
     1
102
RTVSPost2010Prop49
280
     0
102
RTVSPost2010PropOp49
 70
     1
102
RTVSPost2010Prop50
 90
       50
102
RTVSPost2010PropOp50
 70
     1
102
RTVSPost2010Prop51ColorIndex
 90
      256
102
RTVSPost2010Prop51ColorRGB
 90
-16777216
102
RTVSPost2010PropOp51
 70
     0
102
RTVSPost2010Prop52
140
1.0
102
RTVSPost2010PropOp52
 70
     0
102
RTVSPost2010Prop53
 90
        2
102
RTVSPost2010PropOp53
 70
     1
102
RTVSPost2010Prop54
  1
strokes_ogs.tif
102
RTVSPost2010PropOp54
 70
     1
102
RTVSPost2010Prop55
280
     0
102
RTVSPost2010PropOp55
 70
     1
102
RTVSPost2010Prop56
140
1.0
102
RTVSPost2010PropOp56
 70
     1
102
RTVSPost2010Prop57
140
1.0
102
RTVSPost2010PropOp57
 70
     1
  0
XRECORD
  5
255
102
{ACAD_REACTORS
330
254
102
}
330
254
100
AcDbXrecord
280
     1
102
RTVSPost2010Prop28
280
     0
102
RTVSPost2010PropOp28
 70
     1
102
RTVSPost2010Prop29
280
     1
102
RTVSPost2010PropOp29
 70
     1
102
RTVSPost2010Prop30
280
     1
102
RTVSPost2010PropOp30
 70
     1
102
RTVSPost2010Prop31
280
     0
102
RTVSPost2010PropOp31
 70
     1
102
RTVSPost2010Prop32
280
     0
102
RTVSPost2010PropOp32
 70
     1
102
RTVSPost2010Prop33
280
     0
102
RTVSPost2010PropOp33
 70
     1
102
RTVSPost2010Prop34
280
     0
102
RTVSPost2010PropOp34
 70
     1
102
RTVSPost2010Prop35
280
     0
102
RTVSPost2010PropOp35
 70
     1
102
RTVSPost2010Prop36
280
     0
102
RTVSPost2010PropOp36
 70
     1
102
RTVSPost2010Prop37
 90
       50
102
RTVSPost2010PropOp37
 70
     1
102
RTVSPost2010Prop38
140
0.0
102
RTVSPost2010PropOp38
 70
     1
102
RTVSPost2010Prop39
140
1.0
102
RTVSPost2010PropOp39
 70
     1
102
RTVSPost2010Prop40
 90
        0
102
RTVSPost2010PropOp40
 70
     1
102
RTVSPost2010Prop41ColorIndex
 90
       18
102
RTVSPost2010Prop41ColorRGB
 90
        0
102
RTVSPost2010PropOp41
 70
     1
102
RTVSPost2010Prop42
 90
       50
102
RTVSPost2010PropOp42
 70
     1
102
RTVSPost2010Prop43
 90
        3
102
RTVSPost2010PropOp43
 70
     1
102
RTVSPost2010Prop44ColorIndex
 90
        5
102
RTVSPost2010Prop44ColorRGB
 90
      255
102
RTVSPost2010PropOp44
 70
     1
102
RTVSPost2010Prop45
280
     0
102
RTVSPost2010PropOp45
 70
     1
102
RTVSPost2010Prop46
 90
       50
102
RTVSPost2010PropOp46
 70
     1
102
RTVSPost2010Prop47
 90
       50
102
RTVSPost2010PropOp47
 70
     1
102
RTVSPost2010Prop48
 90
       50
102
RTVSPost2010PropOp48
 70
     1
102
RTVSPost2010Prop49
280
     0
102
RTVSPost2010PropOp49
 70
     1
102
RTVSPost2010Prop50
 90
       50
102
RTVSPost2010PropOp50
 70
     1
102
RTVSPost2010Prop51ColorIndex
 90
      256
102
RTVSPost2010Prop51ColorRGB
 90
-16777216
102
RTVSPost2010PropOp51
 70
     0
102
RTVSPost2010Prop52
140
1.0
102
RTVSPost2010PropOp52
 70
     0
102
RTVSPost2010Prop53
 90
        2
102
RTVSPost2010PropOp53
 70
     1
102
RTVSPost2010Prop54
  1
strokes_ogs.tif
102
RTVSPost2010PropOp54
 70
     1
102
RTVSPost2010Prop55
280
     0
102
RTVSPost2010PropOp55
 70
     1
102
RTVSPost2010Prop56
140
1.0
102
RTVSPost2010PropOp56
 70
     1
102
RTVSPost2010Prop57
140
1.0
102
RTVSPost2010PropOp57
 70
     1
  0
XRECORD
  5
257
102
{ACAD_REACTORS
330
256
102
}
330
256
100
AcDbXrecord
280
     1
102
RTVSPost2010Prop28
280
     0
102
RTVSPost2010PropOp28
 70
     1
102
RTVSPost2010Prop29
280
     1
102
RTVSPost2010PropOp29
 70
     1
102
RTVSPost2010Prop30
280
     1
102
RTVSPost2010PropOp30
 70
     1
102
RTVSPost2010Prop31
280
     0
102
RTVSPost2010PropOp31
 70
     1
102
RTVSPost2010Prop32
280
     0
102
RTVSPost2010PropOp32
 70
     1
102
RTVSPost2010Prop33
280
     0
102
RTVSPost2010PropOp33
 70
     1
102
RTVSPost2010Prop34
280
     0
102
RTVSPost2010PropOp34
 70
     1
102
RTVSPost2010Prop35
280
     0
102
RTVSPost2010PropOp35
 70
     1
102
RTVSPost2010Prop36
280
     0
102
RTVSPost2010PropOp36
 70
     1
102
RTVSPost2010Prop37
 90
       50
102
RTVSPost2010PropOp37
 70
     1
102
RTVSPost2010Prop38
140
0.0
102
RTVSPost2010PropOp38
 70
     1
102
RTVSPost2010Prop39
140
1.0
102
RTVSPost2010PropOp39
 70
     1
102
RTVSPost2010Prop40
 90
        0
102
RTVSPost2010PropOp40
 70
     1
102
RTVSPost2010Prop41ColorIndex
 90
       18
102
RTVSPost2010Prop41ColorRGB
 90
        0
102
RTVSPost2010PropOp41
 70
     1
102
RTVSPost2010Prop42
 90
       50
102
RTVSPost2010PropOp42
 70
     1
102
RTVSPost2010Prop43
 90
        3
102
RTVSPost2010PropOp43
 70
     1
102
RTVSPost2010Prop44ColorIndex
 90
        5
102
RTVSPost2010Prop44ColorRGB
 90
      255
102
RTVSPost2010PropOp44
 70
     1
102
RTVSPost2010Prop45
280
     0
102
RTVSPost2010PropOp45
 70
     1
102
RTVSPost2010Prop46
 90
       50
102
RTVSPost2010PropOp46
 70
     1
102
RTVSPost2010Prop47
 90
       50
102
RTVSPost2010PropOp47
 70
     1
102
RTVSPost2010Prop48
 90
       50
102
RTVSPost2010PropOp48
 70
     1
102
RTVSPost2010Prop49
280
     0
102
RTVSPost2010PropOp49
 70
     1
102
RTVSPost2010Prop50
 90
       50
102
RTVSPost2010PropOp50
 70
     1
102
RTVSPost2010Prop51ColorIndex
 90
      256
102
RTVSPost2010Prop51ColorRGB
 90
-16777216
102
RTVSPost2010PropOp51
 70
     0
102
RTVSPost2010Prop52
140
1.0
102
RTVSPost2010PropOp52
 70
     0
102
RTVSPost2010Prop53
 90
        2
102
RTVSPost2010PropOp53
 70
     1
102
RTVSPost2010Prop54
  1
strokes_ogs.tif
102
RTVSPost2010PropOp54
 70
     1
102
RTVSPost2010Prop55
280
     0
102
RTVSPost2010PropOp55
 70
     1
102
RTVSPost2010Prop56
140
1.0
102
RTVSPost2010PropOp56
 70
     1
102
RTVSPost2010Prop57
140
1.0
102
RTVSPost2010PropOp57
 70
     1
  0
XRECORD
  5
267
102
{ACAD_REACTORS
330
266
102
}
330
266
100
AcDbXrecord
280
     1
102
RTVSPost2010Prop28
280
     0
102
RTVSPost2010PropOp28
 70
     0
102
RTVSPost2010Prop29
280
     1
102
RTVSPost2010PropOp29
 70
     0
102
RTVSPost2010Prop30
280
     1
102
RTVSPost2010PropOp30
 70
     0
102
RTVSPost2010Prop31
280
     0
102
RTVSPost2010PropOp31
 70
     0
102
RTVSPost2010Prop32
280
     0
102
RTVSPost2010PropOp32
 70
     0
102
RTVSPost2010Prop33
280
     0
102
RTVSPost2010PropOp33
 70
     0
102
RTVSPost2010Prop34
280
     0
102
RTVSPost2010PropOp34
 70
     0
102
RTVSPost2010Prop35
280
     0
102
RTVSPost2010PropOp35
 70
     0
102
RTVSPost2010Prop36
280
     0
102
RTVSPost2010PropOp36
 70
     0
102
RTVSPost2010Prop37
 90
       50
102
RTVSPost2010PropOp37
 70
     0
102
RTVSPost2010Prop38
140
0.0
102
RTVSPost2010PropOp38
 70
     0
102
RTVSPost2010Prop39
140
1.0
102
RTVSPost2010PropOp39
 70
     0
102
RTVSPost2010Prop40
 90
        0
102
RTVSPost2010PropOp40
 70
     0
102
RTVSPost2010Prop41ColorIndex
 90
       18
102
RTVSPost2010Prop41ColorRGB
 90
        0
102
RTVSPost2010PropOp41
 70
     0
102
RTVSPost2010Prop42
 90
       50
102
RTVSPost2010PropOp42
 70
     0
102
RTVSPost2010Prop43
 90
        3
102
RTVSPost2010PropOp43
 70
     0
102
RTVSPost2010Prop44ColorIndex
 90
        5
102
RTVSPost2010Prop44ColorRGB
 90
      255
102
RTVSPost2010PropOp44
 70
     0
102
RTVSPost2010Prop45
280
     0
102
RTVSPost2010PropOp45
 70
     0
102
RTVSPost2010Prop46
 90
       50
102
RTVSPost2010PropOp46
 70
     0
102
RTVSPost2010Prop47
 90
       50
102
RTVSPost2010PropOp47
 70
     0
102
RTVSPost2010Prop48
 90
       50
102
RTVSPost2010PropOp48
 70
     0
102
RTVSPost2010Prop49
280
     0
102
RTVSPost2010PropOp49
 70
     0
102
RTVSPost2010Prop50
 90
       50
102
RTVSPost2010PropOp50
 70
     0
102
RTVSPost2010Prop51ColorIndex
 90
      256
102
RTVSPost2010Prop51ColorRGB
 90
-16777216
102
RTVSPost2010PropOp51
 70
     0
102
RTVSPost2010Prop52
140
1.0
102
RTVSPost2010PropOp52
 70
     0
102
RTVSPost2010Prop53
 90
        2
102
RTVSPost2010PropOp53
 70
     0
102
RTVSPost2010Prop54
  1
strokes_ogs.tif
102
RTVSPost2010PropOp54
 70
     0
102
RTVSPost2010Prop55
280
     0
102
RTVSPost2010PropOp55
 70
     0
102
RTVSPost2010Prop56
140
1.0
102
RTVSPost2010PropOp56
 70
     0
102
RTVSPost2010Prop57
140
1.0
102
RTVSPost2010PropOp57
 70
     0
  0
XRECORD
  5
25F
102
{ACAD_REACTORS
330
25E
102
}
330
25E
100
AcDbXrecord
280
     1
102
RTVSPost2010Prop28
280
     0
102
RTVSPost2010PropOp28
 70
     1
102
RTVSPost2010Prop29
280
     1
102
RTVSPost2010PropOp29
 70
     1
102
RTVSPost2010Prop30
280
     1
102
RTVSPost2010PropOp30
 70
     1
102
RTVSPost2010Prop31
280
     0
102
RTVSPost2010PropOp31
 70
     1
102
RTVSPost2010Prop32
280
     0
102
RTVSPost2010PropOp32
 70
     1
102
RTVSPost2010Prop33
280
     0
102
RTVSPost2010PropOp33
 70
     1
102
RTVSPost2010Prop34
280
     0
102
RTVSPost2010PropOp34
 70
     1
102
RTVSPost2010Prop35
280
     0
102
RTVSPost2010PropOp35
 70
     1
102
RTVSPost2010Prop36
280
     0
102
RTVSPost2010PropOp36
 70
     1
102
RTVSPost2010Prop37
 90
       50
102
RTVSPost2010PropOp37
 70
     1
102
RTVSPost2010Prop38
140
0.0
102
RTVSPost2010PropOp38
 70
     1
102
RTVSPost2010Prop39
140
1.0
102
RTVSPost2010PropOp39
 70
     1
102
RTVSPost2010Prop40
 90
        0
102
RTVSPost2010PropOp40
 70
     1
102
RTVSPost2010Prop41ColorIndex
 90
       18
102
RTVSPost2010Prop41ColorRGB
 90
        0
102
RTVSPost2010PropOp41
 70
     1
102
RTVSPost2010Prop42
 90
       50
102
RTVSPost2010PropOp42
 70
     1
102
RTVSPost2010Prop43
 90
        3
102
RTVSPost2010PropOp43
 70
     1
102
RTVSPost2010Prop44ColorIndex
 90
        5
102
RTVSPost2010Prop44ColorRGB
 90
      255
102
RTVSPost2010PropOp44
 70
     1
102
RTVSPost2010Prop45
280
     0
102
RTVSPost2010PropOp45
 70
     1
102
RTVSPost2010Prop46
 90
       50
102
RTVSPost2010PropOp46
 70
     1
102
RTVSPost2010Prop47
 90
       50
102
RTVSPost2010PropOp47
 70
     1
102
RTVSPost2010Prop48
 90
       50
102
RTVSPost2010PropOp48
 70
     1
102
RTVSPost2010Prop49
280
     0
102
RTVSPost2010PropOp49
 70
     1
102
RTVSPost2010Prop50
 90
       50
102
RTVSPost2010PropOp50
 70
     1
102
RTVSPost2010Prop51ColorIndex
 90
      256
102
RTVSPost2010Prop51ColorRGB
 90
-16777216
102
RTVSPost2010PropOp51
 70
     0
102
RTVSPost2010Prop52
140
1.0
102
RTVSPost2010PropOp52
 70
     0
102
RTVSPost2010Prop53
 90
        2
102
RTVSPost2010PropOp53
 70
     1
102
RTVSPost2010Prop54
  1
strokes_ogs.tif
102
RTVSPost2010PropOp54
 70
     1
102
RTVSPost2010Prop55
280
     0
102
RTVSPost2010PropOp55
 70
     1
102
RTVSPost2010Prop56
140
1.0
102
RTVSPost2010PropOp56
 70
     1
102
RTVSPost2010Prop57
140
1.0
102
RTVSPost2010PropOp57
 70
     1
  0
XRECORD
  5
243
102
{ACAD_REACTORS
330
242
102
}
330
242
100
AcDbXrecord
280
     1
102
RTVSPost2010Prop28
280
     0
102
RTVSPost2010PropOp28
 70
     1
102
RTVSPost2010Prop29
280
     1
102
RTVSPost2010PropOp29
 70
     1
102
RTVSPost2010Prop30
280
     1
102
RTVSPost2010PropOp30
 70
     1
102
RTVSPost2010Prop31
280
     0
102
RTVSPost2010PropOp31
 70
     1
102
RTVSPost2010Prop32
280
     0
102
RTVSPost2010PropOp32
 70
     1
102
RTVSPost2010Prop33
280
     0
102
RTVSPost2010PropOp33
 70
     1
102
RTVSPost2010Prop34
280
     0
102
RTVSPost2010PropOp34
 70
     1
102
RTVSPost2010Prop35
280
     0
102
RTVSPost2010PropOp35
 70
     1
102
RTVSPost2010Prop36
280
     0
102
RTVSPost2010PropOp36
 70
     1
102
RTVSPost2010Prop37
 90
       50
102
RTVSPost2010PropOp37
 70
     1
102
RTVSPost2010Prop38
140
0.0
102
RTVSPost2010PropOp38
 70
     1
102
RTVSPost2010Prop39
140
1.0
102
RTVSPost2010PropOp39
 70
     1
102
RTVSPost2010Prop40
 90
        0
102
RTVSPost2010PropOp40
 70
     1
102
RTVSPost2010Prop41ColorIndex
 90
       18
102
RTVSPost2010Prop41ColorRGB
 90
        0
102
RTVSPost2010PropOp41
 70
     1
102
RTVSPost2010Prop42
 90
       50
102
RTVSPost2010PropOp42
 70
     1
102
RTVSPost2010Prop43
 90
        3
102
RTVSPost2010PropOp43
 70
     1
102
RTVSPost2010Prop44ColorIndex
 90
        5
102
RTVSPost2010Prop44ColorRGB
 90
      255
102
RTVSPost2010PropOp44
 70
     1
102
RTVSPost2010Prop45
280
     0
102
RTVSPost2010PropOp45
 70
     1
102
RTVSPost2010Prop46
 90
       50
102
RTVSPost2010PropOp46
 70
     1
102
RTVSPost2010Prop47
 90
       50
102
RTVSPost2010PropOp47
 70
     1
102
RTVSPost2010Prop48
 90
       50
102
RTVSPost2010PropOp48
 70
     1
102
RTVSPost2010Prop49
280
     0
102
RTVSPost2010PropOp49
 70
     1
102
RTVSPost2010Prop50
 90
       50
102
RTVSPost2010PropOp50
 70
     1
102
RTVSPost2010Prop51ColorIndex
 90
      256
102
RTVSPost2010Prop51ColorRGB
 90
-16777216
102
RTVSPost2010PropOp51
 70
     0
102
RTVSPost2010Prop52
140
1.0
102
RTVSPost2010PropOp52
 70
     0
102
RTVSPost2010Prop53
 90
        2
102
RTVSPost2010PropOp53
 70
     1
102
RTVSPost2010Prop54
  1
strokes_ogs.tif
102
RTVSPost2010PropOp54
 70
     1
102
RTVSPost2010Prop55
280
     0
102
RTVSPost2010PropOp55
 70
     1
102
RTVSPost2010Prop56
140
1.0
102
RTVSPost2010PropOp56
 70
     1
102
RTVSPost2010Prop57
140
1.0
102
RTVSPost2010PropOp57
 70
     1
  0
XRECORD
  5
245
102
{ACAD_REACTORS
330
244
102
}
330
244
100
AcDbXrecord
280
     1
102
RTVSPost2010Prop28
280
     0
102
RTVSPost2010PropOp28
 70
     1
102
RTVSPost2010Prop29
280
     1
102
RTVSPost2010PropOp29
 70
     1
102
RTVSPost2010Prop30
280
     1
102
RTVSPost2010PropOp30
 70
     1
102
RTVSPost2010Prop31
280
     0
102
RTVSPost2010PropOp31
 70
     1
102
RTVSPost2010Prop32
280
     0
102
RTVSPost2010PropOp32
 70
     1
102
RTVSPost2010Prop33
280
     0
102
RTVSPost2010PropOp33
 70
     1
102
RTVSPost2010Prop34
280
     0
102
RTVSPost2010PropOp34
 70
     1
102
RTVSPost2010Prop35
280
     0
102
RTVSPost2010PropOp35
 70
     1
102
RTVSPost2010Prop36
280
     0
102
RTVSPost2010PropOp36
 70
     1
102
RTVSPost2010Prop37
 90
       50
102
RTVSPost2010PropOp37
 70
     1
102
RTVSPost2010Prop38
140
0.0
102
RTVSPost2010PropOp38
 70
     1
102
RTVSPost2010Prop39
140
1.0
102
RTVSPost2010PropOp39
 70
     1
102
RTVSPost2010Prop40
 90
        0
102
RTVSPost2010PropOp40
 70
     1
102
RTVSPost2010Prop41ColorIndex
 90
       18
102
RTVSPost2010Prop41ColorRGB
 90
        0
102
RTVSPost2010PropOp41
 70
     1
102
RTVSPost2010Prop42
 90
       50
102
RTVSPost2010PropOp42
 70
     1
102
RTVSPost2010Prop43
 90
        3
102
RTVSPost2010PropOp43
 70
     1
102
RTVSPost2010Prop44ColorIndex
 90
        5
102
RTVSPost2010Prop44ColorRGB
 90
      255
102
RTVSPost2010PropOp44
 70
     1
102
RTVSPost2010Prop45
280
     0
102
RTVSPost2010PropOp45
 70
     1
102
RTVSPost2010Prop46
 90
       50
102
RTVSPost2010PropOp46
 70
     1
102
RTVSPost2010Prop47
 90
       50
102
RTVSPost2010PropOp47
 70
     1
102
RTVSPost2010Prop48
 90
       50
102
RTVSPost2010PropOp48
 70
     1
102
RTVSPost2010Prop49
280
     0
102
RTVSPost2010PropOp49
 70
     1
102
RTVSPost2010Prop50
 90
       50
102
RTVSPost2010PropOp50
 70
     1
102
RTVSPost2010Prop51ColorIndex
 90
      256
102
RTVSPost2010Prop51ColorRGB
 90
-16777216
102
RTVSPost2010PropOp51
 70
     0
102
RTVSPost2010Prop52
140
1.0
102
RTVSPost2010PropOp52
 70
     0
102
RTVSPost2010Prop53
 90
        2
102
RTVSPost2010PropOp53
 70
     1
102
RTVSPost2010Prop54
  1
strokes_ogs.tif
102
RTVSPost2010PropOp54
 70
     1
102
RTVSPost2010Prop55
280
     0
102
RTVSPost2010PropOp55
 70
     1
102
RTVSPost2010Prop56
140
1.0
102
RTVSPost2010PropOp56
 70
     1
102
RTVSPost2010Prop57
140
1.0
102
RTVSPost2010PropOp57
 70
     1
  0
XRECORD
  5
247
102
{ACAD_REACTORS
330
246
102
}
330
246
100
AcDbXrecord
280
     1
102
RTVSPost2010Prop28
280
     0
102
RTVSPost2010PropOp28
 70
     1
102
RTVSPost2010Prop29
280
     1
102
RTVSPost2010PropOp29
 70
     1
102
RTVSPost2010Prop30
280
     1
102
RTVSPost2010PropOp30
 70
     1
102
RTVSPost2010Prop31
280
     0
102
RTVSPost2010PropOp31
 70
     1
102
RTVSPost2010Prop32
280
     0
102
RTVSPost2010PropOp32
 70
     1
102
RTVSPost2010Prop33
280
     0
102
RTVSPost2010PropOp33
 70
     1
102
RTVSPost2010Prop34
280
     0
102
RTVSPost2010PropOp34
 70
     1
102
RTVSPost2010Prop35
280
     0
102
RTVSPost2010PropOp35
 70
     1
102
RTVSPost2010Prop36
280
     0
102
RTVSPost2010PropOp36
 70
     1
102
RTVSPost2010Prop37
 90
       50
102
RTVSPost2010PropOp37
 70
     1
102
RTVSPost2010Prop38
140
0.0
102
RTVSPost2010PropOp38
 70
     1
102
RTVSPost2010Prop39
140
1.0
102
RTVSPost2010PropOp39
 70
     1
102
RTVSPost2010Prop40
 90
        0
102
RTVSPost2010PropOp40
 70
     1
102
RTVSPost2010Prop41ColorIndex
 90
       18
102
RTVSPost2010Prop41ColorRGB
 90
        0
102
RTVSPost2010PropOp41
 70
     1
102
RTVSPost2010Prop42
 90
       50
102
RTVSPost2010PropOp42
 70
     1
102
RTVSPost2010Prop43
 90
        3
102
RTVSPost2010PropOp43
 70
     1
102
RTVSPost2010Prop44ColorIndex
 90
        5
102
RTVSPost2010Prop44ColorRGB
 90
      255
102
RTVSPost2010PropOp44
 70
     1
102
RTVSPost2010Prop45
280
     0
102
RTVSPost2010PropOp45
 70
     1
102
RTVSPost2010Prop46
 90
       50
102
RTVSPost2010PropOp46
 70
     1
102
RTVSPost2010Prop47
 90
       50
102
RTVSPost2010PropOp47
 70
     1
102
RTVSPost2010Prop48
 90
       50
102
RTVSPost2010PropOp48
 70
     1
102
RTVSPost2010Prop49
280
     0
102
RTVSPost2010PropOp49
 70
     1
102
RTVSPost2010Prop50
 90
       50
102
RTVSPost2010PropOp50
 70
     1
102
RTVSPost2010Prop51ColorIndex
 90
      256
102
RTVSPost2010Prop51ColorRGB
 90
-16777216
102
RTVSPost2010PropOp51
 70
     0
102
RTVSPost2010Prop52
140
1.0
102
RTVSPost2010PropOp52
 70
     0
102
RTVSPost2010Prop53
 90
        2
102
RTVSPost2010PropOp53
 70
     1
102
RTVSPost2010Prop54
  1
strokes_ogs.tif
102
RTVSPost2010PropOp54
 70
     1
102
RTVSPost2010Prop55
280
     0
102
RTVSPost2010PropOp55
 70
     1
102
RTVSPost2010Prop56
140
1.0
102
RTVSPost2010PropOp56
 70
     1
102
RTVSPost2010Prop57
140
1.0
102
RTVSPost2010PropOp57
 70
     1
  0
XRECORD
  5
249
102
{ACAD_REACTORS
330
248
102
}
330
248
100
AcDbXrecord
280
     1
102
RTVSPost2010Prop28
280
     0
102
RTVSPost2010PropOp28
 70
     1
102
RTVSPost2010Prop29
280
     1
102
RTVSPost2010PropOp29
 70
     1
102
RTVSPost2010Prop30
280
     1
102
RTVSPost2010PropOp30
 70
     1
102
RTVSPost2010Prop31
280
     0
102
RTVSPost2010PropOp31
 70
     1
102
RTVSPost2010Prop32
280
     0
102
RTVSPost2010PropOp32
 70
     1
102
RTVSPost2010Prop33
280
     0
102
RTVSPost2010PropOp33
 70
     1
102
RTVSPost2010Prop34
280
     0
102
RTVSPost2010PropOp34
 70
     1
102
RTVSPost2010Prop35
280
     0
102
RTVSPost2010PropOp35
 70
     1
102
RTVSPost2010Prop36
280
     0
102
RTVSPost2010PropOp36
 70
     1
102
RTVSPost2010Prop37
 90
       50
102
RTVSPost2010PropOp37
 70
     1
102
RTVSPost2010Prop38
140
0.0
102
RTVSPost2010PropOp38
 70
     1
102
RTVSPost2010Prop39
140
1.0
102
RTVSPost2010PropOp39
 70
     1
102
RTVSPost2010Prop40
 90
        0
102
RTVSPost2010PropOp40
 70
     1
102
RTVSPost2010Prop41ColorIndex
 90
       18
102
RTVSPost2010Prop41ColorRGB
 90
        0
102
RTVSPost2010PropOp41
 70
     1
102
RTVSPost2010Prop42
 90
       50
102
RTVSPost2010PropOp42
 70
     1
102
RTVSPost2010Prop43
 90
        3
102
RTVSPost2010PropOp43
 70
     1
102
RTVSPost2010Prop44ColorIndex
 90
        5
102
RTVSPost2010Prop44ColorRGB
 90
      255
102
RTVSPost2010PropOp44
 70
     1
102
RTVSPost2010Prop45
280
     0
102
RTVSPost2010PropOp45
 70
     1
102
RTVSPost2010Prop46
 90
       50
102
RTVSPost2010PropOp46
 70
     1
102
RTVSPost2010Prop47
 90
       50
102
RTVSPost2010PropOp47
 70
     1
102
RTVSPost2010Prop48
 90
       50
102
RTVSPost2010PropOp48
 70
     1
102
RTVSPost2010Prop49
280
     0
102
RTVSPost2010PropOp49
 70
     1
102
RTVSPost2010Prop50
 90
       50
102
RTVSPost2010PropOp50
 70
     1
102
RTVSPost2010Prop51ColorIndex
 90
      256
102
RTVSPost2010Prop51ColorRGB
 90
-16777216
102
RTVSPost2010PropOp51
 70
     0
102
RTVSPost2010Prop52
140
1.0
102
RTVSPost2010PropOp52
 70
     0
102
RTVSPost2010Prop53
 90
        2
102
RTVSPost2010PropOp53
 70
     1
102
RTVSPost2010Prop54
  1
strokes_ogs.tif
102
RTVSPost2010PropOp54
 70
     1
102
RTVSPost2010Prop55
280
     0
102
RTVSPost2010PropOp55
 70
     1
102
RTVSPost2010Prop56
140
1.0
102
RTVSPost2010PropOp56
 70
     1
102
RTVSPost2010Prop57
140
1.0
102
RTVSPost2010PropOp57
 70
     1
  0
XRECORD
  5
24F
102
{ACAD_REACTORS
330
24E
102
}
330
24E
100
AcDbXrecord
280
     1
102
RTVSPost2010Prop28
280
     0
102
RTVSPost2010PropOp28
 70
     1
102
RTVSPost2010Prop29
280
     1
102
RTVSPost2010PropOp29
 70
     1
102
RTVSPost2010Prop30
280
     1
102
RTVSPost2010PropOp30
 70
     1
102
RTVSPost2010Prop31
280
     0
102
RTVSPost2010PropOp31
 70
     1
102
RTVSPost2010Prop32
280
     0
102
RTVSPost2010PropOp32
 70
     1
102
RTVSPost2010Prop33
280
     0
102
RTVSPost2010PropOp33
 70
     1
102
RTVSPost2010Prop34
280
     0
102
RTVSPost2010PropOp34
 70
     1
102
RTVSPost2010Prop35
280
     0
102
RTVSPost2010PropOp35
 70
     1
102
RTVSPost2010Prop36
280
     0
102
RTVSPost2010PropOp36
 70
     1
102
RTVSPost2010Prop37
 90
       50
102
RTVSPost2010PropOp37
 70
     1
102
RTVSPost2010Prop38
140
0.0
102
RTVSPost2010PropOp38
 70
     1
102
RTVSPost2010Prop39
140
1.0
102
RTVSPost2010PropOp39
 70
     1
102
RTVSPost2010Prop40
 90
        0
102
RTVSPost2010PropOp40
 70
     1
102
RTVSPost2010Prop41ColorIndex
 90
       18
102
RTVSPost2010Prop41ColorRGB
 90
        0
102
RTVSPost2010PropOp41
 70
     1
102
RTVSPost2010Prop42
 90
       50
102
RTVSPost2010PropOp42
 70
     1
102
RTVSPost2010Prop43
 90
        3
102
RTVSPost2010PropOp43
 70
     1
102
RTVSPost2010Prop44ColorIndex
 90
        5
102
RTVSPost2010Prop44ColorRGB
 90
      255
102
RTVSPost2010PropOp44
 70
     1
102
RTVSPost2010Prop45
280
     0
102
RTVSPost2010PropOp45
 70
     1
102
RTVSPost2010Prop46
 90
       50
102
RTVSPost2010PropOp46
 70
     1
102
RTVSPost2010Prop47
 90
       50
102
RTVSPost2010PropOp47
 70
     1
102
RTVSPost2010Prop48
 90
       50
102
RTVSPost2010PropOp48
 70
     1
102
RTVSPost2010Prop49
280
     0
102
RTVSPost2010PropOp49
 70
     1
102
RTVSPost2010Prop50
 90
       50
102
RTVSPost2010PropOp50
 70
     1
102
RTVSPost2010Prop51ColorIndex
 90
      256
102
RTVSPost2010Prop51ColorRGB
 90
-16777216
102
RTVSPost2010PropOp51
 70
     0
102
RTVSPost2010Prop52
140
1.0
102
RTVSPost2010PropOp52
 70
     0
102
RTVSPost2010Prop53
 90
        2
102
RTVSPost2010PropOp53
 70
     1
102
RTVSPost2010Prop54
  1
strokes_ogs.tif
102
RTVSPost2010PropOp54
 70
     1
102
RTVSPost2010Prop55
280
     0
102
RTVSPost2010PropOp55
 70
     1
102
RTVSPost2010Prop56
140
1.0
102
RTVSPost2010PropOp56
 70
     1
102
RTVSPost2010Prop57
140
1.0
102
RTVSPost2010PropOp57
 70
     1
  0
XRECORD
  5
263
102
{ACAD_REACTORS
330
262
102
}
330
262
100
AcDbXrecord
280
     1
102
RTVSPost2010Prop28
280
     0
102
RTVSPost2010PropOp28
 70
     0
102
RTVSPost2010Prop29
280
     1
102
RTVSPost2010PropOp29
 70
     0
102
RTVSPost2010Prop30
280
     1
102
RTVSPost2010PropOp30
 70
     0
102
RTVSPost2010Prop31
280
     0
102
RTVSPost2010PropOp31
 70
     0
102
RTVSPost2010Prop32
280
     0
102
RTVSPost2010PropOp32
 70
     0
102
RTVSPost2010Prop33
280
     0
102
RTVSPost2010PropOp33
 70
     0
102
RTVSPost2010Prop34
280
     0
102
RTVSPost2010PropOp34
 70
     0
102
RTVSPost2010Prop35
280
     0
102
RTVSPost2010PropOp35
 70
     0
102
RTVSPost2010Prop36
280
     0
102
RTVSPost2010PropOp36
 70
     0
102
RTVSPost2010Prop37
 90
       50
102
RTVSPost2010PropOp37
 70
     0
102
RTVSPost2010Prop38
140
0.0
102
RTVSPost2010PropOp38
 70
     0
102
RTVSPost2010Prop39
140
1.0
102
RTVSPost2010PropOp39
 70
     0
102
RTVSPost2010Prop40
 90
        0
102
RTVSPost2010PropOp40
 70
     0
102
RTVSPost2010Prop41ColorIndex
 90
       18
102
RTVSPost2010Prop41ColorRGB
 90
        0
102
RTVSPost2010PropOp41
 70
     0
102
RTVSPost2010Prop42
 90
       50
102
RTVSPost2010PropOp42
 70
     0
102
RTVSPost2010Prop43
 90
        3
102
RTVSPost2010PropOp43
 70
     0
102
RTVSPost2010Prop44ColorIndex
 90
        5
102
RTVSPost2010Prop44ColorRGB
 90
      255
102
RTVSPost2010PropOp44
 70
     0
102
RTVSPost2010Prop45
280
     0
102
RTVSPost2010PropOp45
 70
     0
102
RTVSPost2010Prop46
 90
       50
102
RTVSPost2010PropOp46
 70
     0
102
RTVSPost2010Prop47
 90
       50
102
RTVSPost2010PropOp47
 70
     0
102
RTVSPost2010Prop48
 90
       50
102
RTVSPost2010PropOp48
 70
     0
102
RTVSPost2010Prop49
280
     0
102
RTVSPost2010PropOp49
 70
     0
102
RTVSPost2010Prop50
 90
       50
102
RTVSPost2010PropOp50
 70
     0
102
RTVSPost2010Prop51ColorIndex
 90
      256
102
RTVSPost2010Prop51ColorRGB
 90
-16777216
102
RTVSPost2010PropOp51
 70
     0
102
RTVSPost2010Prop52
140
1.0
102
RTVSPost2010PropOp52
 70
     0
102
RTVSPost2010Prop53
 90
        2
102
RTVSPost2010PropOp53
 70
     0
102
RTVSPost2010Prop54
  1
strokes_ogs.tif
102
RTVSPost2010PropOp54
 70
     0
102
RTVSPost2010Prop55
280
     0
102
RTVSPost2010PropOp55
 70
     0
102
RTVSPost2010Prop56
140
1.0
102
RTVSPost2010PropOp56
 70
     0
102
RTVSPost2010Prop57
140
1.0
102
RTVSPost2010PropOp57
 70
     0
  0
XRECORD
  5
25D
102
{ACAD_REACTORS
330
25C
102
}
330
25C
100
AcDbXrecord
280
     1
102
RTVSPost2010Prop28
280
     0
102
RTVSPost2010PropOp28
 70
     1
102
RTVSPost2010Prop29
280
     1
102
RTVSPost2010PropOp29
 70
     1
102
RTVSPost2010Prop30
280
     1
102
RTVSPost2010PropOp30
 70
     1
102
RTVSPost2010Prop31
280
     0
102
RTVSPost2010PropOp31
 70
     1
102
RTVSPost2010Prop32
280
     0
102
RTVSPost2010PropOp32
 70
     1
102
RTVSPost2010Prop33
280
     0
102
RTVSPost2010PropOp33
 70
     1
102
RTVSPost2010Prop34
280
     0
102
RTVSPost2010PropOp34
 70
     1
102
RTVSPost2010Prop35
280
     0
102
RTVSPost2010PropOp35
 70
     1
102
RTVSPost2010Prop36
280
     0
102
RTVSPost2010PropOp36
 70
     1
102
RTVSPost2010Prop37
 90
       50
102
RTVSPost2010PropOp37
 70
     1
102
RTVSPost2010Prop38
140
0.0
102
RTVSPost2010PropOp38
 70
     1
102
RTVSPost2010Prop39
140
1.0
102
RTVSPost2010PropOp39
 70
     1
102
RTVSPost2010Prop40
 90
        0
102
RTVSPost2010PropOp40
 70
     1
102
RTVSPost2010Prop41ColorIndex
 90
       18
102
RTVSPost2010Prop41ColorRGB
 90
        0
102
RTVSPost2010PropOp41
 70
     1
102
RTVSPost2010Prop42
 90
       50
102
RTVSPost2010PropOp42
 70
     1
102
RTVSPost2010Prop43
 90
        3
102
RTVSPost2010PropOp43
 70
     1
102
RTVSPost2010Prop44ColorIndex
 90
        5
102
RTVSPost2010Prop44ColorRGB
 90
      255
102
RTVSPost2010PropOp44
 70
     1
102
RTVSPost2010Prop45
280
     0
102
RTVSPost2010PropOp45
 70
     1
102
RTVSPost2010Prop46
 90
       50
102
RTVSPost2010PropOp46
 70
     1
102
RTVSPost2010Prop47
 90
       50
102
RTVSPost2010PropOp47
 70
     1
102
RTVSPost2010Prop48
 90
       50
102
RTVSPost2010PropOp48
 70
     1
102
RTVSPost2010Prop49
280
     0
102
RTVSPost2010PropOp49
 70
     1
102
RTVSPost2010Prop50
 90
       50
102
RTVSPost2010PropOp50
 70
     1
102
RTVSPost2010Prop51ColorIndex
 90
      256
102
RTVSPost2010Prop51ColorRGB
 90
-16777216
102
RTVSPost2010PropOp51
 70
     0
102
RTVSPost2010Prop52
140
1.0
102
RTVSPost2010PropOp52
 70
     0
102
RTVSPost2010Prop53
 90
        2
102
RTVSPost2010PropOp53
 70
     1
102
RTVSPost2010Prop54
  1
strokes_ogs.tif
102
RTVSPost2010PropOp54
 70
     1
102
RTVSPost2010Prop55
280
     0
102
RTVSPost2010PropOp55
 70
     1
102
RTVSPost2010Prop56
140
1.0
102
RTVSPost2010PropOp56
 70
     1
102
RTVSPost2010Prop57
140
1.0
102
RTVSPost2010PropOp57
 70
     1
  0
XRECORD
  5
265
102
{ACAD_REACTORS
330
264
102
}
330
264
100
AcDbXrecord
280
     1
102
RTVSPost2010Prop28
280
     0
102
RTVSPost2010PropOp28
 70
     0
102
RTVSPost2010Prop29
280
     1
102
RTVSPost2010PropOp29
 70
     0
102
RTVSPost2010Prop30
280
     1
102
RTVSPost2010PropOp30
 70
     0
102
RTVSPost2010Prop31
280
     0
102
RTVSPost2010PropOp31
 70
     0
102
RTVSPost2010Prop32
280
     0
102
RTVSPost2010PropOp32
 70
     0
102
RTVSPost2010Prop33
280
     0
102
RTVSPost2010PropOp33
 70
     0
102
RTVSPost2010Prop34
280
     0
102
RTVSPost2010PropOp34
 70
     0
102
RTVSPost2010Prop35
280
     0
102
RTVSPost2010PropOp35
 70
     0
102
RTVSPost2010Prop36
280
     0
102
RTVSPost2010PropOp36
 70
     0
102
RTVSPost2010Prop37
 90
       50
102
RTVSPost2010PropOp37
 70
     0
102
RTVSPost2010Prop38
140
0.0
102
RTVSPost2010PropOp38
 70
     0
102
RTVSPost2010Prop39
140
1.0
102
RTVSPost2010PropOp39
 70
     0
102
RTVSPost2010Prop40
 90
        0
102
RTVSPost2010PropOp40
 70
     0
102
RTVSPost2010Prop41ColorIndex
 90
       18
102
RTVSPost2010Prop41ColorRGB
 90
        0
102
RTVSPost2010PropOp41
 70
     0
102
RTVSPost2010Prop42
 90
       50
102
RTVSPost2010PropOp42
 70
     0
102
RTVSPost2010Prop43
 90
        3
102
RTVSPost2010PropOp43
 70
     0
102
RTVSPost2010Prop44ColorIndex
 90
        5
102
RTVSPost2010Prop44ColorRGB
 90
      255
102
RTVSPost2010PropOp44
 70
     0
102
RTVSPost2010Prop45
280
     0
102
RTVSPost2010PropOp45
 70
     0
102
RTVSPost2010Prop46
 90
       50
102
RTVSPost2010PropOp46
 70
     0
102
RTVSPost2010Prop47
 90
       50
102
RTVSPost2010PropOp47
 70
     0
102
RTVSPost2010Prop48
 90
       50
102
RTVSPost2010PropOp48
 70
     0
102
RTVSPost2010Prop49
280
     0
102
RTVSPost2010PropOp49
 70
     0
102
RTVSPost2010Prop50
 90
       50
102
RTVSPost2010PropOp50
 70
     0
102
RTVSPost2010Prop51ColorIndex
 90
      256
102
RTVSPost2010Prop51ColorRGB
 90
-16777216
102
RTVSPost2010PropOp51
 70
     0
102
RTVSPost2010Prop52
140
1.0
102
RTVSPost2010PropOp52
 70
     0
102
RTVSPost2010Prop53
 90
        2
102
RTVSPost2010PropOp53
 70
     0
102
RTVSPost2010Prop54
  1
strokes_ogs.tif
102
RTVSPost2010PropOp54
 70
     0
102
RTVSPost2010Prop55
280
     0
102
RTVSPost2010PropOp55
 70
     0
102
RTVSPost2010Prop56
140
1.0
102
RTVSPost2010PropOp56
 70
     0
102
RTVSPost2010Prop57
140
1.0
102
RTVSPost2010PropOp57
 70
     0
  0
XRECORD
  5
253
102
{ACAD_REACTORS
330
252
102
}
330
252
100
AcDbXrecord
280
     1
102
RTVSPost2010Prop28
280
     0
102
RTVSPost2010PropOp28
 70
     1
102
RTVSPost2010Prop29
280
     1
102
RTVSPost2010PropOp29
 70
     1
102
RTVSPost2010Prop30
280
     1
102
RTVSPost2010PropOp30
 70
     1
102
RTVSPost2010Prop31
280
     0
102
RTVSPost2010PropOp31
 70
     1
102
RTVSPost2010Prop32
280
     0
102
RTVSPost2010PropOp32
 70
     1
102
RTVSPost2010Prop33
280
     0
102
RTVSPost2010PropOp33
 70
     1
102
RTVSPost2010Prop34
280
     0
102
RTVSPost2010PropOp34
 70
     1
102
RTVSPost2010Prop35
280
     0
102
RTVSPost2010PropOp35
 70
     1
102
RTVSPost2010Prop36
280
     0
102
RTVSPost2010PropOp36
 70
     1
102
RTVSPost2010Prop37
 90
       50
102
RTVSPost2010PropOp37
 70
     1
102
RTVSPost2010Prop38
140
0.0
102
RTVSPost2010PropOp38
 70
     1
102
RTVSPost2010Prop39
140
1.0
102
RTVSPost2010PropOp39
 70
     1
102
RTVSPost2010Prop40
 90
        0
102
RTVSPost2010PropOp40
 70
     1
102
RTVSPost2010Prop41ColorIndex
 90
       18
102
RTVSPost2010Prop41ColorRGB
 90
        0
102
RTVSPost2010PropOp41
 70
     1
102
RTVSPost2010Prop42
 90
       50
102
RTVSPost2010PropOp42
 70
     1
102
RTVSPost2010Prop43
 90
        3
102
RTVSPost2010PropOp43
 70
     1
102
RTVSPost2010Prop44ColorIndex
 90
        5
102
RTVSPost2010Prop44ColorRGB
 90
      255
102
RTVSPost2010PropOp44
 70
     1
102
RTVSPost2010Prop45
280
     0
102
RTVSPost2010PropOp45
 70
     1
102
RTVSPost2010Prop46
 90
       50
102
RTVSPost2010PropOp46
 70
     1
102
RTVSPost2010Prop47
 90
       50
102
RTVSPost2010PropOp47
 70
     1
102
RTVSPost2010Prop48
 90
       50
102
RTVSPost2010PropOp48
 70
     1
102
RTVSPost2010Prop49
280
     0
102
RTVSPost2010PropOp49
 70
     1
102
RTVSPost2010Prop50
 90
       50
102
RTVSPost2010PropOp50
 70
     1
102
RTVSPost2010Prop51ColorIndex
 90
      256
102
RTVSPost2010Prop51ColorRGB
 90
-16777216
102
RTVSPost2010PropOp51
 70
     0
102
RTVSPost2010Prop52
140
1.0
102
RTVSPost2010PropOp52
 70
     0
102
RTVSPost2010Prop53
 90
        2
102
RTVSPost2010PropOp53
 70
     1
102
RTVSPost2010Prop54
  1
strokes_ogs.tif
102
RTVSPost2010PropOp54
 70
     1
102
RTVSPost2010Prop55
280
     0
102
RTVSPost2010PropOp55
 70
     1
102
RTVSPost2010Prop56
140
1.0
102
RTVSPost2010PropOp56
 70
     1
102
RTVSPost2010Prop57
140
1.0
102
RTVSPost2010PropOp57
 70
     1
  0
XRECORD
  5
271
102
{ACAD_REACTORS
330
270
102
}
330
270
100
AcDbXrecord
280
     1
102
RTVSPost2010Prop28
280
     0
102
RTVSPost2010PropOp28
 70
     1
102
RTVSPost2010Prop29
280
     1
102
RTVSPost2010PropOp29
 70
     1
102
RTVSPost2010Prop30
280
     1
102
RTVSPost2010PropOp30
 70
     1
102
RTVSPost2010Prop31
280
     0
102
RTVSPost2010PropOp31
 70
     1
102
RTVSPost2010Prop32
280
     0
102
RTVSPost2010PropOp32
 70
     1
102
RTVSPost2010Prop33
280
     0
102
RTVSPost2010PropOp33
 70
     1
102
RTVSPost2010Prop34
280
     0
102
RTVSPost2010PropOp34
 70
     1
102
RTVSPost2010Prop35
280
     0
102
RTVSPost2010PropOp35
 70
     1
102
RTVSPost2010Prop36
280
     0
102
RTVSPost2010PropOp36
 70
     1
102
RTVSPost2010Prop37
 90
       50
102
RTVSPost2010PropOp37
 70
     1
102
RTVSPost2010Prop38
140
0.0
102
RTVSPost2010PropOp38
 70
     1
102
RTVSPost2010Prop39
140
1.0
102
RTVSPost2010PropOp39
 70
     1
102
RTVSPost2010Prop40
 90
        0
102
RTVSPost2010PropOp40
 70
     1
102
RTVSPost2010Prop41ColorIndex
 90
       18
102
RTVSPost2010Prop41ColorRGB
 90
        0
102
RTVSPost2010PropOp41
 70
     1
102
RTVSPost2010Prop42
 90
       50
102
RTVSPost2010PropOp42
 70
     1
102
RTVSPost2010Prop43
 90
        3
102
RTVSPost2010PropOp43
 70
     1
102
RTVSPost2010Prop44ColorIndex
 90
        5
102
RTVSPost2010Prop44ColorRGB
 90
      255
102
RTVSPost2010PropOp44
 70
     1
102
RTVSPost2010Prop45
280
     0
102
RTVSPost2010PropOp45
 70
     1
102
RTVSPost2010Prop46
 90
       50
102
RTVSPost2010PropOp46
 70
     1
102
RTVSPost2010Prop47
 90
       50
102
RTVSPost2010PropOp47
 70
     1
102
RTVSPost2010Prop48
 90
       50
102
RTVSPost2010PropOp48
 70
     1
102
RTVSPost2010Prop49
280
     0
102
RTVSPost2010PropOp49
 70
     1
102
RTVSPost2010Prop50
 90
       50
102
RTVSPost2010PropOp50
 70
     1
102
RTVSPost2010Prop51ColorIndex
 90
      256
102
RTVSPost2010Prop51ColorRGB
 90
-16777216
102
RTVSPost2010PropOp51
 70
     0
102
RTVSPost2010Prop52
140
1.0
102
RTVSPost2010PropOp52
 70
     0
102
RTVSPost2010Prop53
 90
        2
102
RTVSPost2010PropOp53
 70
     1
102
RTVSPost2010Prop54
  1
strokes_ogs.tif
102
RTVSPost2010PropOp54
 70
     1
102
RTVSPost2010Prop55
280
     0
102
RTVSPost2010PropOp55
 70
     1
102
RTVSPost2010Prop56
140
1.0
102
RTVSPost2010PropOp56
 70
     1
102
RTVSPost2010Prop57
140
1.0
102
RTVSPost2010PropOp57
 70
     1
  0
XRECORD
  5
26F
102
{ACAD_REACTORS
330
26E
102
}
330
26E
100
AcDbXrecord
280
     1
102
RTVSPost2010Prop28
280
     0
102
RTVSPost2010PropOp28
 70
     1
102
RTVSPost2010Prop29
280
     1
102
RTVSPost2010PropOp29
 70
     1
102
RTVSPost2010Prop30
280
     1
102
RTVSPost2010PropOp30
 70
     1
102
RTVSPost2010Prop31
280
     0
102
RTVSPost2010PropOp31
 70
     1
102
RTVSPost2010Prop32
280
     0
102
RTVSPost2010PropOp32
 70
     1
102
RTVSPost2010Prop33
280
     0
102
RTVSPost2010PropOp33
 70
     1
102
RTVSPost2010Prop34
280
     0
102
RTVSPost2010PropOp34
 70
     1
102
RTVSPost2010Prop35
280
     0
102
RTVSPost2010PropOp35
 70
     1
102
RTVSPost2010Prop36
280
     0
102
RTVSPost2010PropOp36
 70
     1
102
RTVSPost2010Prop37
 90
       50
102
RTVSPost2010PropOp37
 70
     1
102
RTVSPost2010Prop38
140
0.0
102
RTVSPost2010PropOp38
 70
     1
102
RTVSPost2010Prop39
140
1.0
102
RTVSPost2010PropOp39
 70
     1
102
RTVSPost2010Prop40
 90
        0
102
RTVSPost2010PropOp40
 70
     1
102
RTVSPost2010Prop41ColorIndex
 90
       18
102
RTVSPost2010Prop41ColorRGB
 90
        0
102
RTVSPost2010PropOp41
 70
     1
102
RTVSPost2010Prop42
 90
       50
102
RTVSPost2010PropOp42
 70
     1
102
RTVSPost2010Prop43
 90
        3
102
RTVSPost2010PropOp43
 70
     1
102
RTVSPost2010Prop44ColorIndex
 90
        5
102
RTVSPost2010Prop44ColorRGB
 90
      255
102
RTVSPost2010PropOp44
 70
     1
102
RTVSPost2010Prop45
280
     0
102
RTVSPost2010PropOp45
 70
     1
102
RTVSPost2010Prop46
 90
       50
102
RTVSPost2010PropOp46
 70
     1
102
RTVSPost2010Prop47
 90
       50
102
RTVSPost2010PropOp47
 70
     1
102
RTVSPost2010Prop48
 90
       50
102
RTVSPost2010PropOp48
 70
     1
102
RTVSPost2010Prop49
280
     0
102
RTVSPost2010PropOp49
 70
     1
102
RTVSPost2010Prop50
 90
       50
102
RTVSPost2010PropOp50
 70
     1
102
RTVSPost2010Prop51ColorIndex
 90
      256
102
RTVSPost2010Prop51ColorRGB
 90
-16777216
102
RTVSPost2010PropOp51
 70
     0
102
RTVSPost2010Prop52
140
1.0
102
RTVSPost2010PropOp52
 70
     0
102
RTVSPost2010Prop53
 90
        2
102
RTVSPost2010PropOp53
 70
     1
102
RTVSPost2010Prop54
  1
strokes_ogs.tif
102
RTVSPost2010PropOp54
 70
     1
102
RTVSPost2010Prop55
280
     0
102
RTVSPost2010PropOp55
 70
     1
102
RTVSPost2010Prop56
140
1.0
102
RTVSPost2010PropOp56
 70
     1
102
RTVSPost2010Prop57
140
1.0
102
RTVSPost2010PropOp57
 70
     1
  0
XRECORD
  5
269
102
{ACAD_REACTORS
330
268
102
}
330
268
100
AcDbXrecord
280
     1
102
RTVSPost2010Prop28
280
     0
102
RTVSPost2010PropOp28
 70
     1
102
RTVSPost2010Prop29
280
     1
102
RTVSPost2010PropOp29
 70
     1
102
RTVSPost2010Prop30
280
     1
102
RTVSPost2010PropOp30
 70
     1
102
RTVSPost2010Prop31
280
     0
102
RTVSPost2010PropOp31
 70
     1
102
RTVSPost2010Prop32
280
     0
102
RTVSPost2010PropOp32
 70
     1
102
RTVSPost2010Prop33
280
     0
102
RTVSPost2010PropOp33
 70
     1
102
RTVSPost2010Prop34
280
     0
102
RTVSPost2010PropOp34
 70
     1
102
RTVSPost2010Prop35
280
     0
102
RTVSPost2010PropOp35
 70
     1
102
RTVSPost2010Prop36
280
     0
102
RTVSPost2010PropOp36
 70
     1
102
RTVSPost2010Prop37
 90
       50
102
RTVSPost2010PropOp37
 70
     1
102
RTVSPost2010Prop38
140
0.0
102
RTVSPost2010PropOp38
 70
     1
102
RTVSPost2010Prop39
140
1.0
102
RTVSPost2010PropOp39
 70
     1
102
RTVSPost2010Prop40
 90
        0
102
RTVSPost2010PropOp40
 70
     1
102
RTVSPost2010Prop41ColorIndex
 90
       18
102
RTVSPost2010Prop41ColorRGB
 90
        0
102
RTVSPost2010PropOp41
 70
     1
102
RTVSPost2010Prop42
 90
       50
102
RTVSPost2010PropOp42
 70
     1
102
RTVSPost2010Prop43
 90
        3
102
RTVSPost2010PropOp43
 70
     1
102
RTVSPost2010Prop44ColorIndex
 90
        5
102
RTVSPost2010Prop44ColorRGB
 90
      255
102
RTVSPost2010PropOp44
 70
     1
102
RTVSPost2010Prop45
280
     0
102
RTVSPost2010PropOp45
 70
     1
102
RTVSPost2010Prop46
 90
       50
102
RTVSPost2010PropOp46
 70
     1
102
RTVSPost2010Prop47
 90
       50
102
RTVSPost2010PropOp47
 70
     1
102
RTVSPost2010Prop48
 90
       50
102
RTVSPost2010PropOp48
 70
     1
102
RTVSPost2010Prop49
280
     0
102
RTVSPost2010PropOp49
 70
     1
102
RTVSPost2010Prop50
 90
       50
102
RTVSPost2010PropOp50
 70
     1
102
RTVSPost2010Prop51ColorIndex
 90
      256
102
RTVSPost2010Prop51ColorRGB
 90
-16777216
102
RTVSPost2010PropOp51
 70
     0
102
RTVSPost2010Prop52
140
1.0
102
RTVSPost2010PropOp52
 70
     0
102
RTVSPost2010Prop53
 90
        2
102
RTVSPost2010PropOp53
 70
     1
102
RTVSPost2010Prop54
  1
strokes_ogs.tif
102
RTVSPost2010PropOp54
 70
     1
102
RTVSPost2010Prop55
280
     0
102
RTVSPost2010PropOp55
 70
     1
102
RTVSPost2010Prop56
140
1.0
102
RTVSPost2010PropOp56
 70
     1
102
RTVSPost2010Prop57
140
1.0
102
RTVSPost2010PropOp57
 70
     1
  0
XRECORD
  5
26B
102
{ACAD_REACTORS
330
26A
102
}
330
26A
100
AcDbXrecord
280
     1
102
RTVSPost2010Prop28
280
     0
102
RTVSPost2010PropOp28
 70
     1
102
RTVSPost2010Prop29
280
     1
102
RTVSPost2010PropOp29
 70
     1
102
RTVSPost2010Prop30
280
     1
102
RTVSPost2010PropOp30
 70
     1
102
RTVSPost2010Prop31
280
     0
102
RTVSPost2010PropOp31
 70
     1
102
RTVSPost2010Prop32
280
     0
102
RTVSPost2010PropOp32
 70
     1
102
RTVSPost2010Prop33
280
     0
102
RTVSPost2010PropOp33
 70
     1
102
RTVSPost2010Prop34
280
     0
102
RTVSPost2010PropOp34
 70
     1
102
RTVSPost2010Prop35
280
     0
102
RTVSPost2010PropOp35
 70
     1
102
RTVSPost2010Prop36
280
     0
102
RTVSPost2010PropOp36
 70
     1
102
RTVSPost2010Prop37
 90
       50
102
RTVSPost2010PropOp37
 70
     1
102
RTVSPost2010Prop38
140
0.0
102
RTVSPost2010PropOp38
 70
     1
102
RTVSPost2010Prop39
140
1.0
102
RTVSPost2010PropOp39
 70
     1
102
RTVSPost2010Prop40
 90
        0
102
RTVSPost2010PropOp40
 70
     1
102
RTVSPost2010Prop41ColorIndex
 90
       18
102
RTVSPost2010Prop41ColorRGB
 90
        0
102
RTVSPost2010PropOp41
 70
     1
102
RTVSPost2010Prop42
 90
       50
102
RTVSPost2010PropOp42
 70
     1
102
RTVSPost2010Prop43
 90
        3
102
RTVSPost2010PropOp43
 70
     1
102
RTVSPost2010Prop44ColorIndex
 90
        5
102
RTVSPost2010Prop44ColorRGB
 90
      255
102
RTVSPost2010PropOp44
 70
     1
102
RTVSPost2010Prop45
280
     0
102
RTVSPost2010PropOp45
 70
     1
102
RTVSPost2010Prop46
 90
       50
102
RTVSPost2010PropOp46
 70
     1
102
RTVSPost2010Prop47
 90
       50
102
RTVSPost2010PropOp47
 70
     1
102
RTVSPost2010Prop48
 90
       50
102
RTVSPost2010PropOp48
 70
     1
102
RTVSPost2010Prop49
280
     0
102
RTVSPost2010PropOp49
 70
     1
102
RTVSPost2010Prop50
 90
       50
102
RTVSPost2010PropOp50
 70
     1
102
RTVSPost2010Prop51ColorIndex
 90
      256
102
RTVSPost2010Prop51ColorRGB
 90
-16777216
102
RTVSPost2010PropOp51
 70
     0
102
RTVSPost2010Prop52
140
1.0
102
RTVSPost2010PropOp52
 70
     0
102
RTVSPost2010Prop53
 90
        2
102
RTVSPost2010PropOp53
 70
     1
102
RTVSPost2010Prop54
  1
strokes_ogs.tif
102
RTVSPost2010PropOp54
 70
     1
102
RTVSPost2010Prop55
280
     0
102
RTVSPost2010PropOp55
 70
     1
102
RTVSPost2010Prop56
140
1.0
102
RTVSPost2010PropOp56
 70
     1
102
RTVSPost2010Prop57
140
1.0
102
RTVSPost2010PropOp57
 70
     1
  0
XRECORD
  5
25B
102
{ACAD_REACTORS
330
25A
102
}
330
25A
100
AcDbXrecord
280
     1
102
RTVSPost2010Prop28
280
     0
102
RTVSPost2010PropOp28
 70
     1
102
RTVSPost2010Prop29
280
     1
102
RTVSPost2010PropOp29
 70
     1
102
RTVSPost2010Prop30
280
     1
102
RTVSPost2010PropOp30
 70
     1
102
RTVSPost2010Prop31
280
     0
102
RTVSPost2010PropOp31
 70
     1
102
RTVSPost2010Prop32
280
     0
102
RTVSPost2010PropOp32
 70
     1
102
RTVSPost2010Prop33
280
     0
102
RTVSPost2010PropOp33
 70
     1
102
RTVSPost2010Prop34
280
     0
102
RTVSPost2010PropOp34
 70
     1
102
RTVSPost2010Prop35
280
     0
102
RTVSPost2010PropOp35
 70
     1
102
RTVSPost2010Prop36
280
     0
102
RTVSPost2010PropOp36
 70
     1
102
RTVSPost2010Prop37
 90
       50
102
RTVSPost2010PropOp37
 70
     1
102
RTVSPost2010Prop38
140
0.0
102
RTVSPost2010PropOp38
 70
     1
102
RTVSPost2010Prop39
140
1.0
102
RTVSPost2010PropOp39
 70
     1
102
RTVSPost2010Prop40
 90
        0
102
RTVSPost2010PropOp40
 70
     1
102
RTVSPost2010Prop41ColorIndex
 90
       18
102
RTVSPost2010Prop41ColorRGB
 90
        0
102
RTVSPost2010PropOp41
 70
     1
102
RTVSPost2010Prop42
 90
       50
102
RTVSPost2010PropOp42
 70
     1
102
RTVSPost2010Prop43
 90
        3
102
RTVSPost2010PropOp43
 70
     1
102
RTVSPost2010Prop44ColorIndex
 90
        5
102
RTVSPost2010Prop44ColorRGB
 90
      255
102
RTVSPost2010PropOp44
 70
     1
102
RTVSPost2010Prop45
280
     0
102
RTVSPost2010PropOp45
 70
     1
102
RTVSPost2010Prop46
 90
       50
102
RTVSPost2010PropOp46
 70
     1
102
RTVSPost2010Prop47
 90
       50
102
RTVSPost2010PropOp47
 70
     1
102
RTVSPost2010Prop48
 90
       50
102
RTVSPost2010PropOp48
 70
     1
102
RTVSPost2010Prop49
280
     0
102
RTVSPost2010PropOp49
 70
     1
102
RTVSPost2010Prop50
 90
       50
102
RTVSPost2010PropOp50
 70
     1
102
RTVSPost2010Prop51ColorIndex
 90
      256
102
RTVSPost2010Prop51ColorRGB
 90
-16777216
102
RTVSPost2010PropOp51
 70
     0
102
RTVSPost2010Prop52
140
1.0
102
RTVSPost2010PropOp52
 70
     0
102
RTVSPost2010Prop53
 90
        2
102
RTVSPost2010PropOp53
 70
     1
102
RTVSPost2010Prop54
  1
strokes_ogs.tif
102
RTVSPost2010PropOp54
 70
     1
102
RTVSPost2010Prop55
280
     0
102
RTVSPost2010PropOp55
 70
     1
102
RTVSPost2010Prop56
140
1.0
102
RTVSPost2010PropOp56
 70
     1
102
RTVSPost2010Prop57
140
1.0
102
RTVSPost2010PropOp57
 70
     1
  0
XRECORD
  5
24D
102
{ACAD_REACTORS
330
24C
102
}
330
24C
100
AcDbXrecord
280
     1
102
RTVSPost2010Prop28
280
     0
102
RTVSPost2010PropOp28
 70
     1
102
RTVSPost2010Prop29
280
     1
102
RTVSPost2010PropOp29
 70
     1
102
RTVSPost2010Prop30
280
     1
102
RTVSPost2010PropOp30
 70
     1
102
RTVSPost2010Prop31
280
     0
102
RTVSPost2010PropOp31
 70
     1
102
RTVSPost2010Prop32
280
     0
102
RTVSPost2010PropOp32
 70
     1
102
RTVSPost2010Prop33
280
     0
102
RTVSPost2010PropOp33
 70
     1
102
RTVSPost2010Prop34
280
     0
102
RTVSPost2010PropOp34
 70
     1
102
RTVSPost2010Prop35
280
     0
102
RTVSPost2010PropOp35
 70
     1
102
RTVSPost2010Prop36
280
     0
102
RTVSPost2010PropOp36
 70
     1
102
RTVSPost2010Prop37
 90
       50
102
RTVSPost2010PropOp37
 70
     1
102
RTVSPost2010Prop38
140
0.0
102
RTVSPost2010PropOp38
 70
     1
102
RTVSPost2010Prop39
140
1.0
102
RTVSPost2010PropOp39
 70
     1
102
RTVSPost2010Prop40
 90
        0
102
RTVSPost2010PropOp40
 70
     1
102
RTVSPost2010Prop41ColorIndex
 90
       18
102
RTVSPost2010Prop41ColorRGB
 90
        0
102
RTVSPost2010PropOp41
 70
     1
102
RTVSPost2010Prop42
 90
       50
102
RTVSPost2010PropOp42
 70
     1
102
RTVSPost2010Prop43
 90
        3
102
RTVSPost2010PropOp43
 70
     1
102
RTVSPost2010Prop44ColorIndex
 90
        5
102
RTVSPost2010Prop44ColorRGB
 90
      255
102
RTVSPost2010PropOp44
 70
     1
102
RTVSPost2010Prop45
280
     0
102
RTVSPost2010PropOp45
 70
     1
102
RTVSPost2010Prop46
 90
       50
102
RTVSPost2010PropOp46
 70
     1
102
RTVSPost2010Prop47
 90
       50
102
RTVSPost2010PropOp47
 70
     1
102
RTVSPost2010Prop48
 90
       50
102
RTVSPost2010PropOp48
 70
     1
102
RTVSPost2010Prop49
280
     0
102
RTVSPost2010PropOp49
 70
     1
102
RTVSPost2010Prop50
 90
       50
102
RTVSPost2010PropOp50
 70
     1
102
RTVSPost2010Prop51ColorIndex
 90
      256
102
RTVSPost2010Prop51ColorRGB
 90
-16777216
102
RTVSPost2010PropOp51
 70
     0
102
RTVSPost2010Prop52
140
1.0
102
RTVSPost2010PropOp52
 70
     0
102
RTVSPost2010Prop53
 90
        2
102
RTVSPost2010PropOp53
 70
     1
102
RTVSPost2010Prop54
  1
strokes_ogs.tif
102
RTVSPost2010PropOp54
 70
     1
102
RTVSPost2010Prop55
280
     0
102
RTVSPost2010PropOp55
 70
     1
102
RTVSPost2010Prop56
140
1.0
102
RTVSPost2010PropOp56
 70
     1
102
RTVSPost2010Prop57
140
1.0
102
RTVSPost2010PropOp57
 70
     1
  0
XRECORD
  5
26D
102
{ACAD_REACTORS
330
26C
102
}
330
26C
100
AcDbXrecord
280
     1
102
RTVSPost2010Prop28
280
     0
102
RTVSPost2010PropOp28
 70
     1
102
RTVSPost2010Prop29
280
     1
102
RTVSPost2010PropOp29
 70
     1
102
RTVSPost2010Prop30
280
     1
102
RTVSPost2010PropOp30
 70
     1
102
RTVSPost2010Prop31
280
     0
102
RTVSPost2010PropOp31
 70
     1
102
RTVSPost2010Prop32
280
     0
102
RTVSPost2010PropOp32
 70
     1
102
RTVSPost2010Prop33
280
     0
102
RTVSPost2010PropOp33
 70
     1
102
RTVSPost2010Prop34
280
     0
102
RTVSPost2010PropOp34
 70
     1
102
RTVSPost2010Prop35
280
     0
102
RTVSPost2010PropOp35
 70
     1
102
RTVSPost2010Prop36
280
     0
102
RTVSPost2010PropOp36
 70
     1
102
RTVSPost2010Prop37
 90
       50
102
RTVSPost2010PropOp37
 70
     1
102
RTVSPost2010Prop38
140
0.0
102
RTVSPost2010PropOp38
 70
     1
102
RTVSPost2010Prop39
140
1.0
102
RTVSPost2010PropOp39
 70
     1
102
RTVSPost2010Prop40
 90
        0
102
RTVSPost2010PropOp40
 70
     1
102
RTVSPost2010Prop41ColorIndex
 90
       18
102
RTVSPost2010Prop41ColorRGB
 90
        0
102
RTVSPost2010PropOp41
 70
     1
102
RTVSPost2010Prop42
 90
       50
102
RTVSPost2010PropOp42
 70
     1
102
RTVSPost2010Prop43
 90
        3
102
RTVSPost2010PropOp43
 70
     1
102
RTVSPost2010Prop44ColorIndex
 90
        5
102
RTVSPost2010Prop44ColorRGB
 90
      255
102
RTVSPost2010PropOp44
 70
     1
102
RTVSPost2010Prop45
280
     0
102
RTVSPost2010PropOp45
 70
     1
102
RTVSPost2010Prop46
 90
       50
102
RTVSPost2010PropOp46
 70
     1
102
RTVSPost2010Prop47
 90
       50
102
RTVSPost2010PropOp47
 70
     1
102
RTVSPost2010Prop48
 90
       50
102
RTVSPost2010PropOp48
 70
     1
102
RTVSPost2010Prop49
280
     0
102
RTVSPost2010PropOp49
 70
     1
102
RTVSPost2010Prop50
 90
       50
102
RTVSPost2010PropOp50
 70
     1
102
RTVSPost2010Prop51ColorIndex
 90
      256
102
RTVSPost2010Prop51ColorRGB
 90
-16777216
102
RTVSPost2010PropOp51
 70
     0
102
RTVSPost2010Prop52
140
1.0
102
RTVSPost2010PropOp52
 70
     0
102
RTVSPost2010Prop53
 90
        2
102
RTVSPost2010PropOp53
 70
     1
102
RTVSPost2010Prop54
  1
strokes_ogs.tif
102
RTVSPost2010PropOp54
 70
     1
102
RTVSPost2010Prop55
280
     0
102
RTVSPost2010PropOp55
 70
     1
102
RTVSPost2010Prop56
140
1.0
102
RTVSPost2010PropOp56
 70
     1
102
RTVSPost2010Prop57
140
1.0
102
RTVSPost2010PropOp57
 70
     1
  0
ENDSEC
  0
EOF
